osu file format v14

[General]
AudioFilename: audio.mp3
AudioLeadIn: 0
PreviewTime: 59028
Countdown: 0
SampleSet: Soft
StackLeniency: 0.7
Mode: 0
LetterboxInBreaks: 0
WidescreenStoryboard: 0

[Editor]
DistanceSpacing: 1.2
BeatDivisor: 4
GridSize: 4
TimelineZoom: 1

[Metadata]
Title:be confidence
TitleUnicode:be confidence
Artist:Duca
ArtistUnicode:Duca
Creator:Xexxar
Version:Normal
Source:タラレバ
Tags:tarareba as in What If stories eroge game visual novel aries anxient angel note MeisClauson 中山マミ Peak A Soul+
BeatmapID:984936
BeatmapSetID:437990

[Difficulty]
HPDrainRate:4
CircleSize:3.2
OverallDifficulty:4.5
ApproachRate:5.5
SliderMultiplier:1.2
SliderTickRate:2

[Events]
//Background and Video events
0,0,"bg maybe.jpg",0,0
Video,-15,"tarareba.avi"
//Break Periods
//Storyboard Layer 0 (Background)
//Storyboard Layer 1 (Fail)
//Storyboard Layer 2 (Pass)
//Storyboard Layer 3 (Foreground)
//Storyboard Sound Samples

[TimingPoints]
990,461.538461538462,4,2,1,45,1,0
990,-111.111111111111,4,2,1,45,0,0
1220,-111.111111111111,4,2,1,25,0,0
1682,-111.111111111111,4,2,1,45,0,0
1913,-111.111111111111,4,2,1,25,0,0
2374,-111.111111111111,4,2,1,37,0,0
2490,-111.111111111111,4,2,1,5,0,0
2836,-111.111111111111,4,2,1,10,0,0
3066,-111.111111111111,4,2,1,15,0,0
3297,-111.111111111111,4,2,1,22,0,0
3528,-111.111111111111,4,2,1,30,0,0
3759,-111.111111111111,4,2,1,55,0,0
4682,-111.111111111111,4,2,1,45,0,0
4913,-111.111111111111,4,2,1,25,0,0
5143,-111.111111111111,4,2,1,35,0,0
5374,-111.111111111111,4,2,1,45,0,0
5605,-111.111111111111,4,2,1,30,0,0
6066,-111.111111111111,4,2,1,37,0,0
6182,-111.111111111111,4,2,1,5,0,0
6528,-111.111111111111,4,2,1,10,0,0
6758,-111.111111111111,4,2,1,15,0,0
6989,-111.111111111111,4,2,1,22,0,0
7220,-111.111111111111,4,2,1,30,0,0
7451,-111.111111111111,4,2,1,55,0,0
8374,-111.111111111111,4,2,1,45,0,0
9297,-111.111111111111,4,2,2,45,0,0
9528,-111.111111111111,4,2,1,45,0,0
9759,-111.111111111111,4,2,1,45,0,0
9874,-111.111111111111,4,2,1,5,0,0
10220,-111.111111111111,4,2,1,10,0,0
10451,-111.111111111111,4,2,1,15,0,0
10682,-111.111111111111,4,2,2,22,0,0
10913,-111.111111111111,4,2,1,30,0,0
11143,-111.111111111111,4,2,1,55,0,0
12066,-111.111111111111,4,2,1,45,0,0
12297,-111.111111111111,4,2,1,30,0,0
12759,-111.111111111111,4,2,1,45,0,0
12990,-111.111111111111,4,2,2,35,0,0
13220,-111.111111111111,4,2,1,35,0,0
13451,-111.111111111111,4,2,1,70,0,0
14374,-111.111111111111,4,2,1,20,0,0
14836,-111.111111111111,4,2,1,40,0,0
15528,-90.9090909090909,4,2,1,45,0,0
15759,-90.9090909090909,4,3,1,45,0,0
30066,-90.9090909090909,4,3,1,55,0,0
30528,-90.9090909090909,4,3,1,45,0,0
44836,-90.9090909090909,4,3,1,55,0,0
45297,-100,4,3,1,45,0,0
48990,-100,4,3,1,50,0,0
52682,-90.9090909090909,4,3,1,55,0,0
58220,-90.9090909090909,4,3,2,55,0,0
59143,-90.9090909090909,4,3,1,55,0,0
60066,-83.3333333333333,4,3,1,80,0,1
60413,-83.3333333333333,4,3,1,5,0,1
60528,-83.3333333333333,4,3,1,65,0,1
74374,-83.3333333333333,4,3,1,75,0,0
74836,-83.3333333333333,4,3,1,75,0,1
75182,-83.3333333333333,4,3,1,5,0,1
75297,-83.3333333333333,4,3,1,65,0,1
89605,-90.9090909090909,4,3,1,55,0,0
104605,-90.9090909090909,4,3,1,30,0,0
105990,-90.9090909090909,4,3,1,25,0,0
106220,-90.9090909090909,4,3,1,25,0,0
107143,-90.9090909090909,4,3,1,20,0,0
108066,-90.9090909090909,4,3,1,15,0,0
108990,-90.9090909090909,4,3,1,10,0,0
109913,-90.9090909090909,4,3,1,5,0,0

[Colours]
Combo1 : 215,100,253
Combo2 : 248,219,133
Combo3 : 133,173,248
Combo4 : 252,199,200

[HitObjects]
111,173,990,6,0,B|116:228|116:228|94:276|94:276|100:336,2,161.999995056153,2|2|2,0:0|0:0|0:0,0:0:0:0:
391,335,3759,1,2,0:0:0:0:
410,119,4682,6,0,B|356:111|356:111|316:75|316:75|256:65,2,161.999995056153,2|2|2,0:0|0:0|0:0,0:0:0:0:
85,119,7451,1,2,0:0:0:0:
127,330,8374,6,0,P|159:342|236:337,1,107.999996704102,2|0,0:0|0:0,0:0:0:0:
335,307,9297,1,2,0:0:0:0:
249,242,9759,2,0,B|230:189|230:189|241:19,1,215.999993408203,2|0,0:0|0:0,0:0:0:0:
345,6,11143,1,2,0:0:0:0:
445,169,12066,6,0,P|453:223|443:282,1,107.999996704102,2|0,0:0|0:0,0:0:0:0:
350,328,12990,1,2,0:0:0:0:
335,221,13451,1,2,0:0:0:0:
87,283,15528,5,2,0:0:0:0:
44,216,15759,2,0,B|24:170|24:170|38:68,1,132.00000402832,12|8,0:0|0:0,0:0:0:0:
92,34,16451,2,0,P|128:30|177:46,1,66.0000020141602,0|8,0:0|0:0,0:0:0:0:
220,83,16913,1,0,0:0:0:0:
293,54,17143,2,0,L|440:73,1,132.00000402832,10|8,0:0|0:0,0:0:0:0:
410,228,18066,5,8,0:0:0:0:
259,177,18528,2,0,P|222:174|176:187,1,66.0000020141602,8|2,0:0|0:2,0:0:0:0:
138,238,18990,2,0,P|133:275|147:326,1,66.0000020141602,8|0,0:2|0:0,0:0:0:0:
200,351,19451,6,0,L|356:360,1,132.00000402832,12|8,0:0|0:0,0:0:0:0:
398,315,20143,2,0,P|417:272|414:234,1,66.0000020141602,2|8,0:2|0:0,0:0:0:0:
368,190,20605,1,0,0:0:0:0:
337,262,20836,2,0,B|273:258|273:258|210:221,1,132.00000402832,10|8,0:0|0:0,0:0:0:0:
278,78,21759,5,8,0:0:0:0:
120,96,22220,1,8,0:0:0:0:
105,253,22682,1,8,0:2:0:0:
67,183,22913,1,0,0:0:0:0:
28,251,23143,6,0,P|22:288|28:323,1,66.0000020141602,12|0,0:0|0:0,0:0:0:0:
94,365,23605,2,0,L|233:372,1,132.00000402832,8|8,0:0|0:0,0:0:0:0:
296,336,24297,1,2,0:2:0:0:
362,379,24528,2,0,P|401:383|433:379,1,66.0000020141602,10|0,0:0|0:0,0:0:0:0:
492,334,24990,6,0,P|505:283|486:187,1,132.00000402832,8|8,0:0|0:0,0:0:0:0:
403,84,25913,2,0,P|368:78|332:83,1,66.0000020141602,8|0,0:0|0:0,0:0:0:0:
278,134,26374,2,0,P|270:166|276:215,1,66.0000020141602,10|0,0:2|0:0,0:0:0:0:
318,263,26836,6,0,B|327:296|315:331,1,66.0000020141602,12|2,0:0|0:2,0:0:0:0:
244,361,27297,2,0,L|98:352,1,132.00000402832,8|8,0:0|0:0,0:0:0:0:
34,371,27990,1,2,0:2:0:0:
58,295,28220,2,0,P|67:239|46:153,2,132.00000402832,10|8|8,0:0|0:0|0:0,0:0:0:0:
204,360,29605,6,0,L|279:363,1,66.0000020141602,10|2,0:2|0:2,0:0:0:0:
347,348,30066,2,0,P|355:312|348:272,1,66.0000020141602,10|2,0:2|0:2,0:0:0:0:
281,246,30528,6,0,B|253:186|253:186|261:97,1,132.00000402832,12|8,0:2|0:0,0:0:0:0:
308,58,31220,2,0,P|345:54|376:63,1,66.0000020141602,2|8,0:2|0:0,0:0:0:0:
336,132,31682,1,2,0:2:0:0:
415,132,31913,2,0,B|425:178|425:178|387:263,1,132.00000402832,8|8,0:3|0:0,0:0:0:0:
239,303,32836,5,8,0:0:0:0:
157,167,33297,2,0,L|151:88,1,66.0000020141602,10|2,0:0|0:2,0:0:0:0:
112,31,33759,2,0,P|68:28|35:35,1,66.0000020141602,8|0,0:2|0:3,0:0:0:0:
9,101,34220,6,0,B|2:141|2:141|16:239,1,132.00000402832,12|8,0:3|0:3,0:0:0:0:
72,286,34913,2,0,L|157:291,1,66.0000020141602,2|8,0:2|0:0,0:0:0:0:
203,244,35374,1,2,0:2:0:0:
241,313,35605,2,0,P|310:321|396:293,1,132.00000402832,8|8,0:0|0:0,0:0:0:0:
399,151,36528,5,8,0:3:0:0:
452,300,36990,1,10,0:0:0:0:
331,196,37451,2,0,P|318:154|327:112,1,66.0000020141602,8|2,0:2|0:2,0:0:0:0:
373,75,37913,6,0,L|453:70,1,66.0000020141602,12|2,0:0|0:2,0:0:0:0:
503,116,38374,1,8,0:0:0:0:
466,186,38605,2,0,P|454:218|457:265,1,66.0000020141602,2|8,0:2|0:0,0:0:0:0:
476,325,39066,1,2,0:2:0:0:
398,307,39297,2,0,P|332:304|262:321,1,132.00000402832,8|8,0:0|0:0,0:0:0:0:
121,378,40220,5,8,0:0:0:0:
59,236,40682,2,0,L|57:147,1,66.0000020141602,10|2,0:0|0:2,0:0:0:0:
86,96,41143,2,0,B|119:85|119:85|153:93,1,66.0000020141602,10|0,0:2|0:0,0:0:0:0:
226,110,41605,5,14,0:0:0:0:
173,168,41836,1,2,0:2:0:0:
211,237,42066,2,0,B|247:257|247:257|355:265,1,132.00000402832,8|8,0:0|0:0,0:0:0:0:
389,203,42759,1,2,0:2:0:0:
352,133,42990,2,0,P|349:59|376:7,1,132.00000402832,8|8,0:0|0:0,0:0:0:0:
504,99,43913,5,8,0:0:0:0:
487,256,44374,2,0,L|422:259,1,66.0000020141602,10|2,0:3|0:2,0:0:0:0:
346,231,44836,2,0,P|343:196|354:159,1,66.0000020141602,10|0,0:2|0:0,0:0:0:0:
431,152,45297,6,0,P|445:93|428:24,1,120,14|0,0:2|0:0,0:0:0:0:
358,13,45990,2,0,L|271:15,1,60,2|8,0:2|0:0,0:0:0:0:
220,19,46451,1,2,0:2:0:0:
263,83,46682,1,8,0:2:0:0:
217,146,46913,2,0,P|207:176|213:220,1,60,2|4,0:2|0:0,0:0:0:0:
252,268,47374,6,0,P|259:300|253:342,1,60,2|8,0:2|0:0,0:0:0:0:
185,359,47836,1,2,0:2:0:0:
29,344,48297,1,0,0:0:0:0:
3,267,48528,2,0,P|-2:217|7:183,1,60,10|0,0:2|0:0,0:0:0:0:
31,136,48990,6,0,B|80:100|80:100|165:97,1,120,12|0,0:0|0:0,0:0:0:0:
205,138,49682,2,0,P|221:178|220:210,1,60,2|8,0:2|0:0,0:0:0:0:
160,242,50143,1,2,0:2:0:0:
231,273,50374,1,10,0:2:0:0:
294,228,50605,2,0,P|349:215|424:241,1,120,2|0,0:2|0:0,0:0:0:0:
482,258,51297,5,8,0:0:0:0:
470,181,51528,1,2,0:2:0:0:
336,99,51990,1,0,0:0:0:0:
268,141,52220,2,0,P|234:149|197:146,1,60,10|0,0:2|0:0,0:0:0:0:
146,197,52682,6,0,L|144:265,2,66.0000020141602,14|2|10,0:0|0:2|0:0,0:0:0:0:
126,120,53374,2,0,P|117:85|128:41,1,66.0000020141602,2|8,0:2|0:0,0:0:0:0:
187,11,53836,2,0,L|259:15,1,66.0000020141602,2|8,0:2|0:2,0:0:0:0:
316,62,54297,1,2,0:2:0:0:
269,126,54528,6,0,P|257:156|259:193,2,66.0000020141602,14|2|10,0:0|0:2|0:0,0:0:0:0:
347,137,55220,2,0,L|431:147,1,66.0000020141602,2|8,0:2|0:0,0:0:0:0:
460,208,55682,2,0,P|470:243|463:275,1,66.0000020141602,2|8,0:2|0:2,0:0:0:0:
389,245,56143,1,2,0:2:0:0:
343,309,56374,6,0,B|335:342|335:342|346:376,2,66.0000020141602,14|2|10,0:0|0:2|0:0,0:0:0:0:
310,236,57066,2,0,P|274:227|221:240,1,66.0000020141602,2|8,0:2|0:0,0:0:0:0:
194,290,57528,2,0,P|162:298|129:295,1,66.0000020141602,2|8,0:2|0:2,0:0:0:0:
62,252,57990,1,2,0:2:0:0:
132,216,58220,5,14,0:0:0:0:
131,57,58682,1,14,0:0:0:0:
241,180,59143,2,0,P|277:187|319:181,1,66.0000020141602,2|10,0:2|0:2,0:0:0:0:
339,104,59605,2,0,P|371:95|407:96,1,66.0000020141602,10|4,0:2|0:3,0:0:0:0:
447,171,60066,6,0,P|460:221|451:269,1,71.9999978027344,6|0,0:2|0:0,0:0:0:0:
426,321,60528,1,8,0:2:0:0:
341,302,60759,2,0,P|295:301|255:315,2,71.9999978027344,2|8|0,0:2|0:0|0:0,0:0:0:0:
374,222,61451,1,8,0:2:0:0:
325,150,61682,1,2,0:2:0:0:
341,65,61913,6,0,P|303:49|257:48,1,71.9999978027344,4|0,0:0|0:0,0:0:0:0:
187,62,62374,1,8,0:2:0:0:
147,138,62605,2,0,L|153:217,2,71.9999978027344,2|8|0,0:2|0:0|0:0,0:0:0:0:
99,65,63297,1,10,0:2:0:0:
14,82,63528,1,2,0:2:0:0:
10,168,63759,6,0,B|29:199|29:199|33:256,1,71.9999978027344,12|0,0:0|0:0,0:0:0:0:
6,317,64220,1,8,0:2:0:0:
79,361,64451,2,0,P|115:364|150:355,2,71.9999978027344,2|8|0,0:2|0:0|0:0,0:0:0:0:
107,279,65143,1,8,0:2:0:0:
193,280,65374,1,2,0:0:0:0:
153,203,65605,6,0,P|137:132|162:51,2,143.999995605469,4|8|10,0:0|0:2|0:0,0:0:0:0:
193,280,66759,1,0,0:0:0:0:
240,207,66990,2,0,P|284:201|331:216,1,71.9999978027344,10|0,0:2|0:0,0:0:0:0:
364,274,67451,6,0,P|399:279|434:273,1,71.9999978027344,12|0,0:3|0:0,0:0:0:0:
481,200,67913,1,8,0:2:0:0:
475,114,68143,2,0,L|470:25,2,71.9999978027344,2|8|0,0:2|0:0|0:0,0:0:0:0:
403,162,68836,1,8,0:2:0:0:
337,106,69066,1,2,0:2:0:0:
273,165,69297,6,0,P|225:182|182:182,1,71.9999978027344,4|0,0:0|0:0,0:0:0:0:
120,159,69759,1,8,0:2:0:0:
53,103,69990,2,0,P|45:61|58:21,2,71.9999978027344,2|8|0,0:2|0:0|0:0,0:0:0:0:
38,188,70682,1,10,0:2:0:0:
100,247,70913,2,0,L|196:255,1,71.9999978027344,0|12,0:0|0:0,0:0:0:0:
247,210,71374,5,2,0:2:0:0:
310,268,71605,2,0,P|375:289|470:262,1,143.999995605469,8|8,0:2|0:0,0:0:0:0:
458,102,72528,1,8,0:2:0:0:
387,52,72759,1,2,0:0:0:0:
313,96,72990,6,0,P|259:108|160:86,2,143.999995605469,14|8|10,0:3|0:2|0:0,0:0:0:0:
387,52,74143,1,10,0:2:0:0:
453,107,74374,2,0,L|451:192,1,71.9999978027344,10|0,0:2|0:0,0:0:0:0:
399,248,74836,6,0,P|362:258|315:255,1,71.9999978027344,14|0,0:2|0:0,0:0:0:0:
242,246,75297,1,8,0:2:0:0:
179,306,75528,2,0,P|170:338|168:377,2,71.9999978027344,2|8|0,0:2|0:0|0:0,0:0:0:0:
161,221,76220,2,0,L|73:213,1,71.9999978027344,8|2,0:2|0:2,0:0:0:0:
12,173,76682,6,0,P|0:109|33:27,1,143.999995605469,12|8,0:0|0:2,0:0:0:0:
107,8,77374,2,0,B|144:6|144:6|192:14,2,71.9999978027344,2|8|0,0:2|0:0|0:0,0:0:0:0:
95,93,78066,2,0,L|100:165,1,71.9999978027344,10|0,0:2|0:0,0:0:0:0:
156,230,78528,6,0,P|216:241|311:222,1,143.999995605469,12|8,0:0|0:2,0:0:0:0:
347,157,79220,2,0,L|348:73,2,71.9999978027344,2|8|0,0:2|0:0|0:0,0:0:0:0:
383,236,79913,1,8,0:2:0:0:
351,316,80143,1,2,0:2:0:0:
265,328,80374,6,0,L|183:336,1,71.9999978027344,12|0,0:0|0:0,0:0:0:0:
111,307,80836,2,0,P|92:274|93:221,1,71.9999978027344,8|0,0:2|0:0,0:0:0:0:
117,159,81297,2,0,P|122:114|106:69,1,71.9999978027344,10|0,0:3|0:0,0:0:0:0:
60,21,81759,1,10,0:2:0:0:
30,102,81990,1,0,0:0:0:0:
115,88,82220,6,0,B|154:74|154:74|271:92,2,143.999995605469,12|8|10,0:0|0:2|0:0,0:0:0:0:
83,168,83374,1,0,0:0:0:0:
117,247,83605,2,0,P|163:261|205:260,1,71.9999978027344,8|0,0:2|0:0,0:0:0:0:
247,200,84066,6,0,P|281:190|317:190,1,71.9999978027344,14|0,0:0|0:0,0:0:0:0:
370,259,84528,1,8,0:2:0:0:
401,178,84759,2,0,L|407:82,2,71.9999978027344,2|8|0,0:2|0:0|0:0,0:0:0:0:
455,245,85451,2,0,P|462:284|449:320,1,71.9999978027344,10|0,0:2|0:0,0:0:0:0:
389,373,85913,5,14,0:0:0:0:
321,319,86143,1,2,0:2:0:0:
236,338,86374,2,0,P|168:349|90:320,1,143.999995605469,8|8,0:2|0:0,0:0:0:0:
45,257,87066,2,0,L|36:172,1,71.9999978027344,2|8,0:2|0:2,0:0:0:0:
29,98,87528,1,2,0:2:0:0:
107,133,87759,6,0,B|147:148|147:148|262:138,1,143.999995605469,14|10,0:0|0:2,0:0:0:0:
314,83,88451,2,0,P|326:38|322:8,2,71.9999978027344,2|8|8,0:2|0:0|0:2,0:0:0:0:
329,168,89143,1,10,0:2:0:0:
263,225,89374,1,2,0:2:0:0:
308,300,89605,6,0,P|372:320|449:304,1,132.00000402832,14|10,0:2|0:2,0:0:0:0:
480,237,90297,2,0,L|486:153,1,66.0000020141602,2|8,0:0|0:0,0:0:0:0:
489,85,90759,1,2,0:2:0:0:
412,124,90990,2,0,P|375:128|340:122,1,66.0000020141602,10|0,0:2|0:0,0:0:0:0:
277,174,91451,6,0,P|260:133|268:94,2,66.0000020141602,10|2|8,0:3|0:2|0:2,0:0:0:0:
279,259,92143,1,0,0:2:0:0:
198,287,92374,2,0,B|158:298|158:298|61:294,1,132.00000402832,10|10,0:0|0:2,0:0:0:0:
42,124,93297,6,0,P|37:88|48:49,1,66.0000020141602,14|2,0:0|0:2,0:0:0:0:
113,8,93759,1,10,0:2:0:0:
168,73,93990,2,0,L|257:79,1,66.0000020141602,2|8,0:2|0:0,0:0:0:0:
299,22,94451,1,2,0:2:0:0:
346,93,94682,2,0,L|435:99,1,66.0000020141602,10|0,0:2|0:0,0:0:0:0:
451,173,95143,6,0,P|457:215|447:261,1,66.0000020141602,10|2,0:0|0:2,0:0:0:0:
411,313,95605,2,0,L|331:316,1,66.0000020141602,10|2,0:2|0:0,0:0:0:0:
262,292,96066,1,14,0:2:0:0:
186,333,96297,1,2,0:2:0:0:
112,288,96528,2,0,B|96:260|96:260|94:215,1,66.0000020141602,10|0,0:2|0:0,0:0:0:0:
156,166,96990,6,0,P|191:161|235:170,2,66.0000020141602,14|2|10,0:2|0:2|0:2,0:0:0:0:
74,137,97682,2,0,P|67:103|78:47,1,66.0000020141602,0|8,0:0|0:0,0:0:0:0:
133,14,98143,1,2,0:2:0:0:
200,67,98374,2,0,L|292:73,1,66.0000020141602,10|0,0:2|0:0,0:0:0:0:
328,130,98836,6,0,P|337:170|327:212,1,66.0000020141602,14|2,0:0|0:2,0:0:0:0:
283,263,99297,1,10,0:2:0:0:
338,328,99528,1,0,0:0:0:0:
254,349,99759,2,0,L|100:355,1,132.00000402832,10|10,0:3|0:2,0:0:0:0:
38,204,100682,6,0,P|33:166|45:119,1,66.0000020141602,14|0,0:0|0:0,0:0:0:0:
121,118,101143,1,10,0:2:0:0:
201,149,101374,2,0,L|297:155,2,66.0000020141602,2|8|2,0:3|0:3|0:2,0:0:0:0:
193,63,102066,1,10,0:2:0:0:
115,27,102297,1,2,0:2:0:0:
44,76,102528,6,0,P|31:118|40:157,1,66.0000020141602,14|2,0:3|0:2,0:0:0:0:
71,216,102990,2,0,L|74:291,1,66.0000020141602,10|2,0:2|0:2,0:0:0:0:
124,351,103451,1,10,0:2:0:0:
199,310,103682,1,10,0:2:0:0:
279,340,103913,1,14,0:2:0:0:
312,261,104143,1,2,0:3:0:0:
256,192,104374,12,0,109913,2:0:0:0:
