osu file format v14

[General]
AudioFilename: audio.mp3
AudioLeadIn: 0
PreviewTime: 59028
Countdown: 0
SampleSet: None
StackLeniency: 0.7
Mode: 0
LetterboxInBreaks: 0
WidescreenStoryboard: 0

[Editor]
DistanceSpacing: 1
BeatDivisor: 4
GridSize: 4
TimelineZoom: 1

[Metadata]
Title:be confidence
TitleUnicode:be confidence
Artist:Duca
ArtistUnicode:Duca
Creator:Xexxar
Version:Easy
Source:タラレバ
Tags:tarareba as in What If stories eroge game visual novel aries anxient angel note MeisClauson 中山マミ Peak A Soul+
BeatmapID:984922
BeatmapSetID:437990

[Difficulty]
HPDrainRate:2
CircleSize:2.8
OverallDifficulty:2
ApproachRate:2.5
SliderMultiplier:0.8
SliderTickRate:2

[Events]
//Background and Video events
0,0,"bg maybe.jpg",0,0
Video,-15,"tarareba.avi"
//Break Periods
//Storyboard Layer 0 (Background)
//Storyboard Layer 1 (Fail)
//Storyboard Layer 2 (Pass)
//Storyboard Layer 3 (Foreground)
//Storyboard Sound Samples

[TimingPoints]
990,461.538461538462,4,2,1,45,1,0
990,-111.111111111111,4,2,1,45,0,0
1220,-100,4,2,1,25,0,0
1682,-100,4,2,1,45,0,0
1913,-100,4,2,1,25,0,0
2374,-111.111111111111,4,2,1,37,0,0
2490,-111.111111111111,4,2,1,5,0,0
2836,-111.111111111111,4,2,1,10,0,0
3066,-111.111111111111,4,2,1,15,0,0
3297,-111.111111111111,4,2,1,22,0,0
3528,-111.111111111111,4,2,1,30,0,0
3759,-111.111111111111,4,2,1,55,0,0
4682,-111.111111111111,4,2,1,45,0,0
4913,-111.111111111111,4,2,1,25,0,0
5143,-111.111111111111,4,2,1,35,0,0
5374,-111.111111111111,4,2,1,45,0,0
5605,-111.111111111111,4,2,1,30,0,0
6066,-111.111111111111,4,2,1,37,0,0
6182,-111.111111111111,4,2,1,5,0,0
6528,-111.111111111111,4,2,1,10,0,0
6758,-111.111111111111,4,2,1,15,0,0
6989,-111.111111111111,4,2,1,22,0,0
7220,-111.111111111111,4,2,1,30,0,0
7451,-111.111111111111,4,2,1,55,0,0
8374,-111.111111111111,4,2,1,45,0,0
9297,-111.111111111111,4,2,2,45,0,0
9528,-111.111111111111,4,2,1,45,0,0
9759,-111.111111111111,4,2,1,45,0,0
9874,-111.111111111111,4,2,1,5,0,0
10220,-111.111111111111,4,2,1,10,0,0
10451,-111.111111111111,4,2,1,15,0,0
10682,-111.111111111111,4,2,2,22,0,0
10913,-111.111111111111,4,2,1,30,0,0
11143,-111.111111111111,4,2,1,55,0,0
12066,-111.111111111111,4,2,1,45,0,0
12297,-111.111111111111,4,2,1,30,0,0
12759,-111.111111111111,4,2,1,45,0,0
12990,-111.111111111111,4,2,2,35,0,0
13220,-111.111111111111,4,2,1,35,0,0
13451,-111.111111111111,4,2,1,70,0,0
14374,-111.111111111111,4,2,1,20,0,0
14836,-111.111111111111,4,2,1,40,0,0
15528,-90.9090909090909,4,2,1,45,0,0
15759,-90.9090909090909,4,3,1,45,0,0
30066,-90.9090909090909,4,3,1,55,0,0
30528,-90.9090909090909,4,3,1,45,0,0
44836,-90.9090909090909,4,3,1,55,0,0
45297,-100,4,3,1,45,0,0
48990,-100,4,3,1,50,0,0
52682,-90.9090909090909,4,3,1,55,0,0
58220,-90.9090909090909,4,3,2,55,0,0
59143,-90.9090909090909,4,3,1,55,0,0
60066,-83.3333333333333,4,3,1,80,0,1
60413,-83.3333333333333,4,3,1,5,0,1
60528,-83.3333333333333,4,3,1,65,0,1
74374,-83.3333333333333,4,3,1,75,0,0
74836,-83.3333333333333,4,3,1,75,0,1
75182,-83.3333333333333,4,3,1,5,0,1
75297,-83.3333333333333,4,3,1,65,0,1
89605,-90.9090909090909,4,3,1,55,0,0
104605,-90.9090909090909,4,3,1,30,0,0
105990,-90.9090909090909,4,3,1,25,0,0
106220,-90.9090909090909,4,3,1,25,0,0
107143,-90.9090909090909,4,3,1,20,0,0
108066,-90.9090909090909,4,3,1,15,0,0
108990,-90.9090909090909,4,3,1,10,0,0
109913,-90.9090909090909,4,3,1,5,0,0

[Colours]
Combo1 : 215,100,253
Combo2 : 248,219,133
Combo3 : 133,173,248
Combo4 : 252,199,200

[HitObjects]
78,146,990,6,0,B|72:188|93:217|93:217|77:251|77:251|93:302|73:354,2,215.999993408203,2|2|2,0:0|0:0|0:0,0:0:0:0:
192,36,4682,6,0,B|252:16|296:44|296:44|339:72|405:47,2,215.999993408203,2|2|2,0:0|0:0|0:0,0:0:0:0:
183,195,8374,6,0,B|219:222|219:222|320:230,1,143.999995605469,2|2,0:0|0:0,0:0:0:0:
381,170,9759,2,0,P|430:158|388:250,1,215.999993408203,2|2,0:0|0:0,0:0:0:0:
244,332,12066,6,0,L|84:341,1,143.999995605469,2|2,0:0|0:0,0:0:0:0:
32,285,13451,1,2,0:0:0:0:
32,285,15759,6,0,P|23:242|29:197,1,88.0000026855469,12|8,0:0|0:0,0:0:0:0:
94,127,16682,2,0,L|200:121,1,88.0000026855469,8|10,0:0|0:0,0:0:0:0:
256,183,17605,2,0,B|270:225|270:225|267:285,1,88.000002685547,8|8,0:0|0:0,0:0:0:0:
311,354,18528,1,8,0:0:0:0:
407,354,18990,1,8,0:2:0:0:
364,269,19451,6,0,L|368:175,1,88.0000026855469,12|8,0:0|0:0,0:0:0:0:
322,96,20374,2,0,P|314:54|332:8,1,88.000002685547,8|10,0:0|0:0,0:0:0:0:
425,17,21297,2,0,P|435:60|422:103,1,88.0000026855469,8|8,0:0|0:0,0:0:0:0:
368,182,22220,1,8,0:0:0:0:
279,220,22682,1,8,0:2:0:0:
188,187,23143,6,0,L|82:189,1,88.000002685547,12|8,0:0|0:0,0:0:0:0:
19,242,24066,2,0,P|8:282|19:330,1,88.000002685547,8|10,0:0|0:0,0:0:0:0:
99,378,24990,2,0,L|192:374,1,88.000002685547,8|8,0:0|0:0,0:0:0:0:
227,287,25913,1,8,0:0:0:0:
182,201,26374,1,10,0:2:0:0:
212,108,26836,6,0,P|220:58|207:19,1,88.000002685547,12|8,0:0|0:0,0:0:0:0:
123,68,27759,1,8,0:0:0:0:
37,112,28220,2,0,P|26:156|43:205,1,88.000002685547,10|8,0:0|0:0,0:0:0:0:
95,273,29143,1,8,0:0:0:0:
134,184,29605,1,10,0:2:0:0:
192,261,30066,1,10,0:2:0:0:
231,172,30528,6,0,B|273:162|273:162|338:166,1,88.000002685547,12|8,0:2|0:0,0:0:0:0:
391,227,31451,1,8,0:0:0:0:
465,163,31913,2,0,P|475:123|460:67,1,88.000002685547,8|8,0:3|0:0,0:0:0:0:
386,22,32836,2,0,L|296:25,1,88.000002685547,8|10,0:0|0:0,0:0:0:0:
201,30,33759,1,8,0:2:0:0:
253,111,34220,6,0,P|262:144|256:201,1,88.000002685547,12|8,0:3|0:3,0:0:0:0:
171,241,35143,1,8,0:0:0:0:
252,293,35605,2,0,L|359:302,1,88.000002685547,8|8,0:0|0:0,0:0:0:0:
412,236,36528,1,8,0:3:0:0:
351,160,36990,2,0,B|336:118|336:118|340:61,1,88.000002685547,10|8,0:0|0:2,0:0:0:0:
258,20,37913,6,0,P|202:9|161:17,1,88.000002685547,12|8,0:0|0:0,0:0:0:0:
94,72,38836,1,8,0:0:0:0:
13,124,39297,2,0,B|1:166|1:166|7:221,2,88.000002685547,8|8|8,0:0|0:0|0:0,0:0:0:0:
100,165,40682,1,10,0:0:0:0:
87,260,41143,1,10,0:2:0:0:
178,227,41605,6,0,P|220:232|275:219,2,88.000002685547,14|8|8,0:0|0:0|0:0,0:0:0:0:
104,164,42990,2,0,B|92:121|92:121|96:72,1,88.000002685547,8|8,0:0|0:0,0:0:0:0:
173,19,43913,1,8,0:0:0:0:
256,67,44374,1,10,0:3:0:0:
339,19,44836,1,10,0:2:0:0:
417,77,45297,6,0,B|431:115|431:115|426:164,2,80,14|0|8,0:2|0:0|0:0,0:0:0:0:
334,126,46682,1,8,0:2:0:0:
360,218,47143,2,0,P|393:240|448:244,2,80,4|8|8,0:0|0:0|0:0,0:0:0:0:
266,195,48528,1,10,0:2:0:0:
191,256,48990,5,12,0:0:0:0:
115,197,49451,2,0,P|102:166|105:115,1,80,0|8,0:0|0:0,0:0:0:0:
146,34,50374,2,0,L|230:29,2,80,10|4|8,0:2|0:0|0:0,0:0:0:0:
50,39,51759,1,8,0:0:0:0:
103,120,52220,1,10,0:2:0:0:
47,199,52682,6,0,P|37:239|47:287,2,88.000002685547,14|10|8,0:0|0:0|0:0,0:0:0:0:
133,242,54066,1,8,0:2:0:0:
204,176,54528,2,0,B|214:134|214:134|208:77,2,88.000002685547,14|10|8,0:0|0:0|0:0,0:0:0:0:
226,270,55913,1,8,0:2:0:0:
296,336,56374,6,0,L|395:338,2,88.000002685547,14|10|8,0:0|0:0|0:0,0:0:0:0:
203,366,57759,1,8,0:2:0:0:
111,334,58220,2,0,P|92:278|103:237,1,88.000002685547,14|14,0:0|0:0,0:0:0:0:
132,160,59143,1,2,0:2:0:0:
71,84,59605,1,10,0:2:0:0:
169,66,60066,6,0,L|281:77,1,95.9999970703126,6|8,0:2|0:2,0:0:0:0:
303,163,60990,1,8,0:0:0:0:
237,232,61451,1,8,0:2:0:0:
270,322,61913,2,0,P|305:335|370:324,1,95.9999970703126,4|8,0:0|0:2,0:0:0:0:
433,263,62836,2,0,B|449:217|449:217|446:165,1,95.9999970703126,8|10,0:0|0:2,0:0:0:0:
438,73,63759,5,12,0:0:0:0:
358,126,64220,2,0,L|250:136,1,95.9999970703126,8|8,0:2|0:0,0:0:0:0:
206,56,65143,1,8,0:2:0:0:
168,144,65605,2,0,P|158:195|167:244,1,95.9999970703126,4|8,0:0|0:2,0:0:0:0:
235,303,66528,1,10,0:0:0:0:
144,332,66990,1,10,0:2:0:0:
72,268,67451,6,0,B|54:223|54:223|57:171,2,95.9999970703126,12|8|8,0:3|0:2|0:0,0:0:0:0:
164,237,68836,1,8,0:2:0:0:
255,209,69297,1,4,0:0:0:0:
346,237,69759,2,0,P|394:252|446:242,1,95.9999970703126,8|8,0:2|0:0,0:0:0:0:
485,162,70682,1,10,0:2:0:0:
440,76,71143,5,12,0:0:0:0:
345,93,71605,2,0,B|298:99|298:99|244:89,1,95.9999970703126,8|8,0:2|0:0,0:0:0:0:
172,33,72528,1,8,0:2:0:0:
163,128,72990,2,0,L|171:235,1,95.9999970703126,14|8,0:3|0:2,0:0:0:0:
177,319,73913,1,10,0:0:0:0:
90,277,74374,1,10,0:2:0:0:
170,223,74836,6,0,B|216:208|216:208|271:213,1,95.9999970703126,14|8,0:2|0:2,0:0:0:0:
317,293,75759,2,0,P|358:313|410:315,1,95.9999970703126,8|8,0:0|0:2,0:0:0:0:
497,288,76682,1,12,0:0:0:0:
428,221,77143,2,0,P|423:183|439:119,1,95.9999970703126,8|8,0:2|0:0,0:0:0:0:
484,44,78066,1,10,0:2:0:0:
387,42,78528,6,0,L|279:49,2,95.9999970703126,12|8|8,0:0|0:2|0:0,0:0:0:0:
435,124,79913,1,8,0:2:0:0:
355,177,80374,1,12,0:0:0:0:
441,219,80836,2,0,P|451:250|447:321,1,95.9999970703126,8|10,0:2|0:3,0:0:0:0:
373,371,81759,1,10,0:2:0:0:
291,320,82220,6,0,B|245:308|245:308|184:315,1,95.9999970703126,12|8,0:0|0:2,0:0:0:0:
103,288,83143,2,0,P|87:241|96:192,1,95.9999970703126,10|8,0:0|0:2,0:0:0:0:
135,109,84066,1,14,0:0:0:0:
230,113,84528,2,0,L|339:98,1,95.9999970703126,8|8,0:2|0:0,0:0:0:0:
399,38,85451,1,10,0:2:0:0:
413,133,85913,6,0,B|404:181|404:181|414:234,1,95.9999970703126,14|8,0:0|0:2,0:0:0:0:
459,311,86836,1,8,0:0:0:0:
363,309,87297,1,8,0:2:0:0:
266,308,87759,2,0,L|159:303,1,95.9999970703126,14|10,0:0|0:2,0:0:0:0:
96,242,88682,1,8,0:0:0:0:
80,336,89143,1,10,0:2:0:0:
6,271,89605,6,0,P|3:222|29:175,2,88.000002685547,14|10|8,0:2|0:2|0:0,0:0:0:0:
96,242,90990,1,10,0:2:0:0:
185,206,91451,2,0,L|287:218,1,88.000002685547,10|8,0:3|0:2,0:0:0:0:
354,265,92374,1,10,0:0:0:0:
359,168,92836,1,10,0:2:0:0:
414,88,93297,6,0,P|450:76|504:88,1,88.000002685547,14|10,0:0|0:2,0:0:0:0:
459,175,94220,2,0,L|461:264,1,88.000002685547,8|10,0:0|0:2,0:0:0:0:
393,332,95143,2,0,P|354:344|301:334,1,88.000002685547,10|10,0:0|0:2,0:0:0:0:
230,279,96066,1,14,0:2:0:0:
149,333,96528,1,10,0:2:0:0:
66,282,96990,6,0,B|51:239|51:239|58:185,1,88.000002685547,14|10,0:2|0:2,0:0:0:0:
116,120,97913,2,0,P|162:109|216:124,1,88.000002685547,8|10,0:0|0:2,0:0:0:0:
281,171,98836,2,0,L|378:182,1,88.000002685547,14|10,0:0|0:2,0:0:0:0:
454,135,99759,1,10,0:3:0:0:
449,231,100220,1,10,0:2:0:0:
368,180,100682,6,0,P|356:135|367:89,2,88.000002685547,14|10|8,0:0|0:2|0:3,0:0:0:0:
363,276,102066,1,10,0:2:0:0:
270,303,102528,2,0,L|166:314,1,88.000002685547,14|10,0:3|0:2,0:0:0:0:
127,232,103451,1,10,0:2:0:0:
157,139,103913,1,14,0:2:0:0:
256,192,104374,12,0,109913,2:0:0:0:
