osu file format v14

[General]
AudioFilename: audio.mp3
AudioLeadIn: 0
PreviewTime: 54830
Countdown: 0
SampleSet: Soft
StackLeniency: 0.4
Mode: 0
LetterboxInBreaks: 0
WidescreenStoryboard: 1

[Editor]
Bookmarks: 12809
DistanceSpacing: 1
BeatDivisor: 4
GridSize: 32
TimelineZoom: 1.3

[Metadata]
Title:Zutto Soba de...
TitleUnicode:ずっとそばで…
Artist:Duca
ArtistUnicode:Duca
Creator:Erisu
Version:Normal
Source:アマカノ2
Tags:Amakano 2 OP あざらしそふと Azarashi Soft ANZIE 安瀬 聖 Japanese Visual Novel Eroge Video Game Opening Short version ver Pop J-pop jpop mayuzumi fuyuko cami kazato asa shizuku- shikibe mayu
BeatmapID:2660145
BeatmapSetID:1280618

[Difficulty]
HPDrainRate:4
CircleSize:3.5
OverallDifficulty:4
ApproachRate:5
SliderMultiplier:1.99999990463257
SliderTickRate:1

[Events]
//Background and Video events
Video,687,"op.avi"
0,0,"bg.jpg",0,0
//Break Periods
//Storyboard Layer 0 (Background)
//Storyboard Layer 1 (Fail)
//Storyboard Layer 2 (Pass)
//Storyboard Layer 3 (Foreground)
//Storyboard Layer 4 (Overlay)
//Storyboard Sound Samples

[TimingPoints]
807,779.220779220779,4,2,1,30,1,0
2365,-100,4,2,1,30,0,0
3923,-100,4,2,1,30,0,0
5482,-100,4,2,1,30,0,0
13274,-100,4,2,1,30,0,0
38209,-100,4,2,1,40,0,0
56910,-100,4,2,1,60,0,1
106781,-100,4,2,1,35,0,0

[Colours]
Combo1 : 234,157,72
Combo2 : 79,179,77
Combo3 : 215,115,157
Combo4 : 196,146,237

[HitObjects]
83,70,807,6,0,L|138:66,1,49.9999976158142
162,106,1196,2,0,L|217:110,1,49.9999976158142
260,122,1586,1,2,0:0:0:0:
360,294,2365,2,0,L|305:290,1,49.9999952316285
281,330,2754,2,0,L|226:334,1,49.9999976158143
183,346,3144,1,2,0:0:0:0:
52,194,3923,6,0,L|107:198,1,49.9999952316285
131,158,4313,2,0,L|186:154,1,49.9999952316285
229,142,4702,1,2,0:0:0:0:
327,125,5092,1,0,0:0:0:0:
360,219,5482,2,0,L|367:318,2,99.9999952316285,2|0|2,0:0|0:0|0:0,0:0:0:0:
200,98,7040,6,0,P|194:155|187:219,1,99.9999952316285
102,247,7819,2,0,P|96:190|89:126,1,99.9999952316285,2|0,0:0|0:0,0:0:0:0:
52,55,8599,2,0,B|234:25|166:159|363:104,1,299.999985694885,2|0,0:0|0:0,0:0:0:0:
411,46,10157,5,0,0:0:0:0:
463,131,10547,1,0,0:0:0:0:
405,212,10936,2,0,L|274:233,1,99.9999952316285,2|0,0:0|0:0,0:0:0:0:
215,185,11716,1,0,0:0:0:0:
258,339,13274,6,0,B|393:311|393:311|426:340|420:375,1,199.999990463257,2|0,0:0|0:0,0:0:0:0:
505,310,14443,2,0,L|501:259,1,49.9999952316285
482,213,14832,2,0,B|422:242|375:204|390:189|341:151|279:181,1,199.999990463257,2|2,0:0|0:0,0:0:0:0:
232,253,16001,1,0,0:0:0:0:
184,165,16391,6,0,P|196:113|253:86,1,99.9999904632569,2|0,0:0|0:0,0:0:0:0:
279,104,16975,1,0,0:0:0:0:
427,79,17560,1,0,0:0:0:0:
377,3,17949,2,0,B|332:10|332:10|317:6|317:6|264:15,1,99.9999952316285,2|0,0:0|0:0,0:0:0:0:
230,26,18534,1,0,0:0:0:0:
80,13,19118,1,0,0:0:0:0:
23,95,19508,6,0,B|45:149|45:149|21:232|21:232|41:322,1,199.999990463257,2|2,0:0|0:0,0:0:0:0:
100,359,20677,1,0,0:0:0:0:
194,309,21066,2,0,P|195:265|206:196,2,99.9999952316285,2|0|2,0:0|0:0|0:0,0:0:0:0:
271,372,22235,1,0,0:0:0:0:
332,293,22625,6,0,B|299:255|314:191|344:212|386:150|326:83,1,199.999990463257,2|2,0:0|0:0,0:0:0:0:
409,32,23794,1,0,0:0:0:0:
461,117,24183,2,0,L|455:245,1,99.9999904632569,2|0,0:0|0:0,0:0:0:0:
497,307,24962,2,0,P|438:315|381:284,1,99.9999904632569,2|0,0:0|0:0,0:0:0:0:
301,307,25742,6,0,P|252:209|319:138,1,199.999990463257,2|0,0:0|0:0,0:0:0:0:
344,56,26910,2,0,L|404:65,1,49.9999952316285,2|0,0:0|0:0,0:0:0:0:
427,97,27300,2,0,P|375:181|295:134,1,199.999980926514,2|2,0:0|0:0,0:0:0:0:
256,54,28469,1,0,0:0:0:0:
179,117,28858,6,0,L|44:130,1,99.9999904632569,2|0,0:0|0:0,0:0:0:0:
42,92,29443,1,0,0:0:0:0:
10,238,30027,1,0,0:0:0:0:
98,285,30417,2,0,L|108:402,2,99.9999904632569,2|0|2,0:0|0:0|0:0,0:0:0:0:
177,224,31586,1,0,0:0:0:0:
117,143,31975,6,0,B|202:135|202:135|227:145|227:145|331:136,1,199.999980926514,2|0,0:0|0:0,0:0:0:0:
410,165,33144,2,0,L|403:214,1,49.9999952316285
369,251,33534,2,0,P|412:273|474:255,1,99.9999952316285,2|0,0:0|0:0,0:0:0:0:
511,177,34313,1,0,0:0:0:0:
437,108,34703,1,0,0:0:0:0:
491,24,35092,6,0,B|407:37|407:37|378:22|378:22|265:36,1,199.999990463257,2|0,0:0|0:0,0:0:0:0:
201,64,36261,1,0,0:0:0:0:
254,148,36651,1,2,0:0:0:0:
458,55,38209,6,0,B|406:45|406:45|329:71,1,99.9999952316285,2|0,3:2|0:0,0:0:0:0:
282,132,38988,2,0,P|228:144|159:103,1,99.9999952316285,2|0,3:2|0:0,0:0:0:0:
127,49,39768,1,2,3:2:0:0:
39,93,40157,1,2,0:0:0:0:
39,93,40352,2,0,B|31:134|31:134|64:208|64:208|57:251,1,149.999992847443,2|2,0:0|0:3,0:0:0:0:
127,309,41326,6,0,L|237:297,2,99.9999904632569,2|2|0,3:2|0:0|3:2,0:0:0:0:
149,211,42495,1,2,0:0:0:0:
248,211,42884,2,0,P|361:209|367:305,1,199.999980926514,2|0,3:2|3:2,0:0:0:0:
441,355,44053,1,2,0:3:0:0:
506,279,44443,6,0,L|471:157,1,99.9999904632569,2|0,3:2|0:0,0:0:0:0:
391,132,45222,2,0,P|389:80|418:35,1,99.9999952316285,2|0,3:2|0:0,0:0:0:0:
509,14,46001,1,2,3:2:0:0:
485,114,46391,1,2,0:0:0:0:
485,114,46586,2,0,B|443:139|399:123|407:111|356:91|313:118,1,149.999992847443,2|2,0:0|0:3,0:0:0:0:
279,187,47560,5,2,3:2:0:0:
187,146,47949,2,0,P|157:141|130:160,1,49.9999976158143,2|2,0:0|0:0,0:0:0:0:
97,176,48339,2,0,L|100:31,1,99.9999904632569,0|0,3:2|0:0,0:0:0:0:
104,29,48923,1,0,0:0:0:0:
104,29,49118,1,0,3:2:0:0:
198,27,49508,1,2,0:0:0:0:
267,98,49897,1,2,3:2:0:0:
350,42,50287,1,2,0:3:0:0:
450,45,50677,6,0,B|463:122|463:122|442:164|442:164|458:281,1,199.999990463257,2|0,3:2|3:2,0:0:0:0:
371,296,51845,1,2,0:0:0:0:
313,214,52235,2,0,B|283:153|200:145|200:145|167:224|90:253|90:253|47:200|-39:222,1,399.999980926514,2|2,3:2|3:2,0:0:0:0:
275,274,55352,6,0,L|275:174,1,99.9999952316285,2|0,0:0|0:0,0:0:0:0:
371,148,56131,2,0,L|371:248,1,99.9999952316285,2|0,0:0|0:0,0:0:0:0:
319,333,56910,6,0,B|206:284|237:372|105:316,1,199.999980926514,6|0,1:2|3:2,0:0:0:0:
28,297,58079,2,0,L|42:231,1,49.9999976158143,2|0,1:2|0:0,0:0:0:0:
75,214,58469,2,0,L|62:162,1,49.9999976158143,2|0,3:2|0:0,0:0:0:0:
19,140,58858,1,0,1:2:0:0:
0,41,59248,1,10,3:2:0:0:
96,16,59638,2,0,L|185:5,1,49.9999952316285,2|0,0:3|0:0,0:0:0:0:
191,29,60027,5,2,1:2:0:0:
288,31,60417,2,0,L|283:107,1,49.9999952316285,2|2,0:0|0:0,0:0:0:0:
308,117,60807,1,0,3:2:0:0:
230,180,61196,1,2,1:2:0:0:
153,115,61586,2,0,P|98:96|43:128,1,99.9999952316285,2|0,3:2|1:2,0:0:0:0:
0,186,62365,1,8,3:2:0:0:
72,254,62755,2,0,L|79:321,1,49.9999952316285,2|2,0:3|0:0,0:0:0:0:
99,348,63144,6,0,B|185:341|185:341|219:350|219:350|311:346,1,199.999980926514,2|0,1:2|3:2,0:0:0:0:
393,317,64313,2,0,L|402:257,1,49.9999976158143,2|0,1:2|0:0,0:0:0:0:
433,229,64703,2,0,L|421:179,1,49.9999976158143,2|0,3:2|0:0,0:0:0:0:
381,149,65092,1,0,1:2:0:0:
443,71,65482,1,10,3:2:0:0:
366,6,65871,2,0,L|297:15,1,49.9999952316285,2|0,0:3|0:0,0:0:0:0:
276,42,66261,5,2,1:2:0:0:
215,124,66651,2,0,P|155:126|111:104,1,99.9999904632569,2|0,0:0|3:2,0:0:0:0:
34,56,67430,1,2,1:2:0:0:
13,153,67819,2,0,L|26:275,1,99.9999952316285,2|0,3:2|1:2,0:0:0:0:
109,304,68599,2,0,L|161:293,1,49.9999976158143,10|2,3:2|0:0,0:0:0:0:
195,261,68988,2,0,L|247:271,1,49.9999976158143,2|2,0:3|0:0,0:0:0:0:
292,285,69378,6,0,B|294:250|294:250|305:231|305:231|305:154,1,99.9999952316285,2|0,1:2|0:0,0:0:0:0:
399,154,70157,2,0,P|403:103|394:23,1,99.9999952316285,2|0,3:2|1:2,0:0:0:0:
381,13,70742,1,2,0:0:0:0:
381,13,70936,2,0,P|334:-4|260:18,1,99.9999904632569,2|0,3:2|1:2,0:0:0:0:
213,73,71716,2,0,L|144:66,1,49.9999952316285,10|2,3:2|0:0,0:0:0:0:
117,48,72105,2,0,L|67:53,1,49.9999952316285,2|2,0:3|0:0,0:0:0:0:
22,30,72495,6,0,P|4:85|26:139,1,99.9999952316285,2|0,1:2|0:0,0:0:0:0:
57,214,73274,2,0,L|64:325,1,99.9999952316285,2|0,3:2|1:2,0:0:0:0:
103,352,73858,1,2,0:0:0:0:
103,352,74053,2,0,B|154:367|154:367|224:334,1,99.9999952316285,2|0,3:2|1:2,0:0:0:0:
294,327,74832,1,8,3:2:0:0:
362,254,75222,2,0,L|313:240,1,49.9999952316285,2|0,0:3|0:0,0:0:0:0:
285,198,75612,5,2,1:2:0:0:
360,132,76001,1,2,0:0:0:0:
360,132,76196,2,0,P|409:135|460:103,1,99.9999952316285,2|0,0:0|0:0,0:0:0:0:
458,62,76781,2,0,L|400:47,1,49.9999976158143,2|0,1:2|0:0,0:0:0:0:
370,17,77170,2,0,L|236:28,1,99.9999904632569,2|0,3:2|1:2,0:0:0:0:
205,101,77949,1,10,3:2:0:0:
114,51,78339,2,0,L|58:58,1,49.9999952316285,2|0,0:3|0:0,0:0:0:0:
17,39,78729,5,2,1:2:0:0:
0,131,79118,2,0,L|7:196,1,49.9999952316285,2|0,0:0|0:0,0:0:0:0:
33,222,79508,2,0,L|27:271,1,49.9999952316285,2|0,3:2|0:0,0:0:0:0:
60,309,79897,1,2,1:2:0:0:
151,268,80287,1,0,3:2:0:0:
199,355,80677,1,0,1:2:0:0:
294,327,81066,2,0,L|379:335,1,49.9999952316285,8|0,3:2|0:0,0:0:0:0:
375,370,81456,2,0,L|460:362,1,49.9999952316285,2|0,0:3|0:0,0:0:0:0:
459,331,81845,6,0,B|452:253|452:253|434:219|434:219|438:116,1,199.999980926514,6|0,1:2|3:2,0:0:0:0:
360,71,83014,2,0,P|362:97|351:138,1,49.9999952316285,2|0,1:2|0:0,0:0:0:0:
311,146,83404,2,0,P|312:174|320:213,1,49.9999952316285,2|0,3:2|0:0,0:0:0:0:
353,228,83794,1,0,1:2:0:0:
330,325,84183,1,10,3:2:0:0:
235,357,84573,2,0,L|185:353,1,49.9999952316285,2|0,0:3|0:0,0:0:0:0:
135,348,84962,5,2,1:2:0:0:
125,252,85352,1,2,0:0:0:0:
125,252,85547,2,0,P|73:232|26:258,1,99.9999952316285,2|0,0:0|0:0,0:0:0:0:
0,228,86131,1,2,1:2:0:0:
20,130,86521,2,0,B|31:-5|31:-5|71:71,1,199.999990463257,2|8,3:2|3:2,0:0:0:0:
148,99,87690,2,0,L|220:82,1,49.9999976158143,2|2,0:3|0:0,0:0:0:0:
229,49,88079,6,0,B|279:32|279:32|359:43,1,99.9999952316285,2|0,1:2|0:0,0:0:0:0:
425,36,88858,1,0,3:2:0:0:
484,116,89248,2,0,L|478:189,1,49.9999952316285,2|0,1:2|0:0,0:0:0:0:
443,200,89638,2,0,L|447:249,1,49.9999952316285,2|0,3:2|0:0,0:0:0:0:
481,285,90027,1,0,1:2:0:0:
411,352,90417,1,10,3:2:0:0:
317,317,90807,1,2,0:3:0:0:
225,356,91196,6,0,L|144:342,1,49.9999976158143,2|0,1:2|0:0,0:0:0:0:
132,322,91586,2,0,L|52:319,1,49.9999952316285,2|2,0:0|0:0,0:0:0:0:
40,292,91975,1,0,3:2:0:0:
10,196,92365,1,2,1:2:0:0:
87,132,92755,2,0,L|225:120,1,99.9999904632569,2|0,3:2|1:2,0:0:0:0:
231,213,93534,1,10,3:2:0:0:
330,206,93923,2,0,L|337:142,1,49.9999976158143,2|2,0:3|0:0,0:0:0:0:
365,115,94313,5,2,1:2:0:0:
266,95,94703,2,0,L|208:88,1,49.9999952316285,2|2,0:0|0:0,0:0:0:0:
176,119,95092,2,0,L|118:126,1,49.9999952316285,0|0,3:2|0:0,0:0:0:0:
76,132,95482,1,2,1:2:0:0:
30,42,95871,2,0,P|75:11|136:24,1,99.9999952316285,2|0,3:2|1:2,0:0:0:0:
199,73,96651,1,8,3:2:0:0:
282,18,97040,2,0,P|306:13|340:25,1,49.9999976158143,2|2,0:3|0:0,0:0:0:0:
366,54,97430,5,2,1:2:0:0:
306,134,97819,1,0,0:0:0:0:
306,134,98014,2,0,P|300:220|340:260,1,99.9999952316285,2|0,0:0|0:0,0:0:0:0:
346,257,98599,1,2,1:2:0:0:
278,330,98988,2,0,L|198:318,1,49.9999952316285,2|0,3:2|0:0,0:0:0:0:
200,280,99378,2,0,L|120:292,1,49.9999952316285,2|0,1:2|0:0,0:0:0:0:
100,293,99768,2,0,P|94:341|124:380,1,99.9999904632569,8|2,3:2|0:3,0:0:0:0:
214,337,100547,5,2,1:2:0:0:
314,366,100936,1,2,0:0:0:0:
314,366,101131,2,0,P|331:320|301:260,1,99.9999952316285,2|0,0:0|0:0,0:0:0:0:
279,237,101716,1,2,1:2:0:0:
334,153,102105,2,0,L|324:29,1,99.9999904632569,2|0,3:2|1:2,0:0:0:0:
229,27,102884,2,0,L|177:41,1,49.9999952316285,10|0,3:2|0:0,0:0:0:0:
151,80,103274,2,0,L|99:66,1,49.9999952316285,2|2,0:3|0:0,0:0:0:0:
64,34,103664,6,0,L|77:174,1,99.9999904632569,2|0,1:2|0:0,0:0:0:0:
79,233,104443,2,0,P|105:243|135:238,1,49.9999952316285,2|0,3:2|0:0,0:0:0:0:
173,258,104832,2,0,P|199:268|229:263,1,49.9999952316285,2|0,1:2|0:0,0:0:0:0:
257,231,105222,1,0,3:2:0:0:
323,155,105612,2,0,L|305:47,2,99.9999904632569,0|10|2,1:2|3:2|0:3,0:0:0:0:
358,248,106781,6,0,L|303:244,1,49.9999952316285,2|0,0:0|0:0,0:0:0:0:
282,287,107170,2,0,L|227:291,1,49.9999952316285
184,303,107560,1,2,0:0:0:0:
47,157,108339,2,0,L|102:153,1,49.9999952316285
126,193,108728,2,0,L|181:197,1,49.9999952316285
224,209,109118,1,2,0:0:0:0:
417,257,109897,6,0,L|421:202,1,49.9999952316285
381,175,110287,2,0,L|377:125,1,49.9999952316285
368,75,110676,1,2,0:0:0:0:
274,36,111066,1,0,0:0:0:0:
187,86,111456,2,0,L|177:185,2,99.9999904632569,2|0|2,0:0|0:0|0:0,0:0:0:0:
104,29,112625,1,0,0:0:0:0:
31,97,113014,5,2,0:0:0:0:
256,192,113209,12,2,117690,0:0:0:0:
