osu file format v14

[General]
AudioFilename: audio.mp3
AudioLeadIn: 0
PreviewTime: 54830
Countdown: 0
SampleSet: Soft
StackLeniency: 0.4
Mode: 0
LetterboxInBreaks: 0
WidescreenStoryboard: 1

[Editor]
Bookmarks: 112589
DistanceSpacing: 1
BeatDivisor: 8
GridSize: 32
TimelineZoom: 1.3

[Metadata]
Title:Zutto Soba de...
TitleUnicode:ずっとそばで…
Artist:Duca
ArtistUnicode:Duca
Creator:Erisu
Version:Easy
Source:アマカノ2
Tags:Amakano 2 OP あざらしそふと Azarashi Soft ANZIE 安瀬 聖 Japanese Visual Novel Eroge Video Game Opening Short version ver Pop J-pop jpop mayuzumi fuyuko cami kazato asa shizuku- shikibe mayu
BeatmapID:2660836
BeatmapSetID:1280618

[Difficulty]
HPDrainRate:2.5
CircleSize:2
OverallDifficulty:2
ApproachRate:3.5
SliderMultiplier:1.99999990463257
SliderTickRate:1

[Events]
//Background and Video events
0,0,"bg.jpg",0,0
Video,687,"op.avi"
//Break Periods
//Storyboard Layer 0 (Background)
//Storyboard Layer 1 (Fail)
//Storyboard Layer 2 (Pass)
//Storyboard Layer 3 (Foreground)
//Storyboard Layer 4 (Overlay)
//Storyboard Sound Samples

[TimingPoints]
807,779.220779220779,4,2,1,30,1,0
2365,-100,4,2,1,30,0,0
3923,-100,4,2,1,30,0,0
5482,-100,4,2,1,30,0,0
13274,-100,4,2,1,30,0,0
38209,-100,4,2,1,40,0,0
56910,-100,4,2,1,60,0,1
106781,-100,4,2,1,35,0,0

[Colours]
Combo1 : 234,157,72
Combo2 : 79,179,77
Combo3 : 215,115,157
Combo4 : 196,146,237

[HitObjects]
256,192,7040,12,0,11716,0:0:0:0:
78,112,13274,6,0,B|146:96|180:143|161:146|177:207|284:190,1,199.999980926514,2|0,0:0|0:0,0:0:0:0:
314,118,14443,1,0,0:0:0:0:
370,35,14832,2,0,L|488:40,2,99.9999904632569,2|0|2,0:0|0:0|0:0,0:0:0:0:
270,25,16001,1,0,0:0:0:0:
170,30,16391,2,0,P|125:10|69:21,2,99.9999904632569,2|0|2,0:0|0:0|0:0,0:0:0:0:
122,117,17560,2,0,B|128:216,1,99.9999904632569,0|2,0:0|0:0,0:0:0:0:
217,260,18339,2,0,L|228:132,2,99.9999904632569,0|2|0,0:0|0:0|0:0,0:0:0:0:
179,352,19508,6,0,B|240:377|294:343|272:326|333:311|395:341,1,199.999980926514,2|2,0:0|0:0,0:0:0:0:
450,271,20677,1,0,0:0:0:0:
375,207,21066,2,0,L|250:220,2,99.9999904632569,2|0|2,0:0|0:0|0:0,0:0:0:0:
421,12,22625,2,0,B|331:28|331:28|299:19|299:19|196:40,1,199.999980926514,2|2,0:0|0:0,0:0:0:0:
146,95,23794,2,0,L|126:210,1,99.9999904632569,0|2,0:0|0:0,0:0:0:0:
258,363,25742,6,0,L|58:355,1,199.999980926514,2|0,0:0|0:0,0:0:0:0:
15,264,26910,1,2,0:0:0:0:
101,212,27300,2,0,B|98:91|26:142|43:0,1,199.999980926514,2|2,0:0|0:0,0:0:0:0:
139,44,28469,1,0,0:0:0:0:
216,106,28858,2,0,P|260:113|323:95,1,99.9999904632569,2|0,0:0|0:0,0:0:0:0:
394,41,29638,1,2,0:0:0:0:
473,100,30027,2,0,L|493:1,2,99.9999952316285,0|2|0,0:0|0:0|0:0,0:0:0:0:
384,146,31196,2,0,L|408:284,1,99.9999904632569,2|0,0:0|0:0,0:0:0:0:
469,317,31975,6,0,B|331:273|408:356|236:302,1,199.999980926514,2|0,0:0|0:0,0:0:0:0:
185,359,33144,1,0,0:0:0:0:
94,315,33534,2,0,L|98:103,1,199.999990463257,2|0,0:0|0:0,0:0:0:0:
286,48,35092,2,0,B|88:102|185:-34|-31:33,1,299.999971389771,2|0,0:0|0:0,0:0:0:0:
369,360,38209,6,0,L|145:350,1,199.999980926514,2|2,3:2|3:2,0:0:0:0:
27,210,39768,2,0,L|137:199,1,99.9999952316285,2|2,3:2|0:0,0:0:0:0:
200,132,40547,1,0,3:2:0:0:
380,45,41326,2,0,L|389:244,1,199.999980926514,2|0,3:2|3:2,0:0:0:0:
201,315,42884,2,0,L|210:116,1,199.999980926514,2|0,3:2|3:2,0:0:0:0:
388,25,44443,6,0,B|325:52|286:30|291:18|232:-7|181:27,1,199.999980926514,2|2,3:2|3:2,0:0:0:0:
52,159,46001,2,0,B|85:188|151:155|141:142|185:124|241:150,1,199.999980926514,2|0,3:2|3:2,0:0:0:0:
304,228,47170,1,2,0:3:0:0:
403,241,47560,2,0,L|430:41,1,199.999980926514,2|0,3:2|3:2,0:0:0:0:
424,342,49508,2,0,B|394:338|523:354,2,99.9999904632569,2|2|2,0:0|3:2|0:3,0:0:0:0:
351,273,50677,6,0,B|224:287|224:287|180:272|180:272|47:287,1,299.999971389771,2|2,3:2|0:0,0:0:0:0:
256,192,52235,12,0,53794,3:2:0:0:
104,89,55352,6,0,L|100:330,1,199.999980926514,2|2,0:0|0:0,0:0:0:0:
277,194,56910,2,0,P|368:158|444:223,1,199.999990463257,6|0,1:2|3:2,0:0:0:0:
352,261,58079,1,2,1:2:0:0:
403,346,58469,2,0,B|455:355|455:355|505:334,2,99.9999952316285,2|0|10,3:2|1:2|3:2,0:0:0:0:
307,376,59638,1,2,0:3:0:0:
213,342,60027,2,0,B|192:273|192:273|207:211|207:211|195:125,1,199.999990463257,2|0,1:2|3:2,0:0:0:0:
146,61,61196,1,2,1:2:0:0:
243,37,61586,2,0,B|364:3|321:86|454:51,1,199.999990463257,2|8,3:2|3:2,0:0:0:0:
490,139,62755,1,2,0:3:0:0:
439,225,63144,6,0,B|358:190|358:190|229:255,1,199.999980926514,2|0,1:2|3:2,0:0:0:0:
158,252,64313,1,2,1:2:0:0:
156,353,64703,2,0,P|203:375|262:346,2,99.9999952316285,2|0|10,3:2|1:2|3:2,0:0:0:0:
63,315,65871,1,2,0:3:0:0:
45,216,66261,2,0,P|61:134|203:101,1,199.999980926514,2|0,1:2|3:2,0:0:0:0:
241,143,67430,2,0,L|228:277,2,99.9999904632569,2|2|0,1:2|3:2|1:2,0:0:0:0:
299,61,68599,2,0,P|345:42|407:64,1,99.9999952316285,10|2,3:2|0:3,0:0:0:0:
477,105,69378,6,0,P|467:203|362:239,1,199.999990463257,2|2,1:2|3:2,0:0:0:0:
313,170,70547,1,0,1:2:0:0:
300,71,70936,2,0,B|253:80|253:80|240:78|240:78|183:89,1,99.9999952316285,2|0,3:2|1:2,0:0:0:0:
102,101,71716,2,0,L|115:221,1,99.9999952316285,10|2,3:2|0:3,0:0:0:0:
78,294,72495,2,0,B|134:323|200:300|172:271|229:258|287:286,1,199.999990463257,2|2,1:2|3:2,0:0:0:0:
362,232,73664,1,0,1:2:0:0:
366,132,74053,2,0,P|416:122|471:151,1,99.9999952316285,2|0,3:2|1:2,0:0:0:0:
484,237,74832,1,8,3:2:0:0:
431,321,75222,1,2,0:3:0:0:
362,248,75612,6,0,B|276:254|276:254|250:272|250:272|151:279,1,199.999990463257,2|0,1:2|3:2,0:0:0:0:
153,178,76781,1,2,1:2:0:0:
57,207,77170,2,0,L|50:-8,1,199.999980926514,2|10,3:2|3:2,0:0:0:0:
148,42,78339,2,0,P|246:9|348:56,1,199.999980926514,2|2,0:3|0:0,0:0:0:0:
374,132,79508,1,2,3:2:0:0:
318,214,79897,1,2,1:2:0:0:
374,296,80287,2,0,P|283:327|147:283,1,199.999980926514,0|8,3:2|3:2,0:0:0:0:
115,233,81456,1,2,0:3:0:0:
58,150,81845,6,0,B|113:109|166:138|147:153|192:185|261:152,1,199.999990463257,6|0,1:2|3:2,0:0:0:0:
311,83,83014,1,2,1:2:0:0:
394,138,83404,2,0,L|513:123,2,99.9999904632569,2|0|10,3:2|1:2|3:2,0:0:0:0:
350,228,84573,1,2,0:3:0:0:
280,299,84962,2,0,B|178:332|178:332|78:290,1,199.999990463257,2|0,1:2|3:2,0:0:0:0:
33,214,86131,1,2,1:2:0:0:
60,117,86521,2,0,P|162:77|267:133,1,199.999980926514,2|8,3:2|3:2,0:0:0:0:
325,163,87690,1,2,0:3:0:0:
420,133,88079,6,0,L|449:346,1,199.999980926514,2|0,1:2|3:2,0:0:0:0:
359,381,89248,1,2,1:2:0:0:
323,287,89638,2,0,L|331:162,2,99.9999904632569,2|0|10,3:2|1:2|3:2,0:0:0:0:
250,356,90807,1,2,0:3:0:0:
155,323,91196,2,0,B|115:215|191:246|170:120,1,199.999990463257,2|0,1:2|3:2,0:0:0:0:
90,59,92365,1,2,1:2:0:0:
180,15,92755,2,0,B|299:-15|271:60|396:26,1,199.999980926514,2|10,3:2|3:2,0:0:0:0:
461,80,93923,1,2,0:3:0:0:
453,179,94313,6,0,P|401:197|335:184,1,99.9999952316285,2|2,1:2|0:0,0:0:0:0:
263,157,95092,1,0,3:2:0:0:
168,189,95482,1,2,1:2:0:0:
86,131,95871,2,0,P|61:210|129:312,1,199.999990463257,2|8,3:2|3:2,0:0:0:0:
215,325,97040,2,0,L|225:265,1,49.9999976158143,2|2,0:3|0:0,0:0:0:0:
233,226,97430,2,0,P|271:200|336:211,1,99.9999952316285,2|0,1:2|0:0,0:0:0:0:
382,283,98209,1,2,3:2:0:0:
454,213,98599,2,0,L|435:107,1,99.9999952316285,2|2,1:2|3:2,0:0:0:0:
350,49,99378,2,0,B|221:44|303:114|159:99,1,199.999990463257,2|2,1:2|0:3,0:0:0:0:
72,137,100547,6,0,L|62:36,2,99.9999952316285,2|2|0,1:2|0:0|3:2,0:0:0:0:
60,236,101716,1,2,1:2:0:0:
148,282,102105,2,0,B|237:291|237:291|266:276|266:276|345:283,1,199.999990463257,2|10,3:2|3:2,0:0:0:0:
438,252,103274,2,0,L|424:182,1,49.9999976158143,2|2,0:3|0:0,0:0:0:0:
440,154,103664,2,0,P|369:117|269:171,1,199.999990463257,2|2,1:2|3:2,0:0:0:0:
214,251,104832,2,0,P|135:224|118:105,1,199.999990463257,2|0,1:2|1:2,0:0:0:0:
154,28,106001,1,10,3:2:0:0:
243,72,106391,1,2,0:3:0:0:
256,192,106781,12,2,113014,0:0:0:0:
