osu file format v14

[General]
AudioFilename: Duca - Zettai Darli'n.mp3
AudioLeadIn: 2000
PreviewTime: 73561
Countdown: 0
SampleSet: Normal
StackLeniency: 0.7
Mode: 1
LetterboxInBreaks: 0
WidescreenStoryboard: 0

[Editor]
DistanceSpacing: 1
BeatDivisor: 4
GridSize: 32
TimelineZoom: 2.400001

[Metadata]
Title:Zettai Darli'n
TitleUnicode:絶対Darli'n
Artist:Duca
ArtistUnicode:Duca
Creator:toara_fict
Version:Muzukashii
Source:倉野くんちのふたご事情
Tags:Kurano-kunchi no Futago Jijou JUDYDANNY cube opening eroge visual novel ANZIE 安瀬
BeatmapID:786942
BeatmapSetID:229998

[Difficulty]
HPDrainRate:6
CircleSize:5
OverallDifficulty:5
ApproachRate:10
SliderMultiplier:1.4
SliderTickRate:2

[Events]
//Background and Video events
0,0,"ppa.jpg",0,50
//Break Periods
//Storyboard Layer 0 (Background)
//Storyboard Layer 1 (Fail)
//Storyboard Layer 2 (Pass)
//Storyboard Layer 3 (Foreground)
//Storyboard Sound Samples

[TimingPoints]
150,352.941176470588,4,1,0,50,1,0
59444,-100,4,1,0,60,0,0
73561,-100,4,1,0,70,0,1
96149,-100,4,1,0,60,0,0

[HitObjects]
256,192,8620,12,0,10032,0:0:0:0:
192,128,10738,5,0,0:0:0:0:
192,256,11444,1,4,0:0:0:0:
192,128,11797,1,8,0:0:0:0:
320,128,12149,1,0,0:0:0:0:
320,128,12502,1,8,0:0:0:0:
192,128,12679,1,0,0:0:0:0:
192,128,13032,1,0,0:0:0:0:
192,128,13208,1,8,0:0:0:0:
192,128,13385,1,0,0:0:0:0:
192,128,13738,1,0,0:0:0:0:
320,128,13914,1,8,0:0:0:0:
192,128,14267,1,0,0:0:0:0:
192,128,14620,1,8,0:0:0:0:
192,128,14973,1,0,0:0:0:0:
192,128,15149,1,0,0:0:0:0:
320,128,15326,1,8,0:0:0:0:
192,128,15502,1,0,0:0:0:0:
192,128,15855,1,0,0:0:0:0:
320,128,16032,1,8,0:0:0:0:
192,128,16208,1,0,0:0:0:0:
192,128,16561,1,0,0:0:0:0:
320,128,16738,1,8,0:0:0:0:
192,256,17091,1,4,0:0:0:0:
320,128,17797,1,8,0:0:0:0:
320,128,18149,1,8,0:0:0:0:
192,128,18502,1,0,0:0:0:0:
192,128,18679,1,0,0:0:0:0:
320,128,18855,1,8,0:0:0:0:
192,128,19032,1,0,0:0:0:0:
192,128,19385,1,0,0:0:0:0:
192,128,19561,1,8,0:0:0:0:
192,128,19914,1,0,0:0:0:0:
320,128,20267,1,8,0:0:0:0:
192,128,20620,1,8,0:0:0:0:
192,128,20797,1,0,0:0:0:0:
320,128,20973,1,8,0:0:0:0:
320,128,21149,1,8,0:0:0:0:
192,128,21326,1,0,0:0:0:0:
320,128,21679,1,8,0:0:0:0:
320,128,22032,1,0,0:0:0:0:
192,128,22208,1,0,0:0:0:0:
320,128,22385,1,8,0:0:0:0:
320,128,22561,1,8,0:0:0:0:
192,256,22738,1,4,0:0:0:0:
192,128,23444,1,0,0:0:0:0:
320,128,23620,1,8,0:0:0:0:
192,256,23973,1,12,0:0:0:0:
192,128,24326,1,0,0:0:0:0:
320,128,24502,1,8,0:0:0:0:
192,128,24855,1,0,0:0:0:0:
320,128,25032,1,8,0:0:0:0:
320,128,25208,1,8,0:0:0:0:
192,256,25561,1,4,0:0:0:0:
320,128,25914,1,8,0:0:0:0:
320,128,26267,1,8,0:0:0:0:
192,128,26620,1,0,0:0:0:0:
320,128,26797,1,8,0:0:0:0:
192,128,27149,1,0,0:0:0:0:
192,128,27855,1,0,0:0:0:0:
320,128,28032,1,8,0:0:0:0:
192,128,28385,1,0,0:0:0:0:
320,128,28738,1,8,0:0:0:0:
192,128,28914,1,0,0:0:0:0:
320,128,29091,1,8,0:0:0:0:
192,128,29444,1,0,0:0:0:0:
192,128,29620,1,8,0:0:0:0:
192,128,29973,1,0,0:0:0:0:
320,128,30326,1,8,0:0:0:0:
192,128,30679,1,0,0:0:0:0:
192,128,31032,1,0,0:0:0:0:
320,128,31208,1,8,0:0:0:0:
320,128,31914,1,8,0:0:0:0:
192,128,32267,1,0,0:0:0:0:
320,128,32444,1,8,0:0:0:0:
320,128,32797,1,0,0:0:0:0:
320,128,33149,1,8,0:0:0:0:
192,128,33326,1,0,0:0:0:0:
192,128,33502,1,0,0:0:0:0:
320,128,33679,1,8,0:0:0:0:
192,128,34032,1,0,0:0:0:0:
320,128,34385,1,8,0:0:0:0:
192,128,34738,1,0,0:0:0:0:
192,128,35091,1,8,0:0:0:0:
192,128,35267,1,0,0:0:0:0:
192,128,35620,1,0,0:0:0:0:
320,128,35973,1,8,0:0:0:0:
320,128,36149,1,8,0:0:0:0:
192,128,36326,1,0,0:0:0:0:
192,128,36502,1,0,0:0:0:0:
192,256,36855,1,4,0:0:0:0:
192,128,37208,1,0,0:0:0:0:
320,128,37385,1,8,0:0:0:0:
320,128,37914,1,8,0:0:0:0:
192,128,38091,1,0,0:0:0:0:
192,128,38444,1,0,0:0:0:0:
320,128,38620,1,8,0:0:0:0:
320,128,38797,1,8,0:0:0:0:
192,128,39149,1,0,0:0:0:0:
192,256,39679,1,4,0:0:0:0:
192,128,40032,1,0,0:0:0:0:
320,128,40208,1,8,0:0:0:0:
192,128,40738,1,0,0:0:0:0:
320,128,41091,1,8,0:0:0:0:
192,128,41267,1,0,0:0:0:0:
320,128,41444,1,8,0:0:0:0:
192,128,41620,1,0,0:0:0:0:
192,128,41973,1,0,0:0:0:0:
320,128,42149,1,8,0:0:0:0:
192,128,42502,1,0,0:0:0:0:
320,128,43208,1,8,0:0:0:0:
192,128,43914,1,0,0:0:0:0:
320,128,44267,1,8,0:0:0:0:
192,128,44620,1,0,0:0:0:0:
320,128,44973,1,8,0:0:0:0:
192,128,45326,1,0,0:0:0:0:
192,128,46032,1,8,0:0:0:0:
320,128,46738,1,0,0:0:0:0:
320,128,47091,1,8,0:0:0:0:
320,128,47267,1,8,0:0:0:0:
192,128,47620,1,0,0:0:0:0:
192,256,48149,1,4,0:0:0:0:
320,128,48502,1,8,0:0:0:0:
192,128,48855,1,0,0:0:0:0:
192,128,49208,1,0,0:0:0:0:
320,128,49385,1,8,0:0:0:0:
192,128,49738,1,0,0:0:0:0:
320,128,50091,1,8,0:0:0:0:
192,128,50444,1,0,0:0:0:0:
320,128,50620,1,8,0:0:0:0:
320,128,50797,1,8,0:0:0:0:
192,128,50973,1,0,0:0:0:0:
320,128,51326,1,8,0:0:0:0:
320,128,51679,1,8,0:0:0:0:
192,128,51855,1,0,0:0:0:0:
192,128,52032,1,0,0:0:0:0:
192,128,52208,1,8,0:0:0:0:
192,128,52561,1,0,0:0:0:0:
320,128,52914,1,8,0:0:0:0:
192,128,53267,1,0,0:0:0:0:
320,128,53444,1,8,0:0:0:0:
320,128,53620,1,8,0:0:0:0:
192,128,53797,1,0,0:0:0:0:
320,128,54149,1,8,0:0:0:0:
192,128,54502,1,0,0:0:0:0:
192,128,54855,1,0,0:0:0:0:
320,128,55032,1,8,0:0:0:0:
320,128,55385,1,0,0:0:0:0:
320,128,55738,1,8,0:0:0:0:
192,128,55914,1,0,0:0:0:0:
192,128,56091,1,0,0:0:0:0:
320,128,56267,1,8,0:0:0:0:
192,128,56620,1,0,0:0:0:0:
320,128,56973,1,8,0:0:0:0:
320,128,57326,1,8,0:0:0:0:
192,128,57502,1,0,0:0:0:0:
192,128,57855,1,0,0:0:0:0:
192,128,58208,1,0,0:0:0:0:
192,128,58561,1,0,0:0:0:0:
320,128,58738,1,8,0:0:0:0:
320,128,58914,1,8,0:0:0:0:
192,128,59091,1,0,0:0:0:0:
192,256,59444,1,4,0:0:0:0:
192,128,59797,1,0,0:0:0:0:
320,128,59973,1,8,0:0:0:0:
192,128,60326,1,0,0:0:0:0:
320,128,60502,1,0,0:0:0:0:
320,128,60679,1,8,0:0:0:0:
192,128,61032,1,0,0:0:0:0:
320,128,61208,1,8,0:0:0:0:
192,128,61385,1,8,0:0:0:0:
192,128,61738,1,0,0:0:0:0:
192,256,62267,1,4,0:0:0:0:
320,128,62620,1,8,0:0:0:0:
192,128,62797,1,0,0:0:0:0:
192,128,63149,1,0,0:0:0:0:
192,128,63326,1,8,0:0:0:0:
320,128,63502,1,8,0:0:0:0:
192,128,63679,1,8,0:0:0:0:
320,128,64032,1,8,0:0:0:0:
192,128,64208,1,0,0:0:0:0:
192,128,64561,1,0,0:0:0:0:
320,128,64738,1,8,0:0:0:0:
192,128,65091,1,4,0:0:0:0:
192,128,65797,1,0,0:0:0:0:
320,128,66149,1,8,0:0:0:0:
192,128,66502,1,0,0:0:0:0:
192,128,66679,1,0,0:0:0:0:
320,128,66855,1,8,0:0:0:0:
192,128,67208,1,0,0:0:0:0:
320,128,67561,1,8,0:0:0:0:
192,256,67914,1,4,0:0:0:0:
192,128,68444,1,0,0:0:0:0:
192,128,68620,1,0,0:0:0:0:
320,128,68973,1,8,0:0:0:0:
192,256,69326,1,4,0:0:0:0:
320,128,69679,1,8,0:0:0:0:
320,128,69855,1,8,0:0:0:0:
192,128,70208,1,0,0:0:0:0:
320,128,70385,1,8,0:0:0:0:
320,128,70561,1,8,0:0:0:0:
192,256,70738,1,4,0:0:0:0:
192,128,71091,1,0,0:0:0:0:
192,128,71267,1,0,0:0:0:0:
192,128,71355,1,0,0:0:0:0:
192,128,71444,1,0,0:0:0:0:
192,128,71620,1,0,0:0:0:0:
320,128,71797,1,8,0:0:0:0:
192,256,72149,1,4,0:0:0:0:
192,256,72326,1,4,0:0:0:0:
320,256,72855,1,12,0:0:0:0:
320,256,73032,1,12,0:0:0:0:
192,256,73561,1,4,0:0:0:0:
320,128,73914,1,8,0:0:0:0:
192,128,74267,1,0,0:0:0:0:
192,128,74444,1,0,0:0:0:0:
320,128,74620,1,8,0:0:0:0:
192,128,74797,1,0,0:0:0:0:
320,128,75149,1,8,0:0:0:0:
192,128,75502,1,0,0:0:0:0:
320,128,75679,1,8,0:0:0:0:
192,128,75855,1,0,0:0:0:0:
320,128,76032,1,8,0:0:0:0:
192,128,76385,1,0,0:0:0:0:
192,128,76738,1,0,0:0:0:0:
320,128,77091,1,8,0:0:0:0:
320,128,77267,1,8,0:0:0:0:
192,128,77444,1,0,0:0:0:0:
320,128,77620,1,8,0:0:0:0:
192,128,77973,1,0,0:0:0:0:
320,128,78326,1,8,0:0:0:0:
192,128,78502,1,0,0:0:0:0:
192,128,78679,1,0,0:0:0:0:
320,128,78855,1,8,0:0:0:0:
320,128,78944,1,8,0:0:0:0:
320,128,79032,1,8,0:0:0:0:
192,256,79208,1,4,0:0:0:0:
192,128,79914,1,0,0:0:0:0:
320,128,80267,1,8,0:0:0:0:
192,128,80620,1,0,0:0:0:0:
192,128,80797,1,0,0:0:0:0:
320,128,80973,1,8,0:0:0:0:
192,128,81149,1,0,0:0:0:0:
320,128,81502,1,0,0:0:0:0:
320,128,81679,1,8,0:0:0:0:
192,128,82032,1,0,0:0:0:0:
192,128,82385,1,8,0:0:0:0:
192,128,82738,1,0,0:0:0:0:
192,128,82914,1,0,0:0:0:0:
192,128,83091,1,8,0:0:0:0:
320,256,83444,1,12,0:0:0:0:
320,256,83973,1,12,0:0:0:0:
320,128,84326,1,12,0:0:0:0:
192,256,84855,1,4,0:0:0:0:
320,128,85208,1,8,0:0:0:0:
192,128,85561,1,0,0:0:0:0:
192,128,85738,1,0,0:0:0:0:
320,128,85914,1,8,0:0:0:0:
192,128,86091,1,0,0:0:0:0:
320,128,86444,1,8,0:0:0:0:
192,128,86797,1,0,0:0:0:0:
320,128,86973,1,8,0:0:0:0:
192,128,87149,1,0,0:0:0:0:
320,128,87326,1,8,0:0:0:0:
192,128,87679,1,0,0:0:0:0:
192,128,88032,1,0,0:0:0:0:
320,128,88385,1,8,0:0:0:0:
320,128,88561,1,8,0:0:0:0:
192,128,88738,1,0,0:0:0:0:
320,128,88914,1,8,0:0:0:0:
192,128,89267,1,0,0:0:0:0:
320,128,89620,1,8,0:0:0:0:
192,128,89797,1,0,0:0:0:0:
192,128,89973,1,0,0:0:0:0:
320,128,90149,1,8,0:0:0:0:
320,128,90238,1,8,0:0:0:0:
320,128,90326,1,8,0:0:0:0:
192,256,90502,1,4,0:0:0:0:
320,128,91208,1,8,0:0:0:0:
320,128,91561,1,8,0:0:0:0:
192,128,91738,1,0,0:0:0:0:
192,128,92091,1,0,0:0:0:0:
320,128,92268,1,8,0:0:0:0:
192,128,92444,1,0,0:0:0:0:
192,128,92797,1,0,0:0:0:0:
320,128,92973,1,8,0:0:0:0:
320,128,93149,1,8,0:0:0:0:
192,224,93326,1,4,0:0:0:0:
192,128,93679,1,8,0:0:0:0:
320,128,93855,1,8,0:0:0:0:
320,128,94208,1,8,0:0:0:0:
192,128,94385,1,0,0:0:0:0:
320,128,94561,1,8,0:0:0:0:
192,128,94738,1,0,0:0:0:0:
192,128,95091,1,0,0:0:0:0:
320,128,95267,1,8,0:0:0:0:
320,128,95620,1,0,0:0:0:0:
320,128,95797,1,8,0:0:0:0:
320,128,95885,1,8,0:0:0:0:
320,128,95973,1,8,0:0:0:0:
192,256,96149,1,4,0:0:0:0:
192,128,96855,1,0,0:0:0:0:
320,128,97032,1,8,0:0:0:0:
192,128,97385,1,0,0:0:0:0:
192,128,97738,1,0,0:0:0:0:
320,128,97914,1,8,0:0:0:0:
320,128,98091,1,0,0:0:0:0:
192,128,98267,1,8,0:0:0:0:
320,128,98620,1,8,0:0:0:0:
192,128,98973,1,0,0:0:0:0:
320,128,99326,1,8,0:0:0:0:
320,128,99502,1,8,0:0:0:0:
192,128,99679,1,0,0:0:0:0:
320,128,99855,1,8,0:0:0:0:
320,128,100208,1,8,0:0:0:0:
192,128,100561,1,0,0:0:0:0:
320,128,100738,1,8,0:0:0:0:
320,128,101091,1,8,0:0:0:0:
320,128,101267,1,8,0:0:0:0:
192,128,101444,1,0,0:0:0:0:
192,128,101797,1,0,0:0:0:0:
192,128,102502,1,0,0:0:0:0:
320,128,102679,1,8,0:0:0:0:
192,128,103032,1,0,0:0:0:0:
192,128,103385,1,0,0:0:0:0:
320,128,103561,1,8,0:0:0:0:
320,128,103738,1,0,0:0:0:0:
192,128,103914,1,8,0:0:0:0:
320,128,104267,1,8,0:0:0:0:
192,128,104620,1,0,0:0:0:0:
320,128,104973,1,8,0:0:0:0:
192,128,105149,1,0,0:0:0:0:
320,128,105502,1,8,0:0:0:0:
320,128,105855,1,8,0:0:0:0:
320,128,106385,1,8,0:0:0:0:
192,128,106738,1,8,0:0:0:0:
320,128,106914,1,0,0:0:0:0:
320,128,107091,1,8,0:0:0:0:
192,256,107444,1,4,0:0:0:0:
192,256,107620,1,4,0:0:0:0:
192,256,107797,1,4,0:0:0:0:
192,256,107973,1,4,0:0:0:0:
320,256,108502,1,12,0:0:0:0:
320,256,108679,1,12,0:0:0:0:
