osu file format v14

[General]
AudioFilename: Duca - Zettai Darli'n.mp3
AudioLeadIn: 2000
PreviewTime: 73561
Countdown: 0
SampleSet: Normal
StackLeniency: 0.7
Mode: 1
LetterboxInBreaks: 0
WidescreenStoryboard: 0

[Editor]
DistanceSpacing: 1
BeatDivisor: 2
GridSize: 32
TimelineZoom: 1.400001

[Metadata]
Title:Zettai Darli'n
TitleUnicode:絶対Darli'n
Artist:Duca
ArtistUnicode:Duca
Creator:toara_fict
Version:Kantan
Source:倉野くんちのふたご事情
Tags:Kurano-kunchi no Futago Jijou JUDYDANNY cube opening eroge visual novel ANZIE 安瀬
BeatmapID:786941
BeatmapSetID:229998

[Difficulty]
HPDrainRate:8
CircleSize:5
OverallDifficulty:3
ApproachRate:10
SliderMultiplier:1.4
SliderTickRate:2

[Events]
//Background and Video events
0,0,"ppa.jpg",0,50
//Break Periods
//Storyboard Layer 0 (Background)
//Storyboard Layer 1 (Fail)
//Storyboard Layer 2 (Pass)
//Storyboard Layer 3 (Foreground)
//Storyboard Sound Samples

[TimingPoints]
150,352.941176470588,4,1,0,50,1,0
59444,-100,4,1,0,60,0,0
73561,-100,4,1,0,70,0,1
96149,-100,4,1,0,60,0,0

[HitObjects]
256,192,8620,12,0,10032,0:0:0:0:
192,256,11444,5,4,0:0:0:0:
320,128,12149,1,8,0:0:0:0:
192,128,12502,1,0,0:0:0:0:
192,128,12855,1,0,0:0:0:0:
320,128,13561,1,8,0:0:0:0:
192,128,14267,1,0,0:0:0:0:
320,128,14973,1,8,0:0:0:0:
192,128,15326,1,0,0:0:0:0:
192,128,15679,1,0,0:0:0:0:
192,256,17091,1,4,0:0:0:0:
320,128,17797,1,8,0:0:0:0:
320,128,18502,1,8,0:0:0:0:
192,128,18855,1,0,0:0:0:0:
320,128,19208,1,8,0:0:0:0:
192,128,19914,1,0,0:0:0:0:
320,128,20620,1,8,0:0:0:0:
192,128,20973,1,0,0:0:0:0:
320,128,21326,1,8,0:0:0:0:
192,128,22032,1,8,0:0:0:0:
192,256,22738,1,4,0:0:0:0:
320,256,23973,1,12,0:0:0:0:
192,256,25561,1,4,0:0:0:0:
320,128,26973,1,8,0:0:0:0:
192,128,27679,1,0,0:0:0:0:
320,128,28385,1,8,0:0:0:0:
320,128,29797,1,8,0:0:0:0:
192,128,30502,1,0,0:0:0:0:
192,128,31208,1,0,0:0:0:0:
192,128,32620,1,0,0:0:0:0:
320,128,33326,1,8,0:0:0:0:
320,128,34032,1,8,0:0:0:0:
320,128,35444,1,0,0:0:0:0:
192,128,36149,1,8,0:0:0:0:
192,256,36855,1,4,0:0:0:0:
192,128,38267,1,0,0:0:0:0:
320,128,38620,1,8,0:0:0:0:
192,256,39679,1,4,0:0:0:0:
192,128,41091,1,8,0:0:0:0:
192,128,41444,1,0,0:0:0:0:
192,128,42502,1,0,0:0:0:0:
320,128,43208,1,0,0:0:0:0:
192,128,43914,1,0,0:0:0:0:
192,128,44620,1,0,0:0:0:0:
320,128,45326,1,8,0:0:0:0:
320,128,46738,1,8,0:0:0:0:
320,128,47091,1,8,0:0:0:0:
192,256,48149,1,4,0:0:0:0:
320,128,49561,1,8,0:0:0:0:
320,128,50267,1,8,0:0:0:0:
192,128,50973,1,0,0:0:0:0:
192,128,52385,1,0,0:0:0:0:
192,128,53091,1,0,0:0:0:0:
320,128,53797,1,8,0:0:0:0:
192,128,55208,1,0,0:0:0:0:
320,128,55914,1,8,0:0:0:0:
320,128,56620,1,8,0:0:0:0:
320,128,58032,1,8,0:0:0:0:
192,128,58738,1,0,0:0:0:0:
192,256,59444,1,4,0:0:0:0:
192,128,60855,1,0,0:0:0:0:
320,128,61208,1,8,0:0:0:0:
192,256,62267,1,4,0:0:0:0:
192,128,63679,1,8,0:0:0:0:
192,128,64032,1,0,0:0:0:0:
320,128,64385,1,8,0:0:0:0:
192,256,65091,1,4,0:0:0:0:
192,128,66502,1,0,0:0:0:0:
192,128,67208,1,0,0:0:0:0:
192,256,67914,1,4,0:0:0:0:
320,128,68620,1,8,0:0:0:0:
192,256,69326,1,4,0:0:0:0:
192,256,70738,1,4,0:0:0:0:
192,256,72149,1,4,0:0:0:0:
320,256,72855,1,12,0:0:0:0:
192,256,73561,1,4,0:0:0:0:
320,288,74267,1,0,0:0:0:0:
192,128,74620,1,0,0:0:0:0:
320,128,74973,1,8,0:0:0:0:
320,128,75679,1,8,0:0:0:0:
192,128,76385,1,0,0:0:0:0:
192,128,76738,1,0,0:0:0:0:
320,128,77091,1,8,0:0:0:0:
192,128,77797,1,0,0:0:0:0:
192,256,79208,1,4,0:0:0:0:
192,128,79914,1,0,0:0:0:0:
320,128,80620,1,8,0:0:0:0:
320,128,80973,1,8,0:0:0:0:
320,128,81326,1,8,0:0:0:0:
192,128,82032,1,0,0:0:0:0:
192,128,82738,1,0,0:0:0:0:
320,128,83444,1,8,0:0:0:0:
192,256,84855,1,4,0:0:0:0:
320,288,85561,1,0,0:0:0:0:
192,128,85914,1,0,0:0:0:0:
320,128,86267,1,8,0:0:0:0:
320,128,86973,1,8,0:0:0:0:
192,128,87679,1,0,0:0:0:0:
192,128,88032,1,0,0:0:0:0:
320,128,88385,1,8,0:0:0:0:
192,128,89091,1,0,0:0:0:0:
320,128,89797,1,8,0:0:0:0:
192,256,90502,1,4,0:0:0:0:
320,128,91914,1,8,0:0:0:0:
192,128,92267,1,8,0:0:0:0:
320,128,92620,1,8,0:0:0:0:
192,128,93326,1,0,0:0:0:0:
320,128,94032,1,8,0:0:0:0:
320,128,94738,1,0,0:0:0:0:
320,128,95444,1,8,0:0:0:0:
320,128,95797,1,8,0:0:0:0:
192,256,96149,1,4,0:0:0:0:
320,128,97561,1,8,0:0:0:0:
192,128,98267,1,0,0:0:0:0:
320,128,98973,1,8,0:0:0:0:
320,128,100385,1,8,0:0:0:0:
192,128,101091,1,0,0:0:0:0:
192,128,101797,1,0,0:0:0:0:
320,128,103208,1,8,0:0:0:0:
192,128,103914,1,0,0:0:0:0:
192,128,104620,1,0,0:0:0:0:
192,128,106032,1,0,0:0:0:0:
192,128,106738,1,0,0:0:0:0:
192,256,107444,1,4,0:0:0:0:
192,256,107973,1,4,0:0:0:0:
320,256,108502,1,12,0:0:0:0:
