osu file format v14

[General]
AudioFilename: Duca - Zettai Darli'n.mp3
AudioLeadIn: 2000
PreviewTime: 73561
Countdown: 0
SampleSet: Normal
StackLeniency: 0.7
Mode: 1
LetterboxInBreaks: 0
WidescreenStoryboard: 0

[Editor]
DistanceSpacing: 1
BeatDivisor: 4
GridSize: 32
TimelineZoom: 2.000002

[Metadata]
Title:Zettai Darli'n
TitleUnicode:絶対Darli'n
Artist:Duca
ArtistUnicode:Duca
Creator:toara_fict
Version:JuDa's Oni
Source:倉野くんちのふたご事情
Tags:Kurano-kunchi no Futago Jijou JUDYDANNY cube opening eroge visual novel ANZIE 安瀬
BeatmapID:786940
BeatmapSetID:229998

[Difficulty]
HPDrainRate:6
CircleSize:5
OverallDifficulty:5
ApproachRate:5
SliderMultiplier:1.4
SliderTickRate:2

[Events]
//Background and Video events
0,0,"ppa.jpg",0,50
//Break Periods
//Storyboard Layer 0 (Background)
//Storyboard Layer 1 (Fail)
//Storyboard Layer 2 (Pass)
//Storyboard Layer 3 (Foreground)
//Storyboard Sound Samples

[TimingPoints]
150,352.941176470588,4,1,0,50,1,0
59444,-100,4,1,0,60,0,0
73561,-100,4,1,0,70,0,1
96149,-100,4,1,0,60,0,0

[HitObjects]
192,160,10738,5,0,0:0:0:0:
192,160,11444,1,4,0:0:0:0:
192,160,11797,1,2,0:0:0:0:
192,160,11973,1,0,0:0:0:0:
192,160,12326,1,0,0:0:0:0:
192,160,12502,1,2,0:0:0:0:
192,160,12679,1,0,0:0:0:0:
160,128,12767,1,0,0:0:0:0:
192,160,12855,1,0,0:0:0:0:
192,160,13032,1,0,0:0:0:0:
192,160,13208,1,2,0:0:0:0:
192,160,13385,1,0,0:0:0:0:
192,160,13473,1,2,0:0:0:0:
192,160,13561,1,0,0:0:0:0:
192,160,13738,1,0,0:0:0:0:
192,160,13914,1,2,0:0:0:0:
192,96,14091,1,0,0:0:0:0:
192,160,14267,1,2,0:0:0:0:
192,160,14620,1,2,0:0:0:0:
192,128,14973,1,0,0:0:0:0:
192,160,15149,1,2,0:0:0:0:
192,160,15326,1,0,0:0:0:0:
192,160,15502,1,2,0:0:0:0:
192,160,15591,1,2,0:0:0:0:
192,160,15679,1,0,0:0:0:0:
192,160,15855,1,0,0:0:0:0:
192,160,16032,1,2,0:0:0:0:
224,96,16208,1,0,0:0:0:0:
224,128,16297,1,2,0:0:0:0:
192,160,16385,1,0,0:0:0:0:
224,128,16473,1,2,0:0:0:0:
192,160,16561,1,0,0:0:0:0:
192,160,16738,1,2,0:0:0:0:
192,160,16914,1,2,0:0:0:0:
192,160,17091,1,0,0:0:0:0:
192,160,17444,1,2,0:0:0:0:
192,160,17620,1,0,0:0:0:0:
192,128,17708,1,0,0:0:0:0:
192,128,17797,1,2,0:0:0:0:
224,192,17973,1,0,0:0:0:0:
192,160,18149,1,2,0:0:0:0:
192,160,18326,1,2,0:0:0:0:
192,128,18414,1,2,0:0:0:0:
192,160,18502,1,0,0:0:0:0:
192,96,18679,1,0,0:0:0:0:
192,160,18855,1,2,0:0:0:0:
192,128,19032,1,0,0:0:0:0:
192,128,19208,1,2,0:0:0:0:
192,96,19297,1,0,0:0:0:0:
192,160,19385,1,0,0:0:0:0:
192,160,19561,1,2,0:0:0:0:
192,160,19738,1,2,0:0:0:0:
192,160,19914,1,0,0:0:0:0:
192,160,20267,1,2,0:0:0:0:
192,160,20444,1,0,0:0:0:0:
192,160,20620,1,2,0:0:0:0:
192,160,20708,1,2,0:0:0:0:
192,160,20797,1,0,0:0:0:0:
192,160,20973,1,2,0:0:0:0:
192,128,21061,1,2,0:0:0:0:
192,128,21149,1,0,0:0:0:0:
192,160,21326,1,2,0:0:0:0:
192,160,21502,1,0,0:0:0:0:
192,160,21679,1,2,0:0:0:0:
192,160,21855,1,0,0:0:0:0:
192,160,21944,1,2,0:0:0:0:
192,160,22032,1,0,0:0:0:0:
192,160,22208,1,0,0:0:0:0:
192,160,22385,1,2,0:0:0:0:
192,160,22473,1,2,0:0:0:0:
192,160,22561,1,2,0:0:0:0:
192,160,22649,1,2,0:0:0:0:
192,160,22738,1,0,0:0:0:0:
192,160,23091,1,2,0:0:0:0:
192,160,23267,1,0,0:0:0:0:
192,128,23444,1,2,0:0:0:0:
192,160,23532,1,2,0:0:0:0:
192,128,23620,1,0,0:0:0:0:
192,128,23797,1,2,0:0:0:0:
192,160,23973,1,4,0:0:0:0:
192,160,24326,1,0,0:0:0:0:
192,160,24502,1,2,0:0:0:0:
192,96,24679,1,0,0:0:0:0:
192,128,24767,1,0,0:0:0:0:
192,160,24855,1,0,0:0:0:0:
192,160,25032,1,2,0:0:0:0:
224,96,25208,1,2,0:0:0:0:
224,96,25297,1,2,0:0:0:0:
256,128,25385,1,2,0:0:0:0:
224,128,25473,1,2,0:0:0:0:
192,160,25561,1,0,0:0:0:0:
192,160,25914,1,2,0:0:0:0:
192,160,26267,1,0,0:0:0:0:
192,160,26444,1,0,0:0:0:0:
192,160,26620,1,2,0:0:0:0:
192,160,26797,1,0,0:0:0:0:
192,160,27149,1,0,0:0:0:0:
192,160,27326,1,2,0:0:0:0:
192,160,27679,1,0,0:0:0:0:
192,96,27855,1,0,0:0:0:0:
192,160,28032,1,2,0:0:0:0:
192,160,28385,1,0,0:0:0:0:
192,160,28738,1,2,0:0:0:0:
192,96,29091,1,0,0:0:0:0:
192,160,29267,1,0,0:0:0:0:
192,160,29444,1,2,0:0:0:0:
192,160,29620,1,0,0:0:0:0:
160,32,29973,1,0,0:0:0:0:
192,160,30149,1,2,0:0:0:0:
192,160,30326,1,0,0:0:0:0:
192,160,30679,1,0,0:0:0:0:
192,160,30855,1,2,0:0:0:0:
192,160,31032,1,2,0:0:0:0:
192,160,31208,1,0,0:0:0:0:
192,160,31561,1,2,0:0:0:0:
192,160,31914,1,0,0:0:0:0:
192,160,32091,1,0,0:0:0:0:
192,160,32267,1,2,0:0:0:0:
192,160,32444,1,0,0:0:0:0:
192,160,32797,1,0,0:0:0:0:
192,160,32973,1,2,0:0:0:0:
192,96,33149,1,0,0:0:0:0:
192,96,33238,1,0,0:0:0:0:
192,160,33326,1,0,0:0:0:0:
192,96,33502,1,0,0:0:0:0:
192,160,33679,1,2,0:0:0:0:
192,96,33855,1,2,0:0:0:0:
192,160,34032,1,0,0:0:0:0:
192,160,34385,1,2,0:0:0:0:
192,160,34738,1,0,0:0:0:0:
192,160,34914,1,0,0:0:0:0:
192,160,35091,1,2,0:0:0:0:
192,160,35267,1,0,0:0:0:0:
192,160,35620,1,0,0:0:0:0:
192,96,35797,1,2,0:0:0:0:
192,160,35973,1,2,0:0:0:0:
192,128,36061,1,2,0:0:0:0:
192,160,36149,1,0,0:0:0:0:
192,96,36326,1,0,0:0:0:0:
192,160,36502,1,2,0:0:0:0:
192,64,36679,1,0,0:0:0:0:
192,160,36855,1,0,0:0:0:0:
192,64,37032,1,0,0:0:0:0:
224,32,37208,1,2,0:0:0:0:
192,96,37385,1,2,0:0:0:0:
192,64,37738,1,0,0:0:0:0:
192,128,37914,1,2,0:0:0:0:
192,160,38091,1,0,0:0:0:0:
192,160,38444,1,0,0:0:0:0:
192,160,38620,1,0,0:0:0:0:
192,96,38797,1,2,0:0:0:0:
192,96,39149,1,0,0:0:0:0:
192,160,39326,1,2,0:0:0:0:
192,160,39679,1,0,0:0:0:0:
192,96,39855,1,0,0:0:0:0:
224,32,40032,1,2,0:0:0:0:
192,96,40208,1,2,0:0:0:0:
192,96,40561,1,0,0:0:0:0:
192,96,40738,1,2,0:0:0:0:
192,96,40914,1,0,0:0:0:0:
192,96,41091,1,2,0:0:0:0:
192,160,41267,1,2,0:0:0:0:
192,128,41355,1,2,0:0:0:0:
192,96,41444,1,0,0:0:0:0:
192,32,41620,1,2,0:0:0:0:
192,160,41973,1,0,0:0:0:0:
192,160,42149,1,2,0:0:0:0:
192,160,42502,1,0,0:0:0:0:
192,160,43208,1,2,0:0:0:0:
192,128,43561,1,0,0:0:0:0:
128,64,43738,1,2,0:0:0:0:
192,128,43914,1,0,0:0:0:0:
128,64,44091,1,2,0:0:0:0:
192,160,44267,1,0,0:0:0:0:
192,160,44620,1,2,0:0:0:0:
192,128,44973,1,2,0:0:0:0:
192,160,45149,1,2,0:0:0:0:
192,160,45326,1,0,0:0:0:0:
192,96,45855,1,0,0:0:0:0:
192,160,46032,1,2,0:0:0:0:
192,96,46208,1,0,0:0:0:0:
192,96,46385,1,0,0:0:0:0:
160,32,46561,1,0,0:0:0:0:
192,96,46738,1,2,0:0:0:0:
192,96,46914,1,0,0:0:0:0:
192,96,47002,1,0,0:0:0:0:
192,160,47091,1,0,0:0:0:0:
192,96,47267,1,2,0:0:0:0:
192,96,47444,1,2,0:0:0:0:
160,64,47532,1,2,0:0:0:0:
192,96,47620,1,0,0:0:0:0:
192,160,47797,1,0,0:0:0:0:
192,160,47973,1,2,0:0:0:0:
192,160,48149,1,0,0:0:0:0:
192,160,48502,1,2,0:0:0:0:
192,160,48855,1,0,0:0:0:0:
192,160,49032,1,0,0:0:0:0:
192,160,49208,1,2,0:0:0:0:
192,160,49385,1,0,0:0:0:0:
192,160,49738,1,0,0:0:0:0:
192,160,49914,1,2,0:0:0:0:
192,96,50091,1,0,0:0:0:0:
192,64,50179,1,0,0:0:0:0:
192,160,50267,1,0,0:0:0:0:
192,64,50444,1,0,0:0:0:0:
192,160,50620,1,2,0:0:0:0:
192,64,50797,1,2,0:0:0:0:
192,160,50973,1,0,0:0:0:0:
192,160,51326,1,2,0:0:0:0:
192,160,51502,1,0,0:0:0:0:
192,64,51679,1,0,0:0:0:0:
192,64,51767,1,0,0:0:0:0:
192,160,51855,1,0,0:0:0:0:
192,160,52032,1,2,0:0:0:0:
192,160,52208,1,0,0:0:0:0:
192,64,52561,1,0,0:0:0:0:
192,160,52738,1,2,0:0:0:0:
192,64,52914,1,0,0:0:0:0:
192,64,53002,1,2,0:0:0:0:
192,64,53091,1,0,0:0:0:0:
192,160,53267,1,0,0:0:0:0:
192,160,53444,1,2,0:0:0:0:
192,64,53620,1,2,0:0:0:0:
192,160,53797,1,0,0:0:0:0:
192,160,54149,1,2,0:0:0:0:
192,160,54502,1,0,0:0:0:0:
192,160,54679,1,0,0:0:0:0:
192,160,54855,1,2,0:0:0:0:
192,160,55032,1,0,0:0:0:0:
192,160,55385,1,0,0:0:0:0:
192,160,55561,1,2,0:0:0:0:
160,96,55738,1,0,0:0:0:0:
192,128,55826,1,0,0:0:0:0:
192,160,55914,1,0,0:0:0:0:
192,96,56091,1,2,0:0:0:0:
160,32,56267,1,0,0:0:0:0:
192,128,56444,1,2,0:0:0:0:
192,64,56532,1,2,0:0:0:0:
192,160,56620,1,0,0:0:0:0:
160,96,56797,1,0,0:0:0:0:
192,160,56973,1,2,0:0:0:0:
192,160,57326,1,0,0:0:0:0:
192,160,57502,1,0,0:0:0:0:
192,160,57679,1,2,0:0:0:0:
192,160,57855,1,0,0:0:0:0:
192,160,58208,1,0,0:0:0:0:
192,160,58385,1,2,0:0:0:0:
192,160,58561,1,2,0:0:0:0:
192,128,58649,1,2,0:0:0:0:
192,160,58738,1,0,0:0:0:0:
192,96,58914,1,2,0:0:0:0:
192,96,59091,1,0,0:0:0:0:
192,160,59444,5,0,0:0:0:0:
192,96,59620,1,0,0:0:0:0:
192,160,59797,1,2,0:0:0:0:
192,96,59973,1,2,0:0:0:0:
160,64,60326,1,0,0:0:0:0:
192,128,60502,1,2,0:0:0:0:
192,160,60679,1,0,0:0:0:0:
192,128,60767,1,0,0:0:0:0:
192,160,60855,1,0,0:0:0:0:
192,160,61032,1,0,0:0:0:0:
192,160,61208,1,2,0:0:0:0:
192,128,61385,1,0,0:0:0:0:
192,160,61738,1,0,0:0:0:0:
192,160,61914,1,2,0:0:0:0:
192,160,62267,1,0,0:0:0:0:
192,96,62444,1,0,0:0:0:0:
192,160,62620,1,2,0:0:0:0:
192,128,62797,1,2,0:0:0:0:
192,160,63149,1,0,0:0:0:0:
192,160,63326,1,2,0:0:0:0:
192,128,63502,1,2,0:0:0:0:
192,160,63679,1,0,0:0:0:0:
192,32,63767,1,0,0:0:0:0:
192,96,63855,1,0,0:0:0:0:
192,160,64032,1,2,0:0:0:0:
192,128,64208,1,0,0:0:0:0:
192,32,64297,1,0,0:0:0:0:
192,32,64385,1,0,0:0:0:0:
192,128,64561,1,0,0:0:0:0:
190,102,64738,1,2,0:0:0:0:
192,32,64914,1,2,0:0:0:0:
192,160,65091,1,0,0:0:0:0:
192,160,65444,1,2,0:0:0:0:
192,64,65620,1,2,0:0:0:0:
160,32,65797,1,0,0:0:0:0:
192,96,65973,1,0,0:0:0:0:
192,160,66149,1,2,0:0:0:0:
192,160,66502,1,0,0:0:0:0:
192,64,66679,1,0,0:0:0:0:
192,160,66855,1,2,0:0:0:0:
192,128,67032,1,2,0:0:0:0:
192,64,67208,1,0,0:0:0:0:
192,96,67385,1,0,0:0:0:0:
192,160,67561,1,2,0:0:0:0:
192,160,67914,1,0,0:0:0:0:
192,160,68267,1,2,0:0:0:0:
192,160,68444,1,0,0:0:0:0:
192,160,68620,1,2,0:0:0:0:
192,64,68797,1,0,0:0:0:0:
192,128,68885,1,0,0:0:0:0:
192,64,68973,1,2,0:0:0:0:
192,160,69149,1,0,0:0:0:0:
192,160,69326,1,2,0:0:0:0:
192,160,69502,1,0,0:0:0:0:
192,128,69591,1,0,0:0:0:0:
192,160,69679,1,2,0:0:0:0:
192,64,69855,1,2,0:0:0:0:
160,96,69944,1,2,0:0:0:0:
192,160,70032,1,0,0:0:0:0:
192,160,70208,1,0,0:0:0:0:
192,160,70385,1,2,0:0:0:0:
160,96,70561,1,0,0:0:0:0:
192,160,70738,1,4,0:0:0:0:
192,160,71091,1,2,0:0:0:0:
192,160,71267,1,0,0:0:0:0:
192,160,71444,1,2,0:0:0:0:
192,160,71620,1,0,0:0:0:0:
192,128,71708,1,0,0:0:0:0:
192,96,71797,1,2,0:0:0:0:
192,96,71973,1,2,0:0:0:0:
192,160,72149,1,4,0:0:0:0:
192,160,72326,1,4,0:0:0:0:
192,96,72502,1,2,0:0:0:0:
192,96,72591,1,2,0:0:0:0:
192,96,72679,1,0,0:0:0:0:
192,160,72855,1,6,0:0:0:0:
192,160,73032,1,6,0:0:0:0:
192,96,73208,1,0,0:0:0:0:
192,64,73297,1,0,0:0:0:0:
192,64,73385,1,2,0:0:0:0:
192,160,73561,1,4,0:0:0:0:
192,32,73914,1,4,0:0:0:0:
192,64,74267,1,2,0:0:0:0:
192,32,74444,1,0,0:0:0:0:
192,160,74620,1,2,0:0:0:0:
192,64,74797,1,0,0:0:0:0:
192,64,74885,1,0,0:0:0:0:
192,64,74973,1,0,0:0:0:0:
192,160,75149,1,0,0:0:0:0:
192,96,75326,1,2,0:0:0:0:
192,160,75502,1,0,0:0:0:0:
192,128,75591,1,0,0:0:0:0:
192,96,75679,1,2,0:0:0:0:
192,160,75855,1,0,0:0:0:0:
192,160,76032,1,2,0:0:0:0:
192,64,76120,1,2,0:0:0:0:
192,160,76208,1,0,0:0:0:0:
192,160,76385,1,6,0:0:0:0:
192,160,76738,1,6,0:0:0:0:
192,96,77091,1,2,0:0:0:0:
192,160,77267,1,0,0:0:0:0:
192,160,77444,1,2,0:0:0:0:
192,160,77620,1,0,0:0:0:0:
192,128,77708,1,2,0:0:0:0:
192,160,77797,1,0,0:0:0:0:
192,160,77973,1,0,0:0:0:0:
192,160,78149,1,2,0:0:0:0:
192,128,78326,1,0,0:0:0:0:
192,96,78414,1,2,0:0:0:0:
224,96,78502,1,0,0:0:0:0:
192,64,78591,1,2,0:0:0:0:
192,32,78679,1,0,0:0:0:0:
192,64,78855,1,2,0:0:0:0:
192,64,79032,1,2,0:0:0:0:
192,160,79208,1,0,0:0:0:0:
192,160,79561,1,2,0:0:0:0:
192,160,79738,1,0,0:0:0:0:
192,160,79826,1,0,0:0:0:0:
192,160,79914,1,0,0:0:0:0:
192,128,80091,1,0,0:0:0:0:
192,160,80267,1,2,0:0:0:0:
192,160,80444,1,0,0:0:0:0:
192,128,80532,1,2,0:0:0:0:
192,160,80620,1,0,0:0:0:0:
192,160,80797,1,0,0:0:0:0:
192,160,80973,1,2,0:0:0:0:
192,160,81149,1,0,0:0:0:0:
192,96,81238,1,2,0:0:0:0:
192,96,81326,1,0,0:0:0:0:
160,96,81414,1,0,0:0:0:0:
192,160,81502,1,0,0:0:0:0:
192,160,81679,1,2,0:0:0:0:
192,160,81855,1,2,0:0:0:0:
160,96,81944,1,2,0:0:0:0:
192,160,82032,1,0,0:0:0:0:
192,128,82208,1,0,0:0:0:0:
192,160,82385,1,2,0:0:0:0:
192,160,82561,1,0,0:0:0:0:
192,128,82649,1,0,0:0:0:0:
192,160,82738,1,2,0:0:0:0:
192,160,82826,1,2,0:0:0:0:
192,160,82914,1,0,0:0:0:0:
192,160,83091,1,2,0:0:0:0:
192,160,83267,1,2,0:0:0:0:
192,160,83444,1,0,0:0:0:0:
192,160,83620,1,0,0:0:0:0:
192,160,83708,1,0,0:0:0:0:
192,160,83797,1,2,0:0:0:0:
192,160,83973,1,0,0:0:0:0:
192,160,84061,1,2,0:0:0:0:
192,160,84238,1,2,0:0:0:0:
192,160,84326,1,0,0:0:0:0:
192,160,84414,1,0,0:0:0:0:
192,160,84502,1,2,0:0:0:0:
192,160,84679,1,2,0:0:0:0:
192,160,84855,1,4,0:0:0:0:
192,160,85208,1,4,0:0:0:0:
160,0,85561,1,2,0:0:0:0:
160,64,85738,1,0,0:0:0:0:
192,128,85914,1,2,0:0:0:0:
160,64,86091,1,0,0:0:0:0:
160,96,86179,1,0,0:0:0:0:
192,128,86267,1,0,0:0:0:0:
128,64,86444,1,0,0:0:0:0:
160,96,86532,1,0,0:0:0:0:
192,128,86620,1,2,0:0:0:0:
160,96,86797,1,0,0:0:0:0:
160,96,86973,1,2,0:0:0:0:
192,64,87061,1,2,0:0:0:0:
160,96,87149,1,0,0:0:0:0:
160,96,87238,1,0,0:0:0:0:
160,96,87326,1,2,0:0:0:0:
160,96,87502,1,0,0:0:0:0:
224,64,87679,1,6,0:0:0:0:
128,160,88032,1,6,0:0:0:0:
224,32,88385,1,2,0:0:0:0:
160,96,88561,1,0,0:0:0:0:
160,96,88738,1,2,0:0:0:0:
160,96,88914,1,0,0:0:0:0:
160,96,89002,1,2,0:0:0:0:
160,96,89091,1,0,0:0:0:0:
192,160,89267,1,0,0:0:0:0:
192,64,89444,1,2,0:0:0:0:
192,64,89620,1,2,0:0:0:0:
192,64,89708,1,2,0:0:0:0:
160,96,89797,1,0,0:0:0:0:
224,64,89885,1,2,0:0:0:0:
224,64,89973,1,0,0:0:0:0:
192,160,90149,1,2,0:0:0:0:
160,96,90326,1,2,0:0:0:0:
160,96,90502,1,0,0:0:0:0:
192,160,90855,1,2,0:0:0:0:
192,160,91032,1,0,0:0:0:0:
192,128,91208,1,0,0:0:0:0:
160,32,91297,1,0,0:0:0:0:
192,160,91385,1,0,0:0:0:0:
192,128,91473,1,0,0:0:0:0:
192,160,91561,1,2,0:0:0:0:
192,160,91738,1,2,0:0:0:0:
192,160,91914,1,0,0:0:0:0:
192,160,92091,1,0,0:0:0:0:
192,128,92179,1,0,0:0:0:0:
192,160,92267,1,2,0:0:0:0:
192,160,92444,1,0,0:0:0:0:
192,96,92620,1,2,0:0:0:0:
160,96,92708,1,0,0:0:0:0:
192,160,92797,1,0,0:0:0:0:
192,64,92885,1,0,0:0:0:0:
192,160,92973,1,2,0:0:0:0:
192,160,93149,1,2,0:0:0:0:
192,160,93326,1,0,0:0:0:0:
160,96,93502,1,0,0:0:0:0:
192,160,93679,1,2,0:0:0:0:
192,96,93855,1,2,0:0:0:0:
128,128,93944,1,2,0:0:0:0:
192,96,94032,1,0,0:0:0:0:
128,128,94208,1,0,0:0:0:0:
128,128,94385,1,2,0:0:0:0:
128,128,94561,1,2,0:0:0:0:
192,160,94738,1,0,0:0:0:0:
192,160,94914,1,0,0:0:0:0:
160,64,95002,1,0,0:0:0:0:
192,160,95091,1,2,0:0:0:0:
192,128,95267,1,0,0:0:0:0:
192,160,95355,1,2,0:0:0:0:
192,160,95444,1,0,0:0:0:0:
192,160,95620,1,0,0:0:0:0:
192,160,95797,1,2,0:0:0:0:
192,128,95885,1,2,0:0:0:0:
192,160,95973,1,2,0:0:0:0:
192,128,96061,1,2,0:0:0:0:
192,160,96149,1,0,0:0:0:0:
192,160,96502,1,2,0:0:0:0:
192,160,96679,1,0,0:0:0:0:
192,128,96855,1,2,0:0:0:0:
192,160,96944,1,2,0:0:0:0:
192,128,97032,1,0,0:0:0:0:
192,128,97208,1,2,0:0:0:0:
192,160,97385,1,0,0:0:0:0:
192,160,97738,1,0,0:0:0:0:
192,160,97914,1,2,0:0:0:0:
192,96,98091,1,0,0:0:0:0:
192,128,98179,1,0,0:0:0:0:
192,160,98267,1,2,0:0:0:0:
192,160,98444,1,0,0:0:0:0:
192,160,98620,1,2,0:0:0:0:
192,160,98797,1,2,0:0:0:0:
192,160,98885,1,2,0:0:0:0:
192,160,98973,1,0,0:0:0:0:
192,160,99326,1,2,0:0:0:0:
192,160,99502,1,0,0:0:0:0:
192,160,99679,1,2,0:0:0:0:
192,160,99767,1,2,0:0:0:0:
192,160,99855,1,0,0:0:0:0:
192,160,100032,1,0,0:0:0:0:
192,160,100208,1,2,0:0:0:0:
192,160,100561,1,0,0:0:0:0:
192,160,100738,1,2,0:0:0:0:
192,160,100914,1,0,0:0:0:0:
192,160,101002,1,0,0:0:0:0:
192,160,101091,1,2,0:0:0:0:
192,160,101267,1,0,0:0:0:0:
192,160,101444,1,2,0:0:0:0:
192,160,101532,1,2,0:0:0:0:
192,160,101620,1,2,0:0:0:0:
192,160,101797,1,0,0:0:0:0:
192,160,102149,1,2,0:0:0:0:
192,160,102326,1,0,0:0:0:0:
192,160,102502,1,2,0:0:0:0:
192,160,102591,1,2,0:0:0:0:
192,160,102679,1,0,0:0:0:0:
192,160,102767,1,0,0:0:0:0:
192,160,102855,1,2,0:0:0:0:
192,160,103032,1,0,0:0:0:0:
192,160,103385,1,0,0:0:0:0:
192,96,103473,1,0,0:0:0:0:
192,160,103561,1,2,0:0:0:0:
192,160,103738,1,0,0:0:0:0:
160,160,103826,1,0,0:0:0:0:
192,160,103914,1,2,0:0:0:0:
192,160,104091,1,0,0:0:0:0:
192,160,104267,1,2,0:0:0:0:
192,64,104444,1,2,0:0:0:0:
192,64,104532,1,2,0:0:0:0:
160,160,104620,1,0,0:0:0:0:
192,128,104797,1,0,0:0:0:0:
192,128,104973,1,2,0:0:0:0:
192,128,105149,1,0,0:0:0:0:
192,64,105326,1,0,0:0:0:0:
192,64,105414,1,2,0:0:0:0:
192,128,105502,1,0,0:0:0:0:
192,128,105679,1,2,0:0:0:0:
192,128,105855,1,2,0:0:0:0:
192,96,105944,1,2,0:0:0:0:
192,96,106032,1,0,0:0:0:0:
192,128,106208,1,0,0:0:0:0:
192,128,106385,1,2,0:0:0:0:
192,128,106561,1,0,0:0:0:0:
192,128,106649,1,2,0:0:0:0:
192,128,106738,1,0,0:0:0:0:
192,128,106826,1,2,0:0:0:0:
192,128,106914,1,0,0:0:0:0:
192,128,107091,1,2,0:0:0:0:
192,160,107444,5,4,0:0:0:0:
192,160,107620,1,4,0:0:0:0:
192,160,107797,1,4,0:0:0:0:
192,160,107973,1,4,0:0:0:0:
192,160,108502,1,12,0:0:0:0:
192,160,108679,1,12,0:0:0:0:
