osu file format v14

[General]
AudioFilename: audio.mp3
AudioLeadIn: 0
PreviewTime: 64126
Countdown: 0
SampleSet: Soft
StackLeniency: 0.7
Mode: 0
LetterboxInBreaks: 0
WidescreenStoryboard: 0

[Editor]
DistanceSpacing: 0.6
BeatDivisor: 4
GridSize: 32
TimelineZoom: 1.3

[Metadata]
Title:Tsuki no Kanata de Aimashou
TitleUnicode:月の彼方で逢いましょう
Artist:Duca
ArtistUnicode:Duca
Creator:Mimari
Version:YukiZura-'s Hard
Source:月の彼方で逢いましょう
Tags:eroge see you at other side of the moon tone work's opening op galgame visual novel vn japanese female vocals short version asuka asuka_- cami dkblaze yukizara YukiZura- Lecana video game
BeatmapID:2064301
BeatmapSetID:986799

[Difficulty]
HPDrainRate:4.6
CircleSize:3.6
OverallDifficulty:6
ApproachRate:7.5
SliderMultiplier:1.4
SliderTickRate:1

[Events]
//Background and Video events
0,0,"gallery_cg_5_waifu2x_art_noise3_scale_tta_1.jpg",0,0
//Break Periods
//Storyboard Layer 0 (Background)
//Storyboard Layer 1 (Fail)
//Storyboard Layer 2 (Pass)
//Storyboard Layer 3 (Foreground)
//Storyboard Layer 4 (Overlay)
//Storyboard Sound Samples

[TimingPoints]
438,327.868852459016,4,2,1,60,1,0
21421,-125,4,2,1,60,0,0
22732,-142.857142857143,4,2,1,40,0,0
42404,-111.111111111111,4,2,1,40,0,0
43716,-100,4,2,1,40,0,0
51503,-100,4,2,1,40,0,0
51585,-100,4,2,1,40,0,0
64700,-83.3333333333333,4,2,1,70,0,1
85683,-100,4,2,1,60,0,0

[Colours]
Combo1 : 234,128,128
Combo2 : 236,125,217
Combo3 : 218,221,233
Combo4 : 148,174,214

[HitObjects]
75,102,12241,6,0,L|66:22,2,70,4|0|10,3:2|3:2|3:2,0:0:0:0:
118,182,12733,2,0,L|103:326,1,140,0|0,3:0|0:0,0:0:0:0:
180,371,13225,2,0,P|219:354|253:352,1,70,10|0,0:0|0:0,0:0:0:0:
324,303,13553,6,0,P|363:320|397:322,2,70,0|0|10,3:0|0:0|0:0,0:0:0:0:
259,238,14045,2,0,L|244:98,1,140,0|0,3:0|3:0,0:0:0:0:
298,24,14537,2,0,P|336:7|377:9,1,70,10|0,0:0|0:0,0:0:0:0:
443,50,14864,6,0,L|457:144,2,70,4|0|10,3:2|0:0|0:0,0:0:0:0:
366,100,15356,2,0,L|383:244,1,140,0|0,3:0|0:0,0:0:0:0:
366,348,15848,1,10,0:0:0:0:
366,348,16012,6,0,P|323:326|214:344,1,140,0|0,0:0|0:0,0:0:0:0:
155,380,16504,1,10,0:0:0:0:
97,309,16668,2,0,L|89:219,1,70,0|2,3:0|0:0,0:0:0:0:
41,162,16996,1,0,3:0:0:0:
41,162,17160,2,0,L|49:72,1,70,10|0,0:0|0:0,0:0:0:0:
117,33,17487,5,4,3:2:0:0:
184,93,17651,2,0,P|242:108|271:103,1,70,2|10,2:0|0:0,0:0:0:0:
335,71,17979,1,0,3:0:0:0:
407,125,18143,1,2,0:0:0:0:
407,125,18307,2,0,L|397:214,1,70,2|10,2:0|0:0,0:0:0:0:
455,266,18635,5,0,0:0:0:0:
385,324,18799,2,0,L|282:321,1,70,0|0,3:0|0:0,0:0:0:0:
228,291,19127,1,10,0:0:0:0:
228,291,19291,2,0,P|187:310|152:313,1,70,0|2,3:0|0:0,0:0:0:0:
88,361,19619,1,0,0:0:0:0:
26,307,19782,6,0,L|18:214,1,70,10|4,0:0|3:2,0:0:0:0:
4,159,20110,1,0,0:0:0:0:
90,37,20438,1,8,0:0:0:0:
119,119,20602,2,0,P|133:160|156:205,1,70,8|0,0:0|0:0,0:0:0:0:
197,269,20930,1,8,0:0:0:0:
197,269,21094,1,8,0:0:0:0:
265,215,21258,1,0,3:0:0:0:
262,195,21340,1,0,0:0:0:0:
261,178,21422,6,0,B|251:99|331:33|331:33|422:80|444:222|369:286,1,448,12|0,0:0|3:0,0:0:0:0:
381,274,23225,5,0,0:0:0:0:
301,263,23389,2,0,L|199:281,1,97.9999970092774,0|2,0:0|0:0,0:0:0:0:
132,315,23881,1,0,0:0:0:0:
58,288,24045,2,0,P|43:258|42:231,1,48.9999985046387,0|0,0:0|0:0,0:0:0:0:
48,162,24373,2,0,P|87:129|145:126,1,97.9999970092774,2|0,0:0|0:0,0:0:0:0:
255,24,25028,6,0,P|281:29|308:48,1,48.9999985046387,2|0,0:0|3:0,0:0:0:0:
332,117,25356,1,0,3:0:0:0:
448,224,25684,2,0,L|456:126,2,97.9999970092774,2|0|2,0:0|0:0|0:0,0:0:0:0:
414,334,26668,6,0,P|372:312|311:310,1,97.9999970092774,0|2,0:0|0:0,0:0:0:0:
249,338,27160,2,0,P|207:360|146:362,1,97.9999970092774,0|0,0:0|0:0,0:0:0:0:
88,326,27651,1,2,0:0:0:0:
88,326,27815,1,0,0:0:0:0:
39,264,27979,6,0,L|41:162,1,97.9999970092774,0|2,3:0|0:0,0:0:0:0:
73,94,28471,1,0,0:0:0:0:
73,94,28635,2,0,P|115:105|190:89,1,97.9999970092774,0|2,0:0|0:0,0:0:0:0:
240,58,29127,1,0,0:0:0:0:
240,58,29291,6,0,P|278:45|309:46,1,48.9999985046387,0|0,0:0|0:0,0:0:0:0:
362,67,29619,2,0,P|376:100|380:128,1,48.9999985046387,2|0,0:0|0:0,0:0:0:0:
420,179,29946,2,0,P|406:212|402:240,1,48.9999985046387,0|0,0:0|0:0,0:0:0:0:
378,299,30274,1,2,0:0:0:0:
378,299,30438,1,0,3:0:0:0:
318,362,30602,6,0,L|214:351,1,97.9999970092774,0|2,3:0|0:0,0:0:0:0:
143,333,31094,2,0,P|121:279|128:226,1,97.9999970092774,0|0,0:0|0:0,0:0:0:0:
76,176,31586,2,0,L|67:120,1,48.9999985046387,2|0,0:0|0:0,0:0:0:0:
288,44,32241,6,0,L|353:35,1,48.9999985046387,2|0,0:0|0:0,0:0:0:0:
393,92,32569,2,0,L|441:98,1,48.9999985046387,0|0,0:0|0:0,0:0:0:0:
459,175,32897,2,0,L|488:213,1,48.9999985046387,2|0,0:0|0:0,0:0:0:0:
430,287,33225,6,0,P|384:283|317:298,1,97.9999970092774,0|2,3:0|0:0,0:0:0:0:
259,252,33717,2,0,P|275:207|278:152,1,97.9999970092774,0|0,0:0|0:0,0:0:0:0:
244,84,34209,6,0,P|207:61|144:59,1,97.9999970092774,2|0,0:0|0:0,0:0:0:0:
85,92,34701,1,0,0:0:0:0:
85,92,34864,1,2,0:0:0:0:
68,168,35028,2,0,L|55:272,1,97.9999970092774,0|0,0:0|0:0,0:0:0:0:
86,338,35520,2,0,P|118:329|143:328,1,48.9999985046387,2|0,0:0|3:0,0:0:0:0:
212,334,35848,6,0,P|240:353|314:350,1,97.9999970092774,0|2,3:0|0:0,0:0:0:0:
374,322,36340,2,0,P|385:295|386:257,1,48.9999985046387,0|0,0:0|0:0,0:0:0:0:
367,198,36668,2,0,P|356:171|355:133,1,48.9999985046387,0|2,0:0|0:0,0:0:0:0:
415,102,36996,1,0,0:0:0:0:
415,102,37160,6,0,P|437:116|459:125,2,48.9999985046387,0|0|2,0:0|0:0|0:0,0:0:0:0:
363,35,37651,2,0,P|308:36|254:59,1,97.9999970092774,0|0,0:0|0:0,0:0:0:0:
56,44,38471,6,0,L|47:155,1,97.9999970092774,0|2,3:0|0:0,0:0:0:0:
96,203,38963,2,0,L|102:251,1,48.9999985046387,0|0,0:0|0:0,0:0:0:0:
62,319,39291,1,0,0:0:0:0:
62,319,39455,1,2,0:0:0:0:
117,374,39619,6,0,P|165:366|226:362,1,97.9999970092774,0|0,0:0|0:0,0:0:0:0:
269,306,40110,2,0,P|303:312|337:315,1,48.9999985046387,2|0,0:0|0:0,0:0:0:0:
383,357,40438,2,0,P|417:351|451:348,1,48.9999985046387,0|0,0:0|0:0,0:0:0:0:
483,290,40766,1,2,0:0:0:0:
483,290,40930,1,0,3:0:0:0:
433,229,41094,6,0,P|431:171|450:127,1,97.9999970092774,0|2,3:0|0:0,0:0:0:0:
323,34,41750,2,0,P|268:62|212:64,1,97.9999970092774,0|2,0:0|0:0,0:0:0:0:
71,186,42405,5,4,3:2:0:0:
131,266,42569,2,0,L|121:337,1,62.9999980773926,8|0,0:0|3:0,0:0:0:0:
211,375,42897,1,0,3:0:0:0:
282,304,43061,2,0,P|321:279|419:277,1,125.999996154785,8|0,3:3|3:0,0:0:0:0:
494,305,43553,1,8,0:0:0:0:
472,194,43717,6,0,L|462:122,1,70,4|0,3:2|0:0,0:0:0:0:
383,93,44045,1,10,0:0:0:0:
383,93,44209,2,0,L|373:162,1,70,0|0,0:0|3:0,0:0:0:0:
288,196,44537,1,0,3:0:0:0:
288,196,44701,1,10,0:0:0:0:
208,137,44864,6,0,L|60:185,1,140,0|0,3:0|3:0,0:0:0:0:
45,261,45356,1,10,0:0:0:0:
45,261,45520,2,0,P|81:319|84:332,1,70,0|0,0:0|3:0,0:0:0:0:
154,368,45848,1,0,3:0:0:0:
198,296,46012,2,0,L|277:282,1,70,10|0,0:0|0:0,0:0:0:0:
335,333,46340,6,0,L|414:347,1,70,4|0,3:2|0:0,0:0:0:0:
480,310,46668,2,0,P|466:276|465:235,1,70,10|0,0:0|0:0,0:0:0:0:
470,158,46996,1,0,3:0:0:0:
470,158,47160,1,0,3:0:0:0:
399,119,47323,1,10,0:0:0:0:
327,162,47487,6,0,L|230:153,1,70,0|0,3:0|0:0,0:0:0:0:
193,99,47815,2,0,L|96:108,1,70,0|10,3:0|0:0,0:0:0:0:
49,146,48143,2,0,B|79:186|79:186|58:294,1,140,0|0,3:0|3:0,0:0:0:0:
107,345,48635,2,0,P|151:329|184:332,1,70,10|0,0:0|0:0,0:0:0:0:
247,289,48963,6,0,P|291:305|324:302,1,70,4|0,3:2|0:0,0:0:0:0:
396,319,49291,1,10,0:0:0:0:
396,319,49455,2,0,L|411:169,1,140,0|0,0:0|3:0,0:0:0:0:
427,97,49946,1,10,0:0:0:0:
347,124,50110,6,0,P|303:135|265:133,1,70,0|0,3:0|0:0,0:0:0:0:
214,79,50438,1,0,3:0:0:0:
214,79,50602,1,10,0:0:0:0:
196,161,50766,2,0,L|181:325,1,140,0|0,0:0|3:0,0:0:0:0:
106,335,51258,2,0,L|87:231,1,105,10|0,0:0|0:0,0:0:0:0:
54,203,51586,6,0,L|73:107,1,70,4|0,3:2|0:0,0:0:0:0:
112,63,51914,2,0,P|137:51|195:63,1,70,10|0,0:0|0:0,0:0:0:0:
250,97,52241,2,0,P|275:109|333:97,1,70,0|0,3:0|3:0,0:0:0:0:
399,89,52569,2,0,L|420:169,1,70,10|0,0:0|0:0,0:0:0:0:
462,228,52897,6,0,P|418:261|387:352,1,140,0|10,3:0|0:0,0:0:0:0:
309,372,53389,1,0,3:0:0:0:
309,372,53553,2,0,P|263:360|214:365,1,70,0|8,0:0|0:0,0:0:0:0:
156,349,53881,2,0,L|109:362,2,35,8|0|8,3:0|0:0|0:0,0:0:0:0:
208,282,54209,6,0,L|219:197,1,70,4|0,3:2|0:0,0:0:0:0:
150,163,54537,1,10,0:0:0:0:
150,163,54701,2,0,L|139:74,1,70,0|0,0:0|3:0,0:0:0:0:
197,30,55028,1,0,3:0:0:0:
197,30,55192,1,10,0:0:0:0:
254,91,55356,6,0,P|296:114|401:95,1,140,0|0,3:0|3:0,0:0:0:0:
456,150,55848,2,0,P|442:201|444:228,1,70,10|0,0:0|0:0,0:0:0:0:
438,302,56176,2,0,L|360:314,1,70,0|0,3:0|3:0,0:0:0:0:
290,343,56504,2,0,L|212:331,1,70,10|0,0:0|0:0,0:0:0:0:
142,363,56832,6,0,P|119:301|77:230,1,140,4|10,3:2|0:0,0:0:0:0:
39,165,57323,1,0,0:0:0:0:
39,165,57487,2,0,P|70:146|117:142,1,70,0|0,3:0|3:0,0:0:0:0:
149,68,57815,1,10,0:0:0:0:
241,49,57979,6,0,P|260:79|233:181,1,140,0|0,3:0|3:0,0:0:0:0:
205,248,58471,1,10,0:0:0:0:
205,248,58635,2,0,L|215:340,1,70,0|0,0:0|3:0,0:0:0:0:
315,354,58963,1,0,3:0:0:0:
315,354,59127,2,0,L|322:284,1,70,10|0,0:0|0:0,0:0:0:0:
403,236,59455,6,0,P|385:148|393:83,1,140,4|2,3:2|0:0,0:0:0:0:
226,58,60110,2,0,P|164:106|89:102,1,140,2|2,0:0|0:0,0:0:0:0:
50,266,60766,6,0,L|131:258,1,70,2|2,3:0|3:0,0:0:0:0:
181,316,61094,2,0,L|262:324,1,70,2|2,3:0|3:0,0:0:0:0:
321,277,61422,2,0,L|402:269,1,70,10|8,0:0|0:0,0:0:0:0:
469,299,61750,2,0,P|472:263|461:219,1,70,10|8,0:0|0:0,0:0:0:0:
391,188,62078,5,10,0:0:0:0:
391,188,62241,1,8,0:0:0:0:
331,128,62405,2,0,L|337:91,2,35,10|8|8,0:0|0:0|0:0,0:0:0:0:
271,188,62733,1,10,0:0:0:0:
211,128,62897,2,0,L|205:91,2,35,10|0|2,0:0|0:0|0:0,0:0:0:0:
152,228,63225,1,14,3:2:0:0:
46,64,64209,6,0,L|35:19,2,35,0|0|10,3:0|3:0|0:0,0:0:0:0:
6,129,64536,1,0,0:0:0:0:
95,169,64701,6,0,L|179:159,1,83.9999974365235,6|0,3:2|0:0,0:0:0:0:
238,79,65028,2,0,L|322:89,1,83.9999974365235,10|0,3:2|0:0,0:0:0:0:
393,148,65356,1,2,3:2:0:0:
393,148,65520,2,0,P|376:207|375:250,1,83.9999974365235,0|10,3:0|0:0,0:0:0:0:
358,320,65848,6,0,P|312:304|261:309,1,83.9999974365235,4|0,2:0|0:0,0:0:0:0:
196,351,66176,1,0,3:0:0:0:
196,351,66340,1,10,0:0:0:0:
112,312,66504,2,0,P|105:222|85:133,1,167.999994873047,0|0,0:0|3:0,0:0:0:0:
70,54,66996,2,0,P|123:40|163:46,1,83.9999974365235,10|0,0:0|0:0,0:0:0:0:
216,99,67323,6,0,P|269:113|391:71,1,167.999994873047,6|10,3:2|0:0,0:0:0:0:
465,55,67815,1,0,0:0:0:0:
442,148,67979,2,0,L|431:259,1,83.9999974365235,2|0,3:2|3:0,0:0:0:0:
423,323,68307,1,10,0:0:0:0:
423,323,68471,1,0,0:0:0:0:
349,267,68635,6,0,B|295:245|295:245|182:283,1,167.999994873047,2|10,3:2|0:0,0:0:0:0:
110,326,69127,1,0,3:0:0:0:
40,264,69291,2,0,P|15:206|21:90,1,167.999994873047,0|10,0:0|0:0,0:0:0:0:
81,37,69782,1,0,0:0:0:0:
125,118,69946,6,0,B|173:91|173:91|299:125,1,167.999994873047,6|10,3:2|0:0,0:0:0:0:
357,65,70438,1,0,0:0:0:0:
357,65,70602,2,0,P|406:89|430:131,1,83.9999974365235,2|0,3:2|3:0,0:0:0:0:
383,196,70930,2,0,P|400:247|387:294,1,83.9999974365235,10|0,0:0|0:0,0:0:0:0:
363,363,71258,6,0,L|264:352,1,83.9999974365235,2|0,3:2|3:0,0:0:0:0:
187,341,71586,1,10,0:0:0:0:
108,292,71750,2,0,P|75:238|75:127,1,167.999994873047,0|0,3:0|3:0,0:0:0:0:
120,56,72241,2,0,B|163:70|163:70|210:64,1,83.9999974365235,10|0,0:0|0:0,0:0:0:0:
271,126,72569,6,0,B|314:112|314:112|361:118,1,83.9999974365235,6|0,3:2|0:0,0:0:0:0:
430,65,72897,1,10,0:0:0:0:
482,141,73061,2,0,P|460:192|466:311,1,167.999994873047,0|0,0:0|3:0,0:0:0:0:
398,369,73553,1,10,0:0:0:0:
398,369,73717,1,0,0:0:0:0:
325,311,73881,6,0,L|313:200,1,83.9999974365235,6|8,3:2|0:0,0:0:0:0:
274,205,74127,1,0,0:0:0:0:
274,205,74209,2,0,L|286:94,1,83.9999974365235,10|0,0:0|0:0,0:0:0:0:
218,54,74537,1,8,0:0:0:0:
137,99,74701,2,0,P|86:142|77:251,1,167.999994873047,4|8,3:2|0:0,0:0:0:0:
83,282,75110,1,8,0:0:0:0:
83,282,75192,6,0,P|126:269|181:279,1,83.9999974365235,2|0,3:2|0:0,0:0:0:0:
236,331,75520,2,0,P|279:344|334:334,1,83.9999974365235,10|0,0:0|0:0,0:0:0:0:
399,297,75848,1,2,3:2:0:0:
399,297,76012,2,0,L|414:204,1,83.9999974365235,0|10,3:0|0:0,0:0:0:0:
454,130,76340,6,0,P|370:118|283:86,1,167.999994873047,0|0,3:0|0:0,0:0:0:0:
214,40,76832,2,0,P|163:45|29:68,1,167.999994873047,10|2,0:0|3:2,0:0:0:0:
32,157,77323,1,0,3:0:0:0:
105,212,77487,2,0,P|85:277|85:329,1,83.9999974365235,10|0,0:0|0:0,0:0:0:0:
149,358,77815,6,0,B|205:320|205:320|310:344,1,167.999994873047,6|10,3:2|0:0,0:0:0:0:
395,347,78307,1,0,0:0:0:0:
395,347,78471,2,0,P|417:299|424:242,1,83.9999974365235,2|0,3:2|3:0,0:0:0:0:
390,181,78799,1,10,0:0:0:0:
390,181,78963,6,0,P|368:133|361:76,1,83.9999974365235,0|0,3:0|0:0,0:0:0:0:
373,10,79291,1,0,0:0:0:0:
288,47,79455,2,0,B|213:15|194:97|119:52,1,167.999994873047,10|2,0:0|3:2,0:0:0:0:
38,29,79946,1,0,3:0:0:0:
61,118,80110,2,0,P|72:167|64:225,1,83.9999974365235,10|0,0:0|3:0,0:0:0:0:
55,292,80438,5,6,3:2:0:0:
55,292,80602,1,0,0:0:0:0:
105,369,80766,2,0,P|157:378|206:369,1,83.9999974365235,2|0,3:2|0:0,0:0:0:0:
272,335,81094,2,0,P|275:293|266:252,1,83.9999974365235,10|0,0:0|3:0,0:0:0:0:
211,177,81422,2,0,P|207:135|216:94,1,83.9999974365235,10|0,0:0|3:0,0:0:0:0:
289,36,81750,5,6,3:2:0:0:
289,36,81914,1,0,0:0:0:0:
352,102,82078,2,0,L|452:113,1,83.9999974365235,2|0,3:2|0:0,0:0:0:0:
479,192,82405,2,0,P|405:223|398:333,1,167.999994873047,10|10,0:0|0:0,0:0:0:0:
207,355,83061,5,6,3:2:0:0:
161,274,83225,1,0,0:0:0:0:
99,343,83389,1,8,0:0:0:0:
71,254,83553,2,0,P|54:195|85:77,1,167.999994873047,10|8,0:0|0:0,0:0:0:0:
142,28,84045,1,8,0:0:0:0:
188,108,84209,1,8,0:3:0:0:
188,108,84291,1,8,0:3:0:0:
188,108,84373,6,0,P|232:118|301:105,1,83.9999974365235,10|10,0:0|0:0,0:0:0:0:
353,73,84701,1,4,3:3:0:0:
414,141,84864,2,0,L|408:248,1,83.9999974365235,10|8,0:0|0:0,0:0:0:0:
379,312,85192,2,0,P|333:279|194:310,1,167.999994873047,6|0,3:2|0:0,0:0:0:0:
139,314,85684,6,0,L|148:394,2,70,6|0|10,3:2|0:0|0:0,0:0:0:0:
67,257,86176,2,0,L|81:117,1,140,0|0,3:0|0:0,0:0:0:0:
149,56,86668,2,0,P|188:73|222:75,1,70,10|0,0:0|0:0,0:0:0:0:
305,60,86996,6,0,P|344:43|378:41,2,70,2|0|10,3:2|0:0|0:0,0:0:0:0:
359,133,87488,2,0,L|344:273,1,140,0|0,3:0|3:0,0:0:0:0:
260,308,87979,2,0,L|248:238,1,70,10|0,0:0|0:0,0:0:0:0:
189,169,88306,6,0,L|199:99,2,70,6|0|10,3:2|0:0|0:0,0:0:0:0:
105,205,88798,2,0,L|122:349,1,140,0|0,3:0|0:0,0:0:0:0:
205,379,89290,1,10,0:0:0:0:
205,379,89454,6,0,P|248:357|357:375,1,140,0|0,0:0|3:0,0:0:0:0:
426,343,89946,1,10,0:0:0:0:
374,267,90110,2,0,P|363:218|366:177,1,70,0|2,3:0|0:0,0:0:0:0:
430,130,90438,1,0,3:0:0:0:
430,130,90602,2,0,P|440:87|438:40,1,70,10|0,0:0|0:0,0:0:0:0:
363,12,90929,5,6,3:2:0:0:
303,80,91093,2,0,L|233:87,1,70,0|10,0:0|0:0,0:0:0:0:
150,49,91421,1,0,3:0:0:0:
150,49,91585,1,2,0:0:0:0:
70,94,91749,2,0,P|60:126|60:183,1,70,0|10,3:0|0:0,0:0:0:0:
122,226,92078,1,0,0:0:0:0:
86,309,92241,2,0,L|180:315,1,70,2|0,3:2|3:0,0:0:0:0:
242,343,92569,1,10,0:0:0:0:
242,343,92733,2,0,L|318:342,1,70,0|2,3:0|0:0,0:0:0:0:
399,368,93061,2,0,B|375:331|375:331|398:205,1,140,0|0,3:0|0:0,0:0:0:0:
420,149,93553,5,6,3:2:0:0:
420,149,93717,2,0,P|435:100|425:52,1,70,0|10,0:0|0:0,0:0:0:0:
352,39,94045,2,0,B|307:70|307:70|210:60,1,140,10|10,0:0|0:0,0:0:0:0:
131,47,94537,1,10,0:0:0:0:
69,114,94701,1,4,0:3:0:0:
69,114,94782,1,0,0:0:0:0:
69,114,94864,2,0,P|67:176|70:214,1,70,8|10,0:0|0:0,0:0:0:0:
77,274,95192,1,8,0:3:0:0:
77,274,95356,1,14,0:0:0:0:
