osu file format v14

[General]
AudioFilename: audio.mp3
AudioLeadIn: 0
PreviewTime: 64126
Countdown: 0
SampleSet: Soft
StackLeniency: 0.8
Mode: 0
LetterboxInBreaks: 0
WidescreenStoryboard: 0

[Editor]
DistanceSpacing: 1.6
BeatDivisor: 4
GridSize: 32
TimelineZoom: 1

[Metadata]
Title:Tsuki no Kanata de Aimashou
TitleUnicode:月の彼方で逢いましょう
Artist:Duca
ArtistUnicode:Duca
Creator:Mimari
Version:Other Side of the Moon
Source:月の彼方で逢いましょう
Tags:eroge see you at other side of the moon tone work's opening op galgame visual novel vn japanese female vocals short version asuka asuka_- cami dkblaze yukizara YukiZura- Lecana video game
BeatmapID:2064304
BeatmapSetID:986799

[Difficulty]
HPDrainRate:5.5
CircleSize:4.2
OverallDifficulty:8.6
ApproachRate:9.1
SliderMultiplier:1.4
SliderTickRate:1

[Events]
//Background and Video events
0,0,"gallery_cg_3_waifu2x_art_noise3_scale_tta_1.jpg",0,0
//Break Periods
//Storyboard Layer 0 (Background)
//Storyboard Layer 1 (Fail)
//Storyboard Layer 2 (Pass)
//Storyboard Layer 3 (Foreground)
//Storyboard Layer 4 (Overlay)
//Storyboard Sound Samples

[TimingPoints]
438,327.868852459016,4,2,1,60,1,0
12241,-83.3333333333333,4,2,1,60,0,0
20109,-76.9230769230769,4,2,1,60,0,0
20601,-71.4285714285714,4,2,1,60,0,0
21421,-166.666666666667,4,2,1,60,0,0
22732,-166.666666666667,4,2,1,40,0,0
23388,-117.647058823529,4,2,1,40,0,0
26339,-153.846153846153,4,2,1,40,0,0
27159,-117.647058823529,4,2,1,40,0,0
30601,-105.263157894737,4,2,1,40,0,0
32240,-133.333333333333,4,2,1,40,0,0
33224,-125,4,2,1,40,0,0
34208,-153.846153846154,4,2,1,40,0,0
35847,-125,4,2,1,40,0,0
39618,-117.647058823529,4,2,1,40,0,0
40109,-105.263157894737,4,2,1,40,0,0
41093,-133.333333333333,4,2,1,40,0,0
41667,-133.333333333333,4,2,1,5,0,0
41749,-105.263157894737,4,2,1,40,0,0
42322,-105.263157894737,4,2,1,5,0,0
42404,-105.263157894737,4,2,1,40,0,0
43060,-83.3333333333333,4,2,1,40,0,0
43716,-76.9230769230769,4,2,1,40,0,0
48962,-71.4285714285714,4,2,1,40,0,0
50109,-66.6666666666667,4,2,1,40,0,0
51257,-62.5,4,2,1,40,0,0
53552,-76.9230769230769,4,2,1,40,0,0
59454,-133.333333333333,4,2,1,40,0,0
60027,-133.333333333333,4,2,1,5,0,0
60109,-105.263157894737,4,2,1,40,0,0
60683,-105.263157894737,4,2,1,5,0,0
60765,-105.263157894737,4,2,1,40,0,0
63224,-95.2380952380952,4,2,1,40,0,0
64208,-80,4,2,1,40,0,0
64700,-62.5,4,2,1,70,0,1
68634,-55.5555555555556,4,2,1,70,0,1
69290,-58.8235294117647,4,2,1,70,0,1
69945,-62.5,4,2,1,70,0,1
71257,-52.6315789473684,4,2,1,70,0,1
71749,-50,4,2,1,70,0,1
72568,-62.5,4,2,1,70,0,1
77814,-55.5555555555556,4,2,1,70,0,1
78470,-62.5,4,2,1,70,0,1
80437,-55.5555555555556,4,2,1,70,0,1
84208,-62.5,4,2,1,70,0,1
85683,-80,4,2,1,60,0,0
94044,-68.9655172413793,4,2,1,60,0,0
95355,-86.9565217391304,4,2,1,60,0,0

[Colours]
Combo1 : 188,153,208
Combo2 : 224,211,137
Combo3 : 129,140,243
Combo4 : 128,234,213

[HitObjects]
509,268,12241,5,4,3:2:0:0:
391,326,12405,1,0,0:0:0:0:
289,248,12569,1,10,0:0:0:0:
397,333,12733,2,0,P|392:267|457:181,1,167.999994873047,0|0,3:0|0:0,0:0:0:0:
312,100,13225,2,0,P|335:141|332:192,1,83.9999974365235,10|0,0:0|0:0,0:0:0:0:
181,248,13553,5,0,3:0:0:0:
227,140,13717,1,0,0:0:0:0:
152,43,13881,1,10,0:0:0:0:
230,150,14045,2,0,P|282:155|382:73,1,167.999994873047,0|0,3:0|3:0,0:0:0:0:
143,49,14537,2,0,P|142:108|160:132,1,83.9999974365235,10|0,0:0|0:0,0:0:0:0:
391,115,14864,5,4,3:2:0:0:
301,216,15028,1,0,0:0:0:0:
335,329,15192,1,10,0:0:0:0:
298,204,15356,2,0,P|376:245|477:219,1,167.999994873047,0|0,3:0|0:0,0:0:0:0:
303,89,15848,1,10,0:0:0:0:
167,138,16012,6,0,P|176:186|200:211,1,83.9999974365235,0|0,0:0|3:0,0:0:0:0:
356,151,16340,1,0,0:0:0:0:
159,132,16504,1,10,0:0:0:0:
368,155,16668,2,0,P|363:213|270:299,1,167.999994873047,0|0,3:0|3:0,0:0:0:0:
454,249,17160,1,10,0:0:0:0:
256,187,17323,1,0,0:0:0:0:
343,298,17487,5,4,3:2:0:0:
343,298,17651,1,2,2:0:0:0:
209,330,17815,1,10,0:0:0:0:
259,195,17979,1,0,3:0:0:0:
288,349,18143,5,2,0:0:0:0:
288,349,18307,1,2,2:0:0:0:
196,248,18471,1,10,0:0:0:0:
337,216,18635,1,0,0:0:0:0:
154,127,18799,6,0,P|131:163|141:222,1,83.9999974365235,0|0,3:0|0:0,0:0:0:0:
273,270,19127,1,10,0:0:0:0:
302,114,19291,2,0,P|260:123|225:171,1,83.9999974365235,0|2,3:0|0:0,0:0:0:0:
209,330,19619,1,0,0:0:0:0:
401,263,19782,2,0,P|404:206|365:135,1,125.999996154785,10|0,0:0|0:0,0:0:0:0:
377,146,20110,6,0,P|410:122|477:137,1,90.9999958343508,4|0,3:2|0:0,0:0:0:0:
499,218,20438,1,8,0:0:0:0:
287,286,20602,2,0,P|289:236|322:200,1,97.9999970092774,8|0,0:0|0:0,0:0:0:0:
456,341,20930,1,8,0:0:0:0:
203,252,21094,2,0,P|253:254|288:287,1,97.9999970092774,8|0,0:0|3:0,0:0:0:0:
329,348,21340,1,0,0:0:0:0:
329,348,21422,6,0,B|258:401|191:347|191:347|127:296|51:347,1,293.999991027832,12|0,0:0|0:0,0:0:0:0:
58,342,22733,5,0,3:0:0:0:
38,238,23225,1,0,0:0:0:0:
153,249,23389,2,0,B|79:263|104:225|30:239,1,119.000002269745,0|2,0:0|0:0,0:0:0:0:
122,148,23881,1,0,0:0:0:0:
122,148,24045,2,0,P|156:150|190:175,1,59.5000011348725,0|0,0:0|0:0,0:0:0:0:
0,138,24373,2,0,P|25:115|67:109,1,59.5000011348725,2|0,0:0|0:0,0:0:0:0:
185,50,24701,2,0,P|199:94|171:168,1,119.000002269745,0|2,0:0|0:0,0:0:0:0:
105,33,25192,1,0,3:0:0:0:
252,7,25356,6,0,P|270:46|269:70,1,59.5000011348725,0|0,3:0|0:0,0:0:0:0:
313,126,25684,2,0,P|298:166|280:182,1,59.5000011348725,2|0,0:0|0:0,0:0:0:0:
256,254,26012,2,0,P|217:272|193:271,1,59.5000011348725,0|0,0:0|0:0,0:0:0:0:
341,241,26340,2,0,P|370:267|384:299,1,68.2499968757631,2|0,0:0|0:0,0:0:0:0:
382,293,26668,1,0,0:0:0:0:
277,331,26832,1,0,0:0:0:0:
395,302,26996,1,2,0:0:0:0:
271,343,27160,6,0,P|235:335|133:332,1,119.000002269745,0|0,0:0|0:0,0:0:0:0:
80,286,27651,1,2,0:0:0:0:
80,286,27815,1,0,0:0:0:0:
146,219,27979,2,0,P|166:259|150:333,1,119.000002269745,0|0,3:0|0:0,0:0:0:0:
69,196,28471,1,0,0:0:0:0:
124,140,28635,2,0,P|171:105|229:106,1,119.000002269745,0|0,0:0|0:0,0:0:0:0:
315,199,29127,1,0,0:0:0:0:
300,271,29291,6,0,P|323:275|363:257,1,59.5000011348725,0|0,0:0|0:0,0:0:0:0:
179,256,29619,2,0,P|192:275|233:290,1,59.5000011348725,2|0,0:0|0:0,0:0:0:0:
328,120,29946,2,0,P|305:116|265:134,1,59.5000011348725,0|0,0:0|0:0,0:0:0:0:
429,180,30274,1,2,0:0:0:0:
429,180,30438,1,0,3:0:0:0:
481,56,30602,6,0,P|410:64|345:27,1,132.999996448517,0|2,3:0|0:0,0:0:0:0:
219,20,31094,2,0,P|255:5|297:12,1,66.4999982242585,0|0,0:0|0:0,0:0:0:0:
262,82,31422,1,0,0:0:0:0:
208,136,31586,2,0,P|186:75|219:19,1,132.999996448517,2|0,0:0|0:0,0:0:0:0:
374,80,32241,5,2,0:0:0:0:
378,248,32569,1,0,0:0:0:0:
488,121,32897,1,2,0:0:0:0:
488,300,33225,6,0,P|438:329|375:320,1,112,0|2,3:0|0:0,0:0:0:0:
283,367,33717,2,0,P|231:340|203:282,1,112,0|0,0:0|0:0,0:0:0:0:
146,244,34209,2,0,P|151:204|196:155,1,90.9999958343508,2|0,0:0|0:0,0:0:0:0:
253,156,34701,1,0,0:0:0:0:
307,203,34864,1,0,0:0:0:0:
138,246,35028,5,0,0:0:0:0:
138,246,35356,2,0,P|144:215|163:191,1,45.4999979171754,0|2,0:0|0:0,0:0:0:0:
174,189,35684,1,0,3:0:0:0:
212,105,35848,6,0,P|247:93|282:96,1,56,0|0,3:0|0:0,0:0:0:0:
398,127,36176,1,2,0:0:0:0:
343,70,36340,2,0,P|376:86|398:113,1,56,0|0,0:0|0:0,0:0:0:0:
464,164,36668,2,0,P|475:190|477:218,1,56,0|0,0:0|0:0,0:0:0:0:
418,305,36996,1,0,0:0:0:0:
469,226,37160,5,0,0:0:0:0:
469,226,37323,1,0,0:0:0:0:
375,199,37487,1,2,0:0:0:0:
257,247,37651,1,0,0:0:0:0:
235,244,37979,5,0,0:0:0:0:
261,353,38471,6,0,P|206:360|161:329,1,112,0|2,3:0|0:0,0:0:0:0:
142,233,38963,1,0,0:0:0:0:
51,275,39127,1,0,0:0:0:0:
51,275,39291,1,0,0:0:0:0:
149,220,39455,1,2,0:0:0:0:
35,272,39619,6,0,P|27:220|4:140,1,119.000002269745,0|0,0:0|0:0,0:0:0:0:
111,75,40110,2,0,P|100:112|95:150,1,66.4999982242585,2|0,0:0|0:0,0:0:0:0:
243,26,40438,2,0,P|209:44|178:67,1,66.4999982242585,0|0,0:0|0:0,0:0:0:0:
359,91,40766,1,2,0:0:0:0:
359,91,40930,1,0,3:0:0:0:
353,11,41094,6,0,P|298:38|312:162,1,183.750007009506,0|0,3:0|0:0,0:0:0:0:
323,170,41750,2,0,P|223:197|120:112,1,232.749993784905,0|0,0:0|0:0,0:0:0:0:
118,43,42405,5,4,3:2:0:0:
92,280,42569,1,8,0:0:0:0:
0,108,42733,1,0,3:0:0:0:
0,108,42897,1,0,3:0:0:0:
230,190,43061,6,0,P|209:177|177:184,3,41.9999987182618,8|0|0|0,3:3|0:0|0:0|0:0,0:0:0:0:
236,203,43389,1,0,3:0:0:0:
79,108,43553,1,8,0:0:0:0:
73,299,43717,6,0,P|106:261|108:199,1,90.9999958343508,4|0,3:2|0:0,0:0:0:0:
69,101,44045,1,10,0:0:0:0:
221,175,44209,2,0,P|217:124|175:79,1,90.9999958343508,0|0,0:0|3:0,0:0:0:0:
0,46,44537,1,0,3:0:0:0:
127,184,44701,1,10,0:0:0:0:
224,15,44864,6,0,P|156:9|115:122,1,181.999991668702,0|0,3:0|3:0,0:0:0:0:
222,191,45356,1,10,0:0:0:0:
346,106,45520,2,0,P|283:78|240:89,1,90.9999958343508,0|0,0:0|3:0,0:0:0:0:
382,258,45848,1,0,3:0:0:0:
347,94,46012,1,10,0:0:0:0:
347,94,46176,1,0,0:0:0:0:
391,269,46340,6,0,P|354:294|309:294,1,90.9999958343508,4|0,3:2|0:0,0:0:0:0:
195,337,46668,2,0,P|153:321|128:283,1,90.9999958343508,10|0,0:0|0:0,0:0:0:0:
328,190,46996,1,0,3:0:0:0:
352,384,47160,1,0,3:0:0:0:
243,208,47323,1,10,0:0:0:0:
428,329,47487,6,0,P|382:304|257:371,1,181.999991668702,0|0,3:0|3:0,0:0:0:0:
139,384,47979,1,10,0:0:0:0:
73,236,48143,2,0,P|51:279|53:332,1,90.9999958343508,0|0,3:0|0:0,0:0:0:0:
148,104,48471,2,0,P|102:118|65:157,1,90.9999958343508,0|10,3:0|0:0,0:0:0:0:
179,210,48799,1,0,0:0:0:0:
118,32,48963,6,0,P|167:26|214:53,1,97.9999970092774,4|0,3:2|0:0,0:0:0:0:
169,214,49291,1,10,0:0:0:0:
0,161,49455,2,0,P|22:117|71:93,1,97.9999970092774,0|0,0:0|0:0,0:0:0:0:
229,144,49782,1,0,3:0:0:0:
73,236,49946,1,10,0:0:0:0:
240,302,50110,6,0,B|332:303|292:253|393:262,1,157.500006008148,0|0,3:0|0:0,0:0:0:0:
387,261,50438,1,0,3:0:0:0:
193,216,50602,1,10,0:0:0:0:
361,135,50766,2,0,P|426:140|500:275,1,210.000008010865,0|0,0:0|3:0,0:0:0:0:
284,167,51258,2,0,P|281:99|320:60,1,112,10|0,0:0|0:0,0:0:0:0:
303,324,51586,6,0,P|252:278|252:222,1,112,4|0,3:2|0:0,0:0:0:0:
361,135,51914,1,10,0:0:0:0:
361,135,52078,1,0,0:0:0:0:
481,277,52241,2,0,P|418:304|368:281,1,112,0|0,3:0|3:0,0:0:0:0:
243,231,52569,1,10,0:0:0:0:
243,231,52733,1,0,0:0:0:0:
402,59,52897,6,0,P|441:126|349:225,1,224,0|10,3:0|0:0,0:0:0:0:
211,87,53389,1,0,3:0:0:0:
353,133,53553,1,0,0:0:0:0:
353,133,53717,1,8,0:0:0:0:
182,170,53880,1,8,3:0:0:0:
160,163,53962,1,8,0:0:0:0:
142,150,54044,1,8,0:0:0:0:
313,85,54209,5,4,3:2:0:0:
261,242,54373,1,0,0:0:0:0:
135,136,54537,1,10,0:0:0:0:
261,253,54701,2,0,P|248:324|211:354,1,90.9999958343508,0|0,0:0|0:0,0:0:0:0:
78,214,55028,1,0,3:0:0:0:
241,156,55192,1,10,0:0:0:0:
142,315,55356,6,0,P|80:318|15:258,1,136.499993751526,0|0,3:0|0:0,0:0:0:0:
19,270,55684,1,0,3:0:0:0:
261,253,55848,2,0,P|248:324|211:354,1,90.9999958343508,10|0,0:0|0:0,0:0:0:0:
134,136,56176,1,0,3:0:0:0:
134,136,56340,1,0,3:0:0:0:
340,221,56504,1,10,0:0:0:0:
133,298,56668,1,0,0:0:0:0:
235,98,56832,2,0,P|276:157|271:204,1,90.9999958343508,4|0,3:2|0:0,0:0:0:0:
36,162,57160,6,0,P|37:105|103:36,1,136.499993751526,10|0,0:0|0:0,0:0:0:0:
84,44,57487,1,0,3:0:0:0:
315,72,57651,1,0,3:0:0:0:
170,232,57815,1,10,0:0:0:0:
243,28,57979,6,0,P|299:-3|401:64,1,181.999991668702,0|0,3:0|3:0,0:0:0:0:
340,221,58471,1,10,0:0:0:0:
179,144,58635,2,0,P|163:98|181:42,1,90.9999958343508,0|0,0:0|3:0,0:0:0:0:
236,287,58963,2,0,P|192:265|165:213,1,90.9999958343508,0|10,3:0|0:0,0:0:0:0:
364,149,59291,1,0,0:0:0:0:
433,354,59455,6,0,P|343:379|246:352,1,183.750007009506,4|0,3:2|0:0,0:0:0:0:
257,358,60110,2,0,P|167:333|22:374,1,232.749993784905,2|0,0:0|0:0,0:0:0:0:
34,365,60766,5,2,3:0:0:0:
37,355,60930,1,2,3:0:0:0:
109,148,61094,5,2,3:0:0:0:
113,170,61258,1,2,3:0:0:0:
212,370,61422,5,10,0:0:0:0:
223,338,61586,1,8,0:0:0:0:
305,122,61750,5,10,0:0:0:0:
318,164,61914,1,8,0:0:0:0:
444,377,62078,5,10,0:0:0:0:
193,238,62241,1,8,0:0:0:0:
473,148,62405,1,10,0:0:0:0:
310,363,62569,5,8,0:0:0:0:
214,97,62733,1,10,0:0:0:0:
512,222,62897,1,10,0:0:0:0:
207,350,63061,5,2,0:0:0:0:
92,78,63225,2,0,B|185:40|238:128|238:128|300:228|423:164,1,367.49998878479,14|0,3:2|0:0,0:0:0:0:
143,146,64209,6,0,P|129:177|119:221,1,43.75,0|0,3:0|3:0,0:0:0:0:
138,211,64373,1,10,0:0:0:0:
146,215,64537,1,0,0:0:0:0:
333,110,64701,6,0,P|274:82|199:119,1,112,6|0,3:2|0:0,0:0:0:0:
418,233,65028,1,10,3:2:0:0:
225,275,65192,1,0,0:0:0:0:
433,231,65356,2,0,P|464:186|456:132,1,112,2|0,3:2|3:0,0:0:0:0:
268,58,65684,1,10,0:0:0:0:
222,291,65848,6,0,B|286:252|332:294|332:294|382:335|474:280,1,224,4|0,2:0|3:0,0:0:0:0:
115,187,66340,1,10,0:0:0:0:
58,345,66504,2,0,P|114:371|190:321,1,112,0|2,0:0|3:2,0:0:0:0:
193,126,66832,1,0,3:0:0:0:
158,349,66996,1,10,0:0:0:0:
18,179,67160,1,0,0:0:0:0:
232,309,67323,6,0,B|304:310|331:269|331:269|384:297|444:252,1,224,6|10,3:2|0:0,0:0:0:0:
509,135,67815,1,0,0:0:0:0:
317,77,67979,2,0,P|285:122|302:186,1,112,2|0,3:2|3:0,0:0:0:0:
495,332,68307,1,10,0:0:0:0:
377,140,68471,1,0,0:0:0:0:
232,309,68635,6,0,B|138:305|75:347|75:347|124:309|105:221,1,251.999992309571,2|10,3:2|0:0,0:0:0:0:
60,77,69127,1,0,3:0:0:0:
278,172,69291,2,0,P|314:92|188:68,1,238.00000453949,0|10,0:0|0:0,0:0:0:0:
403,50,69782,1,0,0:0:0:0:
278,171,69946,6,0,P|310:216|363:226,1,112,6|0,3:2|0:0,0:0:0:0:
507,36,70274,1,10,0:0:0:0:
498,261,70438,1,0,0:0:0:0:
344,63,70602,2,0,P|327:122|389:185,1,112,2|0,3:2|3:0,0:0:0:0:
499,271,70930,2,0,P|509:216|446:157,1,112,10|0,0:0|0:0,0:0:0:0:
240,322,71258,6,0,B|289:343|330:305|330:305|376:264|424:295,1,199.499994672775,2|0,3:2|0:0,0:0:0:0:
294,228,71586,1,10,0:0:0:0:
91,348,71750,2,0,P|170:280|58:306,1,280,0|0,3:0|3:0,0:0:0:0:
240,322,72241,1,10,0:0:0:0:
121,160,72405,1,0,0:0:0:0:
309,54,72569,6,0,P|349:96|335:183,1,112,6|0,3:2|0:0,0:0:0:0:
201,41,72897,1,10,0:0:0:0:
383,234,73061,2,0,P|328:240|284:207,1,112
435,14,73389,1,0,3:0:0:0:
498,238,73553,1,10,0:0:0:0:
309,64,73717,1,0,0:0:0:0:
334,322,73881,5,6,3:2:0:0:
471,96,74045,1,8,0:0:0:0:
512,343,74209,2,0,P|457:344|413:307,1,112,10|0,0:0|0:0,0:0:0:0:
309,76,74537,1,8,0:0:0:0:
144,289,74701,2,0,P|135:232|190:167,1,112,4|0,3:2|0:0,0:0:0:0:
362,251,75028,1,8,0:0:0:0:
342,256,75109,1,8,0:0:0:0:
321,256,75191,1,2,3:2:0:0:
82,335,75356,6,0,P|131:367|191:349,1,112,0|10,0:0|0:0,0:0:0:0:
314,165,75684,1,0,0:0:0:0:
183,341,75848,1,2,3:2:0:0:
73,137,76012,1,0,3:0:0:0:
309,252,76176,1,10,0:0:0:0:
348,39,76340,6,0,B|296:10|244:57|244:57|197:99|121:56,1,224,0|0,0:0|0:0,0:0:0:0:
430,184,76832,2,0,P|446:132|421:83,1,112,10|0,0:0|0:0,0:0:0:0:
213,213,77160,1,2,3:2:0:0:
395,330,77323,2,0,P|450:334|501:298,1,112,0|10,3:0|0:0,0:0:0:0:
296,118,77651,1,0,0:0:0:0:
119,295,77815,6,0,B|201:283|218:221|218:221|270:259|349:209,1,251.999992309571,6|10,3:2|0:0,0:0:0:0:
76,150,78307,1,0,0:0:0:0:
225,327,78471,2,0,P|238:273|201:207,1,112,2|0,3:2|3:0,0:0:0:0:
0,372,78799,1,10,0:0:0:0:
222,135,78963,6,0,B|169:100|114:151|114:151|68:194|1:156,1,224,0|0,3:0|0:0,0:0:0:0:
304,0,79455,2,0,P|327:54|318:113,1,112,10|0,0:0|0:0,0:0:0:0:
155,286,79782,1,2,3:2:0:0:
111,124,79946,1,0,3:0:0:0:
154,296,80110,1,10,0:0:0:0:
304,189,80274,1,0,3:0:0:0:
72,374,80438,6,0,P|36:328|51:241,1,125.999996154785,6|0,3:2|0:0,0:0:0:0:
362,314,80766,5,2,3:2:0:0:
158,273,80930,1,0,0:0:0:0:
383,302,81094,5,10,0:0:0:0:
195,369,81258,1,0,3:0:0:0:
495,365,81422,5,10,0:0:0:0:
259,249,81586,1,0,3:0:0:0:
512,360,81750,6,0,P|508:301|433:246,1,125.999996154785,6|0,3:2|0:0,0:0:0:0:
311,110,82078,5,2,3:2:0:0:
385,335,82241,1,0,0:0:0:0:
461,82,82405,5,10,0:0:0:0:
371,312,82569,1,0,0:0:0:0:
261,33,82733,5,10,0:0:0:0:
512,184,82897,1,0,0:0:0:0:
215,260,83061,6,0,P|153:255|111:206,1,125.999996154785,6|0,3:2|0:0,0:0:0:0:
408,152,83389,1,8,0:0:0:0:
245,31,83553,2,0,P|184:75|198:188,1,188.999994232178,10|0,0:0|0:0,0:0:0:0:
396,150,83881,1,8,0:0:0:0:
136,90,84045,5,8,0:0:0:0:
136,90,84126,1,0,0:0:0:0:
136,90,84209,1,8,0:3:0:0:
416,222,84373,1,10,0:0:0:0:
149,353,84537,1,10,0:0:0:0:
320,111,84701,1,4,3:3:0:0:
64,218,84864,1,10,0:0:0:0:
323,369,85028,1,8,0:0:0:0:
209,106,85192,5,6,3:2:0:0:
105,344,85356,1,0,0:0:0:0:
44,146,85520,1,0,0:0:0:0:
324,226,85684,6,0,P|290:257|239:255,1,87.5,6|0,3:2|0:0,0:0:0:0:
58,148,86012,1,10,0:0:0:0:
243,29,86176,2,0,P|278:80|250:199,1,175,0|0,3:0|0:0,0:0:0:0:
61,13,86668,2,0,P|103:16|134:46,1,87.5,10|0,0:0|0:0,0:0:0:0:
177,239,86996,5,2,3:2:0:0:
243,41,87160,1,0,0:0:0:0:
172,251,87323,1,10,0:0:0:0:
332,80,87487,2,0,P|270:126|151:95,1,175,0|0,3:0|3:0,0:0:0:0:
412,25,87979,1,10,0:0:0:0:
441,197,88143,1,0,0:0:0:0:
245,18,88307,6,0,P|218:52|210:111,1,87.5,6|0,3:2|0:0,0:0:0:0:
417,115,88635,1,10,0:0:0:0:
317,237,88799,2,0,P|292:162|347:68,1,175,0|0,3:0|0:0,0:0:0:0:
396,265,89291,1,10,0:0:0:0:
273,350,89455,2,0,P|230:348|197:320,1,87.5,0|2,0:0|3:2,0:0:0:0:
284,132,89782,5,0,3:0:0:0:
273,362,89946,1,10,0:0:0:0:
57,177,90110,2,0,B|169:170|100:241|237:232,1,175,0|0,3:0|3:0,0:0:0:0:
404,275,90602,1,10,0:0:0:0:
181,323,90766,1,0,0:0:0:0:
331,203,90930,6,0,P|369:182|412:183,1,87.5,6|0,3:2|0:0,0:0:0:0:
501,370,91258,1,10,0:0:0:0:
280,349,91422,2,0,P|292:307|323:277,1,87.5,0|2,3:0|0:0,0:0:0:0:
512,375,91750,1,0,3:0:0:0:
268,346,91914,1,10,0:0:0:0:
512,281,92078,1,0,0:0:0:0:
238,197,92241,6,0,P|215:245|229:295,1,87.5,2|0,3:2|0:0,0:0:0:0:
439,354,92569,1,10,0:0:0:0:
423,120,92733,2,0,P|374:127|339:168,1,87.5,0|0,3:0|0:0,0:0:0:0:
346,384,93061,1,0,3:0:0:0:
503,228,93225,2,0,P|463:198|409:202,1,87.5,10|0,0:0|0:0,0:0:0:0:
163,322,93553,5,6,3:2:0:0:
434,273,93717,1,0,0:0:0:0:
125,207,93881,1,10,0:0:0:0:
346,376,94045,2,0,P|358:306|323:255,1,101.500003097534,10|4,0:0|0:3,0:0:0:0:
37,145,94373,5,10,0:0:0:0:
230,384,94537,1,10,0:0:0:0:
330,91,94701,2,0,P|264:95|225:139,1,101.500003097534,4|8,0:3|0:0,0:0:0:0:
88,353,95028,1,10,0:0:0:0:
438,327,95192,1,8,0:3:0:0:
37,157,95356,5,14,0:0:0:0:
