osu file format v14

[General]
AudioFilename: audio.mp3
AudioLeadIn: 0
PreviewTime: 64126
Countdown: 0
SampleSet: Soft
StackLeniency: 0.7
Mode: 0
LetterboxInBreaks: 0
WidescreenStoryboard: 1

[Editor]
DistanceSpacing: 1.64
BeatDivisor: 4
GridSize: 32
TimelineZoom: 3.899998

[Metadata]
Title:Tsuki no Kanata de Aimashou
TitleUnicode:月の彼方で逢いましょう
Artist:Duca
ArtistUnicode:Duca
Creator:Mimari
Version:Lecana's Another
Source:月の彼方で逢いましょう
Tags:eroge see you at other side of the moon tone work's opening op galgame visual novel vn japanese female vocals short version asuka asuka_- cami dkblaze yukizara YukiZura- Lecana video game
BeatmapID:2188088
BeatmapSetID:986799

[Difficulty]
HPDrainRate:5
CircleSize:4
OverallDifficulty:8.4
ApproachRate:9
SliderMultiplier:1.7
SliderTickRate:1

[Events]
//Background and Video events
0,0,"gallery_cg_4_waifu3x_art_noise3_scale_tta_1.jpg",0,0
//Break Periods
//Storyboard Layer 0 (Background)
//Storyboard Layer 1 (Fail)
//Storyboard Layer 2 (Pass)
//Storyboard Layer 3 (Foreground)
//Storyboard Layer 4 (Overlay)
//Storyboard Sound Samples

[TimingPoints]
438,327.868852459016,4,2,1,60,1,0
12241,-111.111111111111,4,2,1,60,0,0
22732,-133.333333333333,4,2,1,40,0,0
34208,-200,4,2,1,40,0,0
35519,-133.333333333333,4,2,1,40,0,0
36995,-200,4,2,1,40,0,0
39126,-133.333333333333,4,2,1,40,0,0
41667,-133.333333333333,4,2,1,5,0,0
41749,-133.333333333333,4,2,1,40,0,0
42322,-133.333333333333,4,2,1,5,0,0
42404,-133.333333333333,4,2,1,40,0,0
42568,-100,4,2,1,40,0,0
60027,-100,4,2,1,5,0,0
60109,-100,4,2,1,40,0,0
60683,-100,4,2,1,5,0,0
60765,-100,4,2,1,40,0,0
64372,-100,4,2,1,40,0,0
64700,-100,4,2,1,70,0,1
74700,-111.111111111111,4,2,1,70,0,1
75191,-100,4,2,1,70,0,1
80437,-111.111111111111,4,2,1,70,0,1
85683,-100,4,2,1,60,0,0

[Colours]
Combo1 : 182,196,166
Combo2 : 232,188,130
Combo3 : 210,138,234
Combo4 : 133,228,138

[HitObjects]
32,202,12241,5,4,3:2:0:0:
139,191,12405,2,0,L|150:116,1,76.4999976654053,0|10,0:0|0:0,0:0:0:0:
208,274,12733,2,0,L|360:244,1,152.999995330811,0|0,3:0|0:0,0:0:0:0:
438,177,13225,1,10,0:0:0:0:
305,119,13389,1,0,0:0:0:0:
405,32,13553,6,0,P|390:93|384:120,1,76.4999976654053,0|0,3:0|0:0,0:0:0:0:
358,244,13881,1,10,0:0:0:0:
207,214,14045,2,0,L|296:196,1,76.4999976654053,0|0,3:0|0:0,0:0:0:0:
446,295,14373,1,0,3:0:0:0:
358,244,14537,1,10,0:0:0:0:
290,313,14701,1,0,0:0:0:0:
207,214,14864,5,4,3:2:0:0:
132,362,15028,1,0,0:0:0:0:
103,177,15192,1,10,0:0:0:0:
38,331,15356,2,0,L|205:315,1,152.999995330811,0|0,3:0|0:0,0:0:0:0:
285,118,15848,2,0,P|226:126|197:130,1,76.4999976654053,10|0,0:0|0:0,0:0:0:0:
117,164,16176,6,0,P|96:215|82:266,1,76.4999976654053,0|0,3:0|0:0,0:0:0:0:
43,109,16504,1,10,0:0:0:0:
207,222,16668,2,0,P|255:214|298:209,1,76.4999976654053,0|0,3:0|0:0,0:0:0:0:
379,272,16996,1,0,3:0:0:0:
455,186,17160,2,0,P|468:139|482:97,1,76.4999976654053,10|0,0:0|0:0,0:0:0:0:
496,0,17487,6,0,P|460:9|423:22,1,76.4999976654053,4|2,3:2|2:0,0:0:0:0:
233,59,17815,1,10,0:0:0:0:
425,151,17978,1,0,3:0:0:0:
246,239,18142,1,2,0:0:0:0:
407,288,18307,1,2,2:0:0:0:
243,226,18471,1,10,0:0:0:0:
413,135,18635,1,0,0:0:0:0:
295,318,18799,6,0,P|240:304|211:298,1,76.4999976654053,0|0,3:0|0:0,0:0:0:0:
43,260,19127,1,10,0:0:0:0:
100,356,19291,2,0,P|139:316|141:216,1,152.999995330811,0|0,3:0|0:0,0:0:0:0:
92,105,19782,1,10,0:0:0:0:
92,105,20110,6,0,L|7:90,1,76.4999976654053,4|0,3:2|0:0,0:0:0:0:
219,212,20438,1,8,0:0:0:0:
314,134,20602,2,0,L|403:108,1,76.4999976654053,8|0,0:0|0:0,0:0:0:0:
387,330,20930,1,8,0:0:0:0:
300,215,21094,1,8,0:0:0:0:
466,272,21258,1,0,3:0:0:0:
210,248,21422,5,12,0:0:0:0:
210,248,22733,6,0,P|272:233|352:219,1,127.500004863739,0|0,3:0|0:0,0:0:0:0:
416,173,23225,1,0,0:0:0:0:
354,101,23389,2,0,P|333:137|341:236,1,127.500004863739,0|2,0:0|0:0,0:0:0:0:
383,311,23881,1,0,0:0:0:0:
281,284,24045,6,0,L|205:262,1,63.7500024318696,0|0,0:0|0:0,0:0:0:0:
123,318,24373,2,0,L|148:178,1,127.500004863739,2|0,0:0|0:0,0:0:0:0:
145,192,25028,2,0,L|74:210,1,63.7500024318696,2|0,0:0|3:0,0:0:0:0:
27,133,25356,2,0,L|160:104,2,127.500004863739,0|2|0,3:0|0:0|0:0,0:0:0:0:
271,46,26340,2,0,P|311:81|318:103,1,63.7500024318696,2|0,0:0|0:0,0:0:0:0:
358,170,26668,6,0,P|420:149|498:128,1,127.500004863739,0|2,0:0|0:0,0:0:0:0:
437,63,27160,2,0,P|413:95|426:195,1,127.500004863739,0|0,0:0|0:0,0:0:0:0:
438,268,27651,2,0,P|470:257|505:247,1,63.7500024318696,2|0,0:0|0:0,0:0:0:0:
400,349,27979,6,0,P|349:337|261:316,1,127.500004863739,0|0,3:0|0:0,0:0:0:0:
180,243,28471,1,0,0:0:0:0:
241,185,28635,2,0,P|259:215|262:258,1,63.7500024318696,0|0,0:0|0:0,0:0:0:0:
263,243,29127,1,0,0:0:0:0:
96,249,29291,2,0,P|101:217|118:190,1,63.7500024318696,0|0,0:0|0:0,0:0:0:0:
188,88,29619,6,0,P|252:106|320:129,2,127.500004863739,2|0|2,0:0|0:0|0:0,0:0:0:0:
118,190,30438,1,0,3:0:0:0:
215,271,30602,2,0,P|240:260|286:243,1,63.7500024318696,0|0,3:0|0:0,0:0:0:0:
379,211,30930,1,2,0:0:0:0:
309,125,31094,2,0,P|290:186|272:258,1,127.500004863739,0|0,0:0|0:0,0:0:0:0:
348,332,31586,2,0,P|387:318|435:309,1,63.7500024318696,2|0,0:0|0:0,0:0:0:0:
505,320,31914,5,0,0:0:0:0:
274,247,32241,2,0,P|171:280|144:292,2,127.500004863739,2|0|2,0:0|0:0|0:0,0:0:0:0:
378,161,33225,6,0,P|414:189|409:272,1,127.500004863739,0|2,3:0|0:0,0:0:0:0:
366,352,33717,2,0,P|303:331|244:314,1,127.500004863739,0|0,0:0|0:0,0:0:0:0:
413,265,34209,2,0,B|444:264|495:285|495:285|458:206|433:112,1,255,2|0,0:0|0:0,0:0:0:0:
437,125,35520,6,0,P|376:143|334:152,1,95.6250036478044,2|0,0:0|0:0,0:0:0:0:
323,152,35848,2,0,P|280:143|242:134,1,63.7500024318696,0|0,3:0|0:0,0:0:0:0:
182,108,36176,1,2,0:0:0:0:
226,26,36340,2,0,P|263:74|254:151,1,127.500004863739,0|0,0:0|0:0,0:0:0:0:
212,206,36832,1,0,0:0:0:0:
288,257,36996,2,0,B|317:256|360:242|360:242|313:352|313:352|236:310|141:275,1,382.5,0|0,0:0|3:0,0:0:0:0:
140,274,39127,5,0,0:0:0:0:
231,183,39291,2,0,P|189:193|157:221,1,63.7500024318696,0|2,0:0|0:0,0:0:0:0:
185,339,39619,2,0,P|136:323|52:296,1,127.500004863739,0|0,0:0|0:0,0:0:0:0:
67,196,40110,2,0,P|116:168|160:150,1,95.6250036478044,2|0,0:0|0:0,0:0:0:0:
197,117,40438,2,0,P|150:97|105:67,1,95.6250036478044,0|0,0:0|0:0,0:0:0:0:
73,66,40766,2,0,L|91:-17,1,63.7500024318696,2|0,0:0|3:0,0:0:0:0:
259,42,41094,5,0,3:0:0:0:
263,58,41750,5,0,0:0:0:0:
267,74,42405,5,4,3:2:0:0:
265,233,42569,2,0,L|374:203,1,85,8|0,0:0|3:0,0:0:0:0:
159,179,42897,1,0,3:0:0:0:
153,311,43061,2,0,L|142:341,14,21.25,8|0|0|0|0|0|0|0|0|0|0|0|8|0|0,3:3|0:0|0:0|0:0|0:0|0:0|0:0|0:0|3:0|0:0|0:0|0:0|0:0|0:0|0:0,0:0:0:0:
137,366,43717,6,0,L|116:274,1,85,4|0,3:2|0:0,0:0:0:0:
84,136,44045,1,10,0:0:0:0:
211,208,44208,2,0,P|257:202|312:183,1,85,0|0,0:0|3:0,0:0:0:0:
23,200,44537,1,0,3:0:0:0:
156,78,44701,1,10,0:0:0:0:
42,18,44864,6,0,L|55:107,1,85,0|0,3:0|0:0,0:0:0:0:
173,207,45192,1,0,3:0:0:0:
226,112,45356,1,10,0:0:0:0:
87,178,45520,1,0,0:0:0:0:
248,281,45684,2,0,L|261:192,1,85,0|0,3:0|3:0,0:0:0:0:
333,145,46012,1,10,0:0:0:0:
392,222,46176,1,0,0:0:0:0:
436,48,46340,6,0,P|356:29|292:80,2,170,4|10|0,3:2|0:0|3:0,0:0:0:0:
507,157,47160,1,0,3:0:0:0:
376,112,47323,1,10,0:0:0:0:
403,262,47487,6,0,P|366:219|387:100,1,170,0|0,3:0|3:0,0:0:0:0:
282,44,47979,2,0,P|227:58|197:67,1,85,10|0,0:0|3:0,0:0:0:0:
126,159,48307,1,0,0:0:0:0:
62,89,48471,1,0,3:0:0:0:
210,149,48635,1,10,0:0:0:0:
82,239,48799,1,0,0:0:0:0:
210,149,48962,5,4,3:2:0:0:
126,159,49127,1,0,0:0:0:0:
224,261,49291,2,0,P|281:251|311:242,1,85,10|0,0:0|0:0,0:0:0:0:
394,239,49619,1,0,0:0:0:0:
333,343,49782,2,0,P|276:353|246:362,1,85,0|10,3:0|0:0,0:0:0:0:
127,321,50110,6,0,P|88:278|114:174,1,170,0|0,3:0|3:0,0:0:0:0:
184,73,50602,1,10,0:0:0:0:
262,207,50765,1,0,0:0:0:0:
184,73,50929,1,0,0:0:0:0:
326,61,51094,1,0,3:0:0:0:
208,145,51258,2,0,B|269:126|269:126|336:156,1,127.5,10|0,0:0|0:0,0:0:0:0:
357,166,51586,5,4,3:2:0:0:
183,229,51750,1,0,0:0:0:0:
296,320,51914,2,0,L|318:229,1,85,10|0,0:0|0:0,0:0:0:0:
366,77,52241,1,0,3:0:0:0:
480,149,52405,1,0,3:0:0:0:
393,210,52569,1,10,0:0:0:0:
480,149,52733,1,0,0:0:0:0:
504,296,52897,6,0,P|403:261|336:239,1,170,0|10,3:0|0:0,0:0:0:0:
164,220,53388,1,0,3:0:0:0:
276,179,53552,2,0,P|282:142|289:77,1,85,0|8,0:0|0:0,0:0:0:0:
220,283,53881,1,8,3:0:0:0:
220,283,53962,1,8,0:0:0:0:
220,283,54044,1,8,0:0:0:0:
135,108,54209,5,4,3:2:0:0:
276,179,54373,1,0,0:0:0:0:
121,280,54537,1,10,0:0:0:0:
285,187,54700,2,0,P|307:232|309:279,1,85,0|0,0:0|0:0,0:0:0:0:
105,359,55028,1,0,3:0:0:0:
86,178,55192,2,0,P|127:203|157:251,1,85,10|0,0:0|3:0,0:0:0:0:
231,367,55520,5,0,0:0:0:0:
394,257,55684,1,0,3:0:0:0:
242,153,55847,2,0,P|238:202|234:263,1,85,10|0,0:0|0:0,0:0:0:0:
231,367,56176,1,0,3:0:0:0:
379,329,56340,1,0,3:0:0:0:
235,237,56504,1,10,0:0:0:0:
349,175,56667,1,0,0:0:0:0:
162,284,56831,6,0,P|147:238|164:182,1,85,4|0,3:2|0:0,0:0:0:0:
349,169,57159,2,0,P|346:213|338:260,1,85,10|0,0:0|0:0,0:0:0:0:
168,363,57487,1,0,3:0:0:0:
235,237,57651,1,0,3:0:0:0:
286,355,57815,1,10,0:0:0:0:
149,220,57979,6,0,P|163:173|174:130,1,85,0|0,3:0|0:0,0:0:0:0:
104,52,58307,1,0,3:0:0:0:
255,93,58471,1,10,0:0:0:0:
104,52,58634,1,0,0:0:0:0:
237,10,58799,1,0,3:0:0:0:
239,167,58963,1,0,3:0:0:0:
355,63,59127,2,0,P|428:46|450:42,1,85,10|0,0:0|0:0,0:0:0:0:
509,132,59455,5,4,3:2:0:0:
509,132,60110,5,2,0:0:0:0:
509,132,60766,6,0,P|499:179|489:235,1,85,2|2,3:0|3:0,0:0:0:0:
401,276,61094,2,0,P|411:323|421:379,1,85,2|2,3:0|3:0,0:0:0:0:
487,293,61422,5,10,0:0:0:0:
411,197,61586,1,8,0:0:0:0:
485,307,61750,1,10,0:0:0:0:
401,191,61913,1,8,0:0:0:0:
284,346,62078,6,0,L|197:325,1,85,10|8,0:0|0:0,0:0:0:0:
48,207,62405,2,0,L|132:190,1,85,10|8,0:0|0:0,0:0:0:0:
259,104,62733,1,10,0:0:0:0:
145,270,62897,1,10,0:0:0:0:
52,51,63061,1,2,0:0:0:0:
337,197,63225,5,14,3:2:0:0:
256,192,63307,12,10,64373,0:0:0:0:
164,181,64701,5,6,3:2:0:0:
231,117,64864,2,0,P|251:162|251:213,1,85,0|10,0:0|3:2,0:0:0:0:
146,341,65192,1,0,0:0:0:0:
288,292,65356,2,0,L|195:271,1,85,2|0,3:2|3:0,0:0:0:0:
84,189,65684,1,10,0:0:0:0:
215,58,65847,6,0,P|218:104|218:170,1,85,4|0,2:0|0:0,0:0:0:0:
324,184,66176,1,0,3:0:0:0:
370,69,66340,1,10,0:0:0:0:
218,142,66504,1,0,0:0:0:0:
342,265,66668,1,2,3:2:0:0:
459,128,66832,2,0,P|424:141|385:179,1,85,0|10,3:0|0:0,0:0:0:0:
271,303,67160,1,0,0:0:0:0:
425,338,67323,6,0,P|409:259|386:159,1,170,6|10,3:2|0:0,0:0:0:0:
443,47,67815,1,0,0:0:0:0:
304,138,67979,2,0,B|273:154|273:154|216:137,1,85,2|0,3:2|3:0,0:0:0:0:
61,105,68307,1,10,0:0:0:0:
116,19,68471,1,0,0:0:0:0:
195,123,68635,6,0,P|215:160|219:212,1,85,2|0,3:2|0:0,0:0:0:0:
116,19,68963,1,10,0:0:0:0:
282,92,69127,1,0,3:0:0:0:
383,30,69291,1,0,0:0:0:0:
441,123,69455,1,0,0:0:0:0:
282,92,69619,2,0,P|260:150|251:194,1,85,10|0,0:0|0:0,0:0:0:0:
380,337,69946,6,0,P|368:280|339:171,1,170,6|10,3:2|0:0,0:0:0:0:
245,136,70438,1,0,0:0:0:0:
429,203,70602,1,2,3:2:0:0:
245,277,70766,1,0,3:0:0:0:
339,172,70930,1,10,0:0:0:0:
139,150,71094,1,0,0:0:0:0:
280,51,71258,6,0,P|265:157|257:192,1,127.5,2|0,3:2|0:0,0:0:0:0:
251,214,71586,1,10,0:0:0:0:
450,157,71750,2,0,P|468:215|475:250,1,85,0|0,3:0|0:0,0:0:0:0:
230,327,72078,1,0,3:0:0:0:
387,227,72241,1,10,0:0:0:0:
260,176,72405,1,0,0:0:0:0:
426,75,72569,6,0,P|444:133|451:168,1,85,6|0,3:2|0:0,0:0:0:0:
337,312,72897,1,10,0:0:0:0:
260,176,73061,2,0,P|219:162|178:152,1,85,0|0,0:0|0:0,0:0:0:0:
33,228,73389,1,0,3:0:0:0:
89,88,73553,1,10,0:0:0:0:
178,292,73717,1,0,0:0:0:0:
229,172,73881,5,6,3:2:0:0:
44,239,74045,1,8,0:0:0:0:
291,325,74209,1,10,0:0:0:0:
85,359,74373,1,0,0:0:0:0:
163,215,74537,1,8,0:0:0:0:
291,325,74701,6,0,P|342:331|417:256,1,152.999995330811,4|8,3:2|0:0,0:0:0:0:
403,228,75110,1,8,0:0:0:0:
403,228,75192,6,0,P|379:165|366:128,1,85,2|0,3:2|0:0,0:0:0:0:
325,42,75520,1,10,0:0:0:0:
430,88,75684,1,0,0:0:0:0:
295,176,75848,1,2,3:2:0:0:
199,58,76012,1,0,3:0:0:0:
356,129,76176,1,10,0:0:0:0:
133,135,76340,6,0,P|121:198|110:316,1,170,0|0,0:0|0:0,0:0:0:0:
190,353,76832,1,10,0:0:0:0:
27,322,76995,2,0,P|68:312|109:303,1,85,0|2,0:0|3:2,0:0:0:0:
245,186,77323,1,0,3:0:0:0:
183,276,77487,1,10,0:0:0:0:
99,141,77651,1,0,0:0:0:0:
293,118,77815,6,0,P|329:170|333:202,1,85,6|0,3:2|0:0,0:0:0:0:
233,342,78143,1,10,0:0:0:0:
157,199,78307,1,0,0:0:0:0:
290,265,78471,1,2,3:2:0:0:
204,107,78635,1,0,3:0:0:0:
112,285,78799,1,10,0:0:0:0:
245,186,78963,1,0,3:0:0:0:
93,119,79127,6,0,L|78:34,1,85,0|0,0:0|0:0,0:0:0:0:
245,186,79455,2,0,L|225:282,1,85,10|0,0:0|0:0,0:0:0:0:
39,206,79782,1,2,3:2:0:0:
176,98,79946,2,0,P|216:86|258:76,1,85,0|10,3:0|0:0,0:0:0:0:
425,219,80274,1,0,3:0:0:0:
353,52,80438,5,6,3:2:0:0:
304,216,80602,1,0,0:0:0:0:
481,270,80766,1,2,3:2:0:0:
362,141,80930,1,0,0:0:0:0:
310,296,81094,2,0,P|375:280|478:261,1,152.999995330811,10|10,0:0|0:0,0:0:0:0:
233,211,81586,1,0,3:0:0:0:
284,367,81750,6,0,P|303:310|312:291,1,76.4999976654053,6|0,3:2|0:0,0:0:0:0:
388,141,82078,2,0,P|404:180|414:217,1,76.4999976654053,2|0,3:2|0:0,0:0:0:0:
457,342,82405,1,10,0:0:0:0:
256,205,82569,1,0,0:0:0:0:
413,213,82733,1,10,0:0:0:0:
228,298,82897,1,0,0:0:0:0:
413,213,83061,5,6,3:2:0:0:
201,128,83225,1,0,0:0:0:0:
320,262,83389,1,8,0:0:0:0:
115,323,83553,2,0,P|124:244|134:164,1,152.999995330811,10|8,0:0|0:0,0:0:0:0:
87,50,84045,1,8,0:0:0:0:
21,245,84209,6,0,P|79:242|133:167,1,152.999995330811,8|10,0:3|0:0,0:0:0:0:
185,30,84701,1,4,3:3:0:0:
40,162,84864,1,10,0:0:0:0:
288,219,85028,1,8,0:0:0:0:
229,151,85192,2,0,P|208:187|203:236,1,76.4999976654053,6|0,3:2|0:0,0:0:0:0:
386,293,85520,1,0,0:0:0:0:
270,373,85684,6,0,L|249:279,1,85,6|0,3:2|0:0,0:0:0:0:
99,192,86012,1,10,0:0:0:0:
62,287,86176,2,0,P|130:291|197:198,1,170,0|0,3:0|0:0,0:0:0:0:
230,64,86668,1,10,0:0:0:0:
330,142,86832,6,0,L|245:165,1,85,0|2,0:0|3:2,0:0:0:0:
425,228,87160,1,0,0:0:0:0:
467,125,87323,1,10,0:0:0:0:
315,234,87487,2,0,P|321:275|325:318,1,85,0|0,3:0|0:0,0:0:0:0:
212,140,87815,1,0,3:0:0:0:
94,235,87979,1,10,0:0:0:0:
36,144,88143,1,0,0:0:0:0:
192,224,88307,5,6,3:2:0:0:
112,333,88471,2,0,L|23:316,1,85,0|10,0:0|0:0,0:0:0:0:
137,150,88799,2,0,B|199:139|199:139|235:152|235:152|314:138,1,170,0|0,3:0|0:0,0:0:0:0:
401,236,89291,1,10,0:0:0:0:
295,366,89455,6,0,P|268:315|326:200,1,170,0|0,0:0|3:0,0:0:0:0:
446,108,89946,2,0,P|379:92|352:79,1,85,10|0,0:0|3:0,0:0:0:0:
262,22,90274,1,0,0:0:0:0:
205,203,90438,2,0,P|138:219|111:232,1,85,0|10,3:0|0:0,0:0:0:0:
74,311,90766,1,0,0:0:0:0:
36,147,90930,5,6,3:2:0:0:
295,223,91094,1,0,0:0:0:0:
201,318,91258,1,10,0:0:0:0:
130,172,91422,1,0,3:0:0:0:
316,228,91586,5,2,0:0:0:0:
196,347,91750,1,0,3:0:0:0:
225,147,91914,1,10,0:0:0:0:
403,271,92078,1,0,0:0:0:0:
266,349,92241,6,0,L|284:258,1,85,2|0,3:2|0:0,0:0:0:0:
377,180,92569,1,10,0:0:0:0:
490,241,92733,2,0,L|508:332,1,85,0|0,3:0|0:0,0:0:0:0:
270,130,93061,1,0,3:0:0:0:
377,180,93225,2,0,L|470:151,1,85,10|0,0:0|0:0,0:0:0:0:
337,324,93553,5,6,3:2:0:0:
155,221,93717,1,0,0:0:0:0:
277,108,93881,1,10,0:0:0:0:
202,329,94045,2,0,P|147:347|52:284,1,170,10|10,0:0|0:0,0:0:0:0:
6,158,94537,1,10,0:0:0:0:
181,85,94701,1,4,0:3:0:0:
22,0,94864,5,8,0:0:0:0:
181,85,95028,1,10,0:0:0:0:
118,237,95192,1,8,0:3:0:0:
293,338,95356,5,14,0:0:0:0:
