osu file format v14

[General]
AudioFilename: audio.mp3
AudioLeadIn: 0
PreviewTime: 64126
Countdown: 0
SampleSet: Soft
StackLeniency: 0.7
Mode: 0
LetterboxInBreaks: 0
WidescreenStoryboard: 0

[Editor]
DistanceSpacing: 1.64
BeatDivisor: 4
GridSize: 32
TimelineZoom: 1.7

[Metadata]
Title:Tsuki no Kanata de Aimashou
TitleUnicode:月の彼方で逢いましょう
Artist:Duca
ArtistUnicode:Duca
Creator:Mimari
Version:Cami's Insane
Source:月の彼方で逢いましょう
Tags:eroge see you at other side of the moon tone work's opening op galgame visual novel vn japanese female vocals short version asuka asuka_- cami dkblaze yukizara YukiZura- Lecana video game
BeatmapID:2064302
BeatmapSetID:986799

[Difficulty]
HPDrainRate:5
CircleSize:4
OverallDifficulty:8
ApproachRate:8.8
SliderMultiplier:1.4
SliderTickRate:1

[Events]
//Background and Video events
0,0,"gallery_cg_6_waifu2x_art_noise3_scale_tta_1.jpg",0,0
//Break Periods
//Storyboard Layer 0 (Background)
//Storyboard Layer 1 (Fail)
//Storyboard Layer 2 (Pass)
//Storyboard Layer 3 (Foreground)
//Storyboard Layer 4 (Overlay)
//Storyboard Sound Samples

[TimingPoints]
438,327.868852459016,4,2,1,60,1,0
21421,-200,4,2,1,60,0,0
22732,-142.857142857143,4,2,1,40,0,0
41667,-142.857142857143,4,2,1,5,0,0
41749,-142.857142857143,4,2,1,40,0,0
42322,-142.857142857143,4,2,1,5,0,0
42404,-142.857142857143,4,2,1,40,0,0
42568,-100,4,2,1,40,0,0
60027,-100,4,2,1,5,0,0
60109,-100,4,2,1,40,0,0
60683,-100,4,2,1,5,0,0
60765,-100,4,2,1,40,0,0
62077,-83.3333333333333,4,2,1,40,0,0
63224,-500,4,2,1,40,0,0
64372,-83.3333333333333,4,2,1,40,0,0
64700,-83.3333333333333,4,2,1,70,0,1
74700,-142.857142857143,4,2,1,70,0,1
75519,-83.3333333333333,4,2,1,70,0,1
85191,-166.666666666667,4,2,1,70,0,1
85683,-100,4,2,1,60,0,0
94044,-83.3333333333333,4,2,1,60,0,0
95355,-86.9565217391304,4,2,1,60,0,0

[Colours]
Combo1 : 182,196,166
Combo2 : 232,188,130
Combo3 : 210,138,234
Combo4 : 133,228,138

[HitObjects]
79,224,12241,5,4,3:2:0:0:
144,132,12405,1,0,0:0:0:0:
235,197,12569,1,10,0:0:0:0:
165,256,12733,2,0,P|59:275|8:285,1,140,0|0,3:0|0:0,0:0:0:0:
175,348,13225,2,0,P|233:356|253:359,1,70,10|0,0:0|0:0,0:0:0:0:
367,267,13553,5,0,3:0:0:0:
407,186,13717,1,0,0:0:0:0:
417,342,13881,1,10,0:0:0:0:
276,272,14045,2,0,P|266:172|266:140,1,105,0|0,3:0|0:0,0:0:0:0:
270,139,14373,1,0,3:0:0:0:
175,52,14537,2,0,P|160:115|150:145,1,70,10|0,0:0|0:0,0:0:0:0:
79,250,14864,5,4,3:2:0:0:
33,173,15028,1,0,0:0:0:0:
170,232,15192,1,10,0:0:0:0:
112,369,15356,2,0,P|68:316|79:249,1,140,0|0,3:0|0:0,0:0:0:0:
186,140,15848,1,10,0:0:0:0:
236,219,16012,6,0,P|205:234|170:232,1,70,0|0,0:0|3:0,0:0:0:0:
312,137,16340,1,0,0:0:0:0:
379,219,16504,1,10,0:0:0:0:
474,162,16668,2,0,B|490:129|490:129|480:86,1,70,0|0,3:0|0:0,0:0:0:0:
373,20,16996,1,0,3:0:0:0:
373,20,17160,2,0,B|365:52|365:52|381:85,1,70,10|0,0:0|0:0,0:0:0:0:
379,219,17487,5,4,3:2:0:0:
281,137,17651,1,2,2:0:0:0:
352,216,17815,1,10,0:0:0:0:
273,287,17979,5,0,3:0:0:0:
322,213,18143,1,2,0:0:0:0:
199,238,18307,1,2,2:0:0:0:
248,164,18470,1,10,0:0:0:0:
104,284,18634,6,0,P|110:316|121:362,1,70,0|0,0:0|3:0,0:0:0:0:
249,367,18963,1,0,0:0:0:0:
322,213,19127,1,10,0:0:0:0:
199,238,19291,2,0,P|194:272|192:307,1,70,0|2,3:0|0:0,0:0:0:0:
266,112,19619,1,0,0:0:0:0:
187,123,19782,2,0,P|134:128|88:131,1,70,10|0,0:0|0:0,0:0:0:0:
6,18,20110,6,0,P|95:31|118:36,1,105,4|0,3:2|0:0,0:0:0:0:
136,50,20438,1,8,0:0:0:0:
49,184,20602,1,8,0:0:0:0:
49,184,20930,1,8,0:0:0:0:
19,50,21094,1,8,0:0:0:0:
135,219,21258,5,0,3:0:0:0:
135,219,21340,1,0,0:0:0:0:
135,219,21422,2,0,B|187:256|237:226|218:223|265:191|337:235,1,210,12|0,0:0|0:0,0:0:0:0:
389,292,22569,1,0,0:0:0:0:
347,360,22733,5,0,3:0:0:0:
347,360,23225,1,0,0:0:0:0:
277,320,23389,2,0,P|221:327|166:330,1,97.9999970092774,0|2,0:0|0:0,0:0:0:0:
110,286,23881,1,0,0:0:0:0:
110,286,24045,6,0,L|121:221,1,48.9999985046387,0|0,0:0|0:0,0:0:0:0:
185,192,24373,2,0,P|179:135|175:82,1,97.9999970092774,2|0,0:0|0:0,0:0:0:0:
219,26,24864,1,0,0:0:0:0:
293,55,25028,1,2,0:0:0:0:
395,11,25192,1,0,3:0:0:0:
471,50,25356,5,0,3:0:0:0:
471,50,25684,2,0,P|464:93|460:156,2,97.9999970092774,2|0|2,0:0|0:0|0:0,0:0:0:0:
394,192,26668,2,0,P|399:220|402:250,2,48.9999985046387,0|0|2,0:0|0:0|0:0,0:0:0:0:
330,143,27160,2,0,P|288:137|239:177,1,97.9999970092774,0|0,0:0|0:0,0:0:0:0:
185,222,27651,2,0,L|180:285,1,48.9999985046387,2|0,0:0|0:0,0:0:0:0:
110,309,27979,5,0,3:0:0:0:
110,309,28471,1,0,0:0:0:0:
38,273,28635,1,0,0:0:0:0:
38,273,29127,1,0,0:0:0:0:
118,275,29291,1,0,0:0:0:0:
230,159,29619,6,0,P|248:125|220:56,1,97.9999970092774,2|0,0:0|0:0,0:0:0:0:
91,37,30274,1,2,0:0:0:0:
153,110,30438,1,0,3:0:0:0:
92,163,30602,6,0,P|100:223|102:276,1,97.9999970092774,0|2,3:0|0:0,0:0:0:0:
164,311,31094,1,0,0:0:0:0:
302,230,31422,1,0,0:0:0:0:
302,230,31586,2,0,P|300:192|298:173,1,48.9999985046387,2|0,0:0|0:0,0:0:0:0:
298,181,32241,2,0,P|321:207|388:201,2,97.9999970092774,2|0|2,0:0|0:0|0:0,0:0:0:0:
455,145,33225,6,0,P|462:204|465:260,1,97.9999970092774,0|2,3:0|0:0,0:0:0:0:
405,297,33717,1,0,0:0:0:0:
257,233,34045,1,0,0:0:0:0:
257,233,34209,2,0,P|328:223|302:79,1,244.999992523194,2|0,0:0|0:0,0:0:0:0:
314,83,35520,1,2,0:0:0:0:
189,149,35684,1,0,3:0:0:0:
125,100,35848,6,0,P|109:52|142:15,1,97.9999970092774,0|2,3:0|0:0,0:0:0:0:
203,71,36340,1,0,0:0:0:0:
203,71,36668,1,0,0:0:0:0:
103,197,36996,1,0,0:0:0:0:
166,246,37160,6,0,P|175:314|175:316,1,48.9999985046387,0|0,0:0|0:0,0:0:0:0:
242,362,37487,2,0,P|247:338|251:314,1,48.9999985046387,2|0,0:0|0:0,0:0:0:0:
92,284,37979,1,0,0:0:0:0:
92,284,38471,5,0,3:0:0:0:
199,164,38799,2,0,P|234:152|264:156,1,48.9999985046387,2|0,0:0|0:0,0:0:0:0:
291,255,39127,2,0,P|272:240|250:232,2,48.9999985046387,0|0|2,0:0|0:0|0:0,0:0:0:0:
336,338,39619,2,0,P|322:267|350:200,1,146.999995513916,0|2,0:0|0:0,0:0:0:0:
488,117,40438,1,0,0:0:0:0:
428,221,40766,1,2,0:0:0:0:
326,174,40930,1,0,3:0:0:0:
400,143,41094,6,0,P|410:115|362:51,1,97.9999970092774,0|0,3:0|0:0,0:0:0:0:
249,152,41750,2,0,P|239:180|287:244,1,97.9999970092774,0|0,0:0|0:0,0:0:0:0:
414,305,42405,5,4,3:2:0:0:
326,174,42569,2,0,L|338:85,2,70,8|0|0,0:0|3:0|3:0,0:0:0:0:
204,301,43061,1,8,3:3:0:0:
189,291,43142,1,0,0:0:0:0:
179,277,43224,1,0,0:0:0:0:
175,260,43306,1,0,0:0:0:0:
179,243,43388,1,0,3:0:0:0:
289,317,43553,1,8,0:0:0:0:
143,360,43717,6,0,P|108:325|96:292,1,70,4|2,3:2|0:0,0:0:0:0:
101,130,44044,1,8,0:0:0:0:
185,126,44209,2,0,P|249:129|278:132,1,70,2|0,0:0|3:0,0:0:0:0:
192,217,44537,1,0,3:0:0:0:
101,130,44701,1,10,0:0:0:0:
178,39,44864,6,0,P|268:44|327:56,1,140,0|0,3:0|3:0,0:0:0:0:
429,143,45356,1,10,0:0:0:0:
429,143,45520,2,0,P|375:161|347:167,1,70,0|0,0:0|3:0,0:0:0:0:
287,141,45848,1,0,3:0:0:0:
272,261,46012,2,0,L|283:340,1,70,10|0,0:0|0:0,0:0:0:0:
167,277,46340,6,0,P|175:192|187:115,2,140,4|10|0,3:2|0:0|3:0,0:0:0:0:
53,311,47160,1,0,3:0:0:0:
36,185,47323,1,10,0:0:0:0:
172,210,47487,6,0,B|179:248|179:248|165:284,1,70,0|0,3:0|0:0,0:0:0:0:
116,144,47815,1,0,3:0:0:0:
252,176,47979,1,10,0:0:0:0:
163,57,48143,2,0,L|82:65,1,70,0|0,3:0|0:0,0:0:0:0:
176,214,48471,1,0,3:0:0:0:
176,214,48635,2,0,P|167:162|155:129,1,70,10|0,0:0|0:0,0:0:0:0:
305,65,48963,5,4,3:2:0:0:
379,13,49127,1,0,0:0:0:0:
450,70,49291,1,10,0:0:0:0:
376,110,49455,2,0,P|254:97|221:96,1,140,0|0,0:0|3:0,0:0:0:0:
215,211,49946,1,10,0:0:0:0:
293,244,50110,6,0,B|298:206|298:206|283:161,1,70,0|0,3:0|0:0,0:0:0:0:
176,304,50438,1,0,3:0:0:0:
287,335,50602,1,10,0:0:0:0:
215,211,50766,2,0,P|176:213|139:218,2,70,0|0|0,0:0|0:0|3:0,0:0:0:0:
74,272,51258,1,10,0:0:0:0:
74,272,51586,6,0,B|63:209|63:209|66:195|66:195|55:128,2,140,4|10|0,3:2|0:0|3:0,0:0:0:0:
93,348,52405,1,0,3:0:0:0:
151,226,52569,2,0,B|163:191|163:191|150:145,1,70,10|0,0:0|0:0,0:0:0:0:
33,102,52897,6,0,B|78:116|109:98|88:92|130:69|178:79,1,140,0|10,3:0|0:0,0:0:0:0:
276,109,53389,1,0,3:0:0:0:
276,109,53553,1,0,0:0:0:0:
154,159,53717,1,8,0:0:0:0:
92,55,53881,1,8,3:0:0:0:
92,55,53963,1,8,0:0:0:0:
92,55,54045,1,8,0:0:0:0:
85,207,54208,5,4,3:2:0:0:
175,77,54372,1,2,0:0:0:0:
18,150,54537,1,10,0:0:0:0:
173,239,54701,2,0,B|209:252|244:236|231:234|276:208|318:233,1,140,0|0,0:0|3:0,0:0:0:0:
221,322,55192,1,10,0:0:0:0:
200,164,55356,6,0,P|196:122|198:85,1,70,0|0,3:0|0:0,0:0:0:0:
359,44,55684,1,0,3:0:0:0:
351,129,55848,2,0,L|269:122,1,70,10|0,0:0|0:0,0:0:0:0:
401,243,56176,2,0,P|443:238|485:230,1,70,0|0,3:0|3:0,0:0:0:0:
308,228,56504,1,10,0:0:0:0:
371,358,56668,1,0,0:0:0:0:
246,298,56832,5,4,3:2:0:0:
246,298,57160,2,0,B|183:293|183:293|164:299|164:299|94:294,1,140,10|0,0:0|3:0,0:0:0:0:
227,212,57651,1,0,3:0:0:0:
195,378,57815,1,10,0:0:0:0:
144,215,57979,6,0,B|136:108|136:108|144:89|170:69,1,140,0|0,3:0|3:0,0:0:0:0:
296,170,58471,1,10,0:0:0:0:
296,170,58635,2,0,P|234:180|205:186,1,70,0|0,0:0|3:0,0:0:0:0:
357,85,58963,2,0,P|419:95|448:101,1,70,0|10,3:0|0:0,0:0:0:0:
350,267,59455,6,0,P|292:235|295:169,1,140,4|0,3:2|0:0,0:0:0:0:
295,169,60110,2,0,P|297:235|237:265,1,140,2|0,0:0|0:0,0:0:0:0:
141,221,60602,1,0,0:0:0:0:
141,221,60766,6,0,P|133:175|125:145,1,70,2|2,3:0|3:0,0:0:0:0:
237,265,61094,2,0,P|228:299|223:333,1,70,2|2,3:0|3:0,0:0:0:0:
56,243,61422,1,10,0:0:0:0:
223,185,61586,1,8,0:0:0:0:
114,316,61750,1,10,0:0:0:0:
127,152,61914,1,8,0:0:0:0:
304,215,62078,6,0,P|358:209|402:205,1,83.9999974365235,10|8,0:0|0:0,0:0:0:0:
195,100,62405,1,10,0:0:0:0:
195,100,62487,1,0,0:0:0:0:
195,100,62569,1,8,0:0:0:0:
237,265,62733,5,10,0:0:0:0:
369,123,62897,1,10,0:0:0:0:
463,279,63061,1,2,0:0:0:0:
289,138,63225,6,0,P|282:102|273:65,1,70,14|0,3:2|0:0,0:0:0:0:
297,146,64209,5,0,3:0:0:0:
297,146,64291,1,0,3:0:0:0:
297,146,64373,2,0,P|260:174|279:261,1,125.999996154785,10|0,0:0|0:0,0:0:0:0:
287,266,64701,5,6,3:2:0:0:
178,159,64864,1,0,0:0:0:0:
126,298,65028,2,0,P|114:365|112:390,1,83.9999974365235,10|0,3:2|0:0,0:0:0:0:
219,325,65356,1,2,3:2:0:0:
99,221,65520,1,0,3:0:0:0:
287,266,65684,1,10,0:0:0:0:
30,308,65848,6,0,P|15:214|0:140,1,167.999994873047,4|0,2:0|3:0,0:0:0:0:
106,38,66340,1,10,0:0:0:0:
106,38,66504,2,0,P|92:91|84:139,1,83.9999974365235,0|2,0:0|3:2,0:0:0:0:
277,138,66832,1,0,3:0:0:0:
185,93,66996,1,10,0:0:0:0:
193,195,67160,1,0,0:0:0:0:
378,172,67323,5,6,3:2:0:0:
378,172,67651,2,0,P|455:167|487:166,1,83.9999974365235,10|0,0:0|0:0,0:0:0:0:
272,300,67979,1,2,3:2:0:0:
226,221,68143,1,0,3:0:0:0:
378,290,68307,1,10,0:0:0:0:
237,381,68471,1,0,0:0:0:0:
315,225,68635,6,0,B|333:173|333:173|308:43,1,167.999994873047,2|10,3:2|0:0,0:0:0:0:
421,162,69127,1,0,3:0:0:0:
235,143,69291,2,0,B|158:132|158:132|139:121|139:121|66:113,1,167.999994873047,0|10,0:0|0:0,0:0:0:0:
0,157,69782,1,0,0:0:0:0:
68,273,69946,6,0,B|92:230|92:230|69:107,1,167.999994873047,6|10,3:2|0:0,0:0:0:0:
192,55,70438,1,0,0:0:0:0:
235,143,70602,1,2,3:2:0:0:
275,24,70766,1,0,3:0:0:0:
158,134,70930,2,0,P|168:180|178:232,1,83.9999974365235,10|0,0:0|0:0,0:0:0:0:
290,311,71258,6,0,P|307:261|390:257,1,125.999996154785,2|0,3:2|0:0,0:0:0:0:
394,268,71586,1,10,0:0:0:0:
219,367,71750,2,0,L|49:362,1,167.999994873047,0|0,3:0|3:0,0:0:0:0:
79,186,72241,1,10,0:0:0:0:
116,285,72405,1,0,0:0:0:0:
173,116,72569,6,0,B|131:96|74:130|109:130|54:158|7:139,1,167.999994873047,6|10,3:2|0:0,0:0:0:0:
126,30,73061,2,0,B|168:10|225:44|190:44|245:72|292:53,1,167.999994873047,0|0,0:0|3:0,0:0:0:0:
430,0,73553,1,10,0:0:0:0:
359,96,73717,1,0,0:0:0:0:
455,167,73881,5,6,3:2:0:0:
284,139,74045,1,8,0:0:0:0:
500,49,74209,1,10,0:0:0:0:
500,49,74537,1,8,0:0:0:0:
428,180,74701,6,0,P|437:246|442:298,1,97.9999970092774,4|8,3:2|0:0,0:0:0:0:
440,277,75110,1,8,0:0:0:0:
440,277,75192,1,2,3:2:0:0:
270,228,75356,5,0,0:0:0:0:
330,177,75520,2,0,B|350:215|350:215|342:288,1,83.9999974365235,10|0,0:0|0:0,0:0:0:0:
183,333,75848,1,2,3:2:0:0:
270,228,76012,1,0,3:0:0:0:
312,376,76176,1,10,0:0:0:0:
177,249,76340,6,0,P|127:253|93:257,1,83.9999974365235,0|0,0:0|0:0,0:0:0:0:
183,333,76668,1,0,0:0:0:0:
203,168,76832,1,10,0:0:0:0:
203,168,77159,1,2,3:2:0:0:
144,22,77323,5,0,3:0:0:0:
86,110,77487,1,10,0:0:0:0:
219,60,77651,1,0,0:0:0:0:
22,162,77815,6,0,P|70:151|205:132,1,167.999994873047,6|10,3:2|0:0,0:0:0:0:
308,192,78307,1,0,0:0:0:0:
219,60,78471,1,2,3:2:0:0:
342,117,78635,1,0,3:0:0:0:
187,133,78799,1,10,0:0:0:0:
269,270,78963,6,0,B|326:280|326:280|372:268|372:268|452:290,1,167.999994873047,0|0,3:0|0:0,0:0:0:0:
236,348,79455,2,0,P|189:299|223:202,1,167.999994873047,10|2,0:0|3:2,0:0:0:0:
292,195,79946,1,0,3:0:0:0:
187,133,80110,2,0,B|147:113|147:113|97:118,1,83.9999974365235,10|0,0:0|3:0,0:0:0:0:
64,295,80438,5,6,3:2:0:0:
132,198,80602,1,0,0:0:0:0:
35,300,80766,2,0,L|44:385,1,83.9999974365235,2|0,3:2|0:0,0:0:0:0:
241,290,81094,2,0,P|244:249|249:206,1,83.9999974365235,10|0,0:0|3:0,0:0:0:0:
416,269,81422,1,10,0:0:0:0:
188,359,81586,1,0,3:0:0:0:
334,224,81750,5,6,3:2:0:0:
326,357,81914,1,0,0:0:0:0:
249,207,82078,1,2,3:2:0:0:
416,269,82241,1,0,0:0:0:0:
226,124,82405,2,0,B|156:128|156:128|133:118|133:118|27:122,1,167.999994873047,10|10,0:0|0:0,0:0:0:0:
60,120,83061,5,6,3:2:0:0:
137,209,83225,1,0,0:0:0:0:
181,47,83389,1,8,0:0:0:0:
47,227,83553,2,0,P|74:278|147:301,1,125.999996154785,10|0,0:0|0:0,0:0:0:0:
166,296,83881,1,8,0:0:0:0:
144,122,84045,1,8,0:0:0:0:
271,264,84209,6,0,L|264:323,2,41.9999987182618,8|0|10,0:3|0:0|0:0,0:0:0:0:
306,97,84537,1,10,0:0:0:0:
350,212,84701,1,4,3:3:0:0:
184,219,84864,2,0,B|163:187|163:187|168:124,1,83.9999974365235,10|8,0:0|0:0,0:0:0:0:
356,300,85192,6,0,P|398:317|463:345,1,104.999996795654,6|0,3:2|0:0,0:0:0:0:
475,357,85683,5,6,3:2:0:0:
457,249,85847,1,0,0:0:0:0:
356,300,86011,1,10,0:0:0:0:
457,249,86175,2,0,P|453:191|447:129,1,105,0|0,3:0|0:0,0:0:0:0:
429,121,86504,1,0,0:0:0:0:
258,225,86668,2,0,L|266:315,1,70,10|0,0:0|0:0,0:0:0:0:
117,137,86996,5,2,3:2:0:0:
211,162,87160,1,0,0:0:0:0:
60,205,87323,1,10,0:0:0:0:
174,68,87487,2,0,L|262:78,1,70,0|0,3:0|0:0,0:0:0:0:
141,226,87815,1,0,3:0:0:0:
29,128,87979,1,10,0:0:0:0:
29,128,88307,5,6,3:2:0:0:
90,48,88471,1,0,0:0:0:0:
0,144,88635,1,10,0:0:0:0:
141,226,88799,2,0,P|185:234|239:150,1,140,0|0,3:0|0:0,0:0:0:0:
220,4,89291,1,10,0:0:0:0:
348,121,89455,6,0,L|343:212,1,70,0|2,0:0|3:2,0:0:0:0:
262,83,89782,1,0,3:0:0:0:
421,58,89946,1,10,0:0:0:0:
446,217,90110,2,0,P|391:200|338:190,1,105,0|0,3:0|0:0,0:0:0:0:
308,197,90438,1,0,3:0:0:0:
424,306,90602,2,0,P|475:297|511:287,1,70,10|0,0:0|0:0,0:0:0:0:
233,247,90930,5,6,3:2:0:0:
170,355,91094,1,0,0:0:0:0:
336,331,91258,1,10,0:0:0:0:
153,269,91422,5,0,3:0:0:0:
319,245,91586,1,2,0:0:0:0:
256,353,91750,1,0,3:0:0:0:
228,219,91914,1,10,0:0:0:0:
153,269,92078,6,0,P|108:265|80:259,1,70,0|2,0:0|3:2,0:0:0:0:
35,109,92405,1,0,0:0:0:0:
139,181,92569,1,10,0:0:0:0:
0,177,92733,2,0,L|8:27,1,140,0|0,3:0|3:0,0:0:0:0:
156,42,93225,1,10,0:0:0:0:
156,42,93553,5,6,3:2:0:0:
35,109,93717,1,0,0:0:0:0:
233,137,93881,1,10,0:0:0:0:
112,204,94045,2,0,B|105:162|105:162|128:112,1,83.9999974365235,10|4,0:0|0:3,0:0:0:0:
284,233,94373,1,10,0:0:0:0:
133,293,94537,1,10,0:0:0:0:
344,295,94701,6,0,B|392:298|445:313,1,83.9999974365235,4|8,0:3|0:0,0:0:0:0:
185,363,95028,1,10,0:0:0:0:
233,137,95192,1,8,0:3:0:0:
489,235,95356,5,14,0:0:0:0:
