osu file format v14

[General]
AudioFilename: audio.mp3
AudioLeadIn: 0
PreviewTime: 62519
Countdown: 0
SampleSet: Soft
StackLeniency: 0.5
Mode: 0
LetterboxInBreaks: 0
WidescreenStoryboard: 0

[Editor]
Bookmarks: 17688,28474,39261,47351,50047,55440,63530
DistanceSpacing: 1.3
BeatDivisor: 6
GridSize: 8
TimelineZoom: 2.1

[Metadata]
Title:TriColour Heartbeat
TitleUnicode:三色绘恋
Artist:Duca
ArtistUnicode:Duca
Creator:Log Off Now
Version:Kibb's Insane
Source:三色△绘恋 -Tricolour Lovestory-
Tags:eroge visual novel vn opening yamayuri hl-galgame tricolour lovestory momochikun alphabet kibbleru
BeatmapID:1534844
BeatmapSetID:695676

[Difficulty]
HPDrainRate:6
CircleSize:4
OverallDifficulty:7
ApproachRate:9
SliderMultiplier:1.7
SliderTickRate:1

[Events]
//Background and Video events
0,0,"duca-bg-violet.jpg",0,0
//Break Periods
//Storyboard Layer 0 (Background)
//Storyboard Layer 1 (Fail)
//Storyboard Layer 2 (Pass)
//Storyboard Layer 3 (Foreground)
//Storyboard Sound Samples

[TimingPoints]
160,337.078651685393,4,2,1,30,1,0
160,-166.666666666667,4,2,1,30,0,0
10946,-100,4,2,1,10,0,0
11789,-100,4,2,1,30,0,0
12294,-100,4,2,1,40,0,0
12547,-100,4,2,1,5,0,0
12631,-100,4,2,1,40,0,0
15244,-100,4,2,1,5,0,0
15328,-100,4,2,1,40,0,0
17688,-166.666666666667,4,2,1,25,0,0
28474,-117.647058823529,4,2,1,40,0,0
37912,-100,4,2,1,40,0,0
39261,-142.857142857143,4,2,1,25,0,0
48699,-142.857142857143,4,2,1,35,0,0
50047,-111.111111111111,4,2,1,45,0,0
60665,-100,4,2,1,45,0,0
63530,-100,4,2,1,60,0,1
85103,-125,4,2,1,45,0,0
89148,-166.666666666667,4,2,1,45,0,0
90497,-125,4,2,1,45,0,0
96564,-125,4,2,1,30,0,0
97912,-125,4,2,1,20,0,0
98586,-125,4,2,1,15,0,0
99261,-125,4,2,1,10,0,0
99935,-125,4,2,1,5,0,0

[Colours]
Combo1 : 113,113,255
Combo2 : 105,105,105
Combo3 : 201,201,201
Combo4 : 207,168,114

[HitObjects]
81,27,160,6,0,P|155:24|208:77,1,152.999995330811,2|2,0:0|0:0,0:0:0:0:
158,151,1002,1,2,0:0:0:0:
446,221,1508,2,0,P|390:214|327:204,1,101.999996887207,2|0,0:0|0:0,0:0:0:0:
253,164,2013,2,0,L|262:279,1,101.999996887207,2|0,0:0|0:0,0:0:0:0:
6,201,2856,5,2,0:0:0:0:
62,267,3025,2,0,P|87:271|112:276,1,50.9999984436036,0|0,0:0|0:0,0:0:0:0:
110,134,3362,2,0,L|210:118,1,101.999996887207,2|0,0:0|0:0,0:0:0:0:
483,251,4204,2,0,P|421:248|367:227,1,101.999996887207,2|0,0:0|0:0,0:0:0:0:
300,192,4710,2,0,L|291:312,1,101.999996887207,2|0,0:0|0:0,0:0:0:0:
386,142,5216,1,0,0:0:0:0:
16,148,5553,6,0,P|76:144|154:216,1,152.999995330811,2|2,0:0|0:0,0:0:0:0:
105,280,6395,1,2,0:0:0:0:
429,77,6901,2,0,P|380:91|329:91,1,101.999996887207,2|0,0:0|0:0,0:0:0:0:
236,62,7407,2,0,L|253:180,1,101.999996887207,2|0,0:0|0:0,0:0:0:0:
264,250,7912,1,2,0:0:0:0:
92,349,8249,6,0,P|127:283|113:210,1,152.999995330811,2|0,0:0|0:0,0:0:0:0:
65,143,8924,1,2,0:0:0:0:
75,62,9092,1,0,0:0:0:0:
144,18,9261,1,2,0:0:0:0:
223,32,9429,1,0,0:0:0:0:
255,107,9598,1,2,0:0:0:0:
364,70,11789,5,8,3:1:0:0:
416,302,11957,1,8,3:1:0:0:
177,134,12294,6,0,P|242:129|345:174,1,170,14|8,0:1|0:1,0:0:0:0:
441,141,12800,2,0,P|459:92|461:41,1,85,0|8,0:0|0:1,0:0:0:0:
239,239,13137,2,0,P|221:288|219:339,1,85,2|8,0:0|0:1,0:0:0:0:
336,261,13474,5,2,0:0:0:0:
158,163,13643,1,0,0:0:0:0:
352,59,13811,1,0,0:0:0:0:
240,76,13980,2,0,L|121:63,1,85,8|2,0:1|0:0,0:0:0:0:
278,174,14317,5,8,0:1:0:0:
460,109,14485,1,10,0:0:0:0:
278,174,14654,1,8,0:1:0:0:
385,288,14822,2,0,P|385:245|392:203,1,85,12|10,0:0|0:1,0:0:0:0:
191,104,15159,5,0,0:0:0:0:
278,174,15328,1,8,0:1:0:0:
199,250,15497,2,0,L|191:349,1,85,0|8,0:0|0:1,0:0:0:0:
108,120,15834,2,0,P|150:115|190:103,1,85,0|8,0:0|0:1,0:0:0:0:
301,305,16171,6,0,P|343:309|383:321,1,85,10|8,0:0|0:1,0:0:0:0:
491,82,16508,5,12,0:0:0:0:
368,214,16676,1,8,0:0:0:0:
301,103,16845,1,8,0:3:0:0:
232,191,17013,2,0,L|132:203,1,85,8|4,0:3|0:3,0:0:0:0:
493,132,17351,2,0,L|393:120,2,85,8|8|2,0:1|0:0|0:0,0:0:0:0:
273,132,18362,6,0,P|348:135|410:178,1,152.999995330811,2|0,0:0|0:0,0:0:0:0:
374,355,19035,2,0,P|358:308|356:255,1,101.999996887207,2|0,0:0|0:0,0:0:0:0:
161,308,19710,1,2,0:0:0:0:
251,243,20047,1,0,0:0:0:0:
153,89,20384,6,0,P|163:138|168:189,1,101.999996887207,2|0,0:0|0:0,0:0:0:0:
51,305,20890,2,0,P|57:280|61:255,1,50.9999984436036,2|0,0:0|0:0,0:0:0:0:
73,162,21227,1,0,0:0:0:0:
51,305,21733,5,0,0:0:0:0:
51,305,21901,2,0,P|75:299|101:296,1,50.9999984436036,0|0,0:0|0:0,0:0:0:0:
165,120,22238,1,2,0:0:0:0:
218,190,22407,2,0,P|242:195|268:198,1,50.9999984436036,0|0,0:0|0:0,0:0:0:0:
347,153,22744,1,2,0:0:0:0:
480,250,23081,6,0,P|406:244|347:290,1,152.999995330811,2|2,0:0|0:0,0:0:0:0:
399,365,24092,1,2,0:0:0:0:
114,140,24429,2,0,L|235:132,1,101.999996887207,2|0,0:0|0:0,0:0:0:0:
285,196,24935,1,2,0:0:0:0:
475,117,25440,2,0,L|480:66,1,50.9999984436036,2|0,0:0|0:0,0:0:0:0:
378,43,25777,6,0,L|383:160,1,101.999996887207,2|0,0:0|0:0,0:0:0:0:
388,232,26283,1,2,0:0:0:0:
388,232,26620,1,0,0:0:0:0:
298,190,26789,1,2,0:0:0:0:
472,183,26957,1,0,0:0:0:0:
394,324,27126,5,2,0:0:0:0:
139,164,27631,1,2,0:0:0:0:
139,164,27800,5,0,0:0:0:0:
201,225,27968,1,0,0:0:0:0:
261,164,28137,2,0,L|353:152,1,76.4999976654053,0|0,0:0|0:0,0:0:0:0:
359,135,28474,6,0,L|349:206,1,72.2500013780594,12|0,0:1|0:0,0:0:0:0:
448,184,28811,1,8,0:1:0:0:
331,299,28980,1,0,0:0:0:0:
403,54,29148,2,0,P|346:95|275:100,1,144.500002756119,8|8,0:1|0:1,0:0:0:0:
59,80,29654,1,0,0:0:0:0:
59,80,29738,1,0,0:0:0:0:
59,80,29822,6,0,L|169:64,1,108.375002067089,8|0,0:1|0:0,0:0:0:0:
186,51,30159,2,0,P|175:85|174:126,1,72.2500013780594,8|0,0:1|0:0,0:0:0:0:
287,321,30497,2,0,P|297:286|299:246,1,72.2500013780594,0|0,0:1|0:0,0:0:0:0:
258,168,30834,1,8,0:0:0:0:
258,168,31171,6,0,P|313:134|409:144,1,144.500002756119,12|8,0:1|0:1,0:0:0:0:
175,221,31676,2,0,P|167:187|164:151,1,72.2500013780594,8|8,0:0|0:1,0:0:0:0:
213,74,32013,1,0,0:0:0:0:
145,14,32182,1,8,0:0:0:0:
342,221,32351,6,0,L|332:306,1,72.2500013780594,12|8,0:0|0:1,0:0:0:0:
70,298,32688,1,8,0:0:0:0:
70,298,32772,1,0,0:0:0:0:
70,298,32856,2,0,L|78:226,1,72.2500013780594,8|0,0:0|0:0,0:0:0:0:
147,38,33193,1,8,0:1:0:0:
178,123,33362,1,0,0:0:0:0:
86,112,33530,1,8,0:0:0:0:
242,51,33699,1,12,0:0:0:0:
308,197,33867,6,0,P|366:197|436:131,1,144.500002756119,8|8,0:1|0:1,0:0:0:0:
403,273,34373,2,0,P|395:308|392:344,1,72.2500013780594,0|8,0:0|0:1,0:0:0:0:
212,176,34710,2,0,P|219:211|222:247,1,72.2500013780594,0|8,0:0|0:1,0:0:0:0:
169,318,35047,1,0,0:0:0:0:
169,318,35131,1,0,0:0:0:0:
169,318,35216,1,0,0:0:0:0:
397,62,35553,5,8,0:1:0:0:
332,136,35721,1,0,0:0:0:0:
424,153,35890,1,8,0:1:0:0:
236,63,36058,5,8,0:1:0:0:
371,227,36227,1,8,0:0:0:0:
176,255,36395,1,8,0:1:0:0:
332,136,36564,6,0,L|452:124,1,108.375002067089,12|0,0:1|0:0,0:0:0:0:
439,125,36901,1,0,0:0:0:0:
376,76,37070,1,0,0:0:0:0:
292,96,37238,5,8,0:0:0:0:
237,172,37407,1,8,0:0:0:0:
137,187,37575,1,8,0:0:0:0:
55,115,37744,1,12,0:0:0:0:
55,115,38081,5,8,0:1:0:0:
208,263,38249,1,8,0:0:0:0:
148,90,38586,6,0,P|142:117|140:146,2,56.6666666666667,8|8|8,0:0|0:0|0:0,0:0:0:0:
119,297,38924,2,0,P|116:268|111:240,2,56.6666666666667,4|4|4,0:3|0:3|0:3,0:0:0:0:
30,204,39261,1,4,0:0:0:0:
30,204,39598,6,0,L|112:216,1,59.4999981842042,0|0,0:0|0:0,0:0:0:0:
172,214,39935,2,0,L|254:202,1,59.4999981842042,0|0,0:0|0:0,0:0:0:0:
312,223,40272,1,0,0:0:0:0:
364,158,40440,1,0,0:0:0:0:
316,89,40609,5,0,0:0:0:0:
312,223,40777,2,0,L|319:355,1,118.999996368408,0|0,0:0|0:0,0:0:0:0:
401,294,41283,1,2,0:0:0:0:
221,184,41620,1,2,0:0:0:0:
422,94,41957,1,2,0:0:0:0:
422,94,42294,6,0,L|350:102,1,59.4999981842042,0|0,0:0|0:0,0:0:0:0:
280,115,42631,2,0,L|142:94,1,118.999996368408,0|0,0:0|0:0,0:0:0:0:
88,135,43137,1,0,0:0:0:0:
181,15,43306,5,0,0:0:0:0:
164,182,43474,2,0,P|173:240|177:300,1,118.999996368408,0|0,0:0|0:0,0:0:0:0:
122,363,43980,1,2,0:0:0:0:
258,229,44317,1,2,0:0:0:0:
61,144,44654,1,2,0:0:0:0:
70,160,44991,6,0,L|199:177,1,118.999996368408,0|0,0:0|0:0,0:0:0:0:
262,213,45497,1,0,0:0:0:0:
331,166,45665,1,0,0:0:0:0:
411,187,45834,1,0,0:0:0:0:
431,267,46002,1,0,0:0:0:0:
309,144,46171,6,0,P|289:92|301:8,1,118.999996368408
501,22,46845,1,0,0:0:0:0:
414,54,47013,2,0,P|405:82|399:111,1,59.4999981842042
459,217,47351,6,0,B|402:185|346:209|364:260|309:293|247:263,1,237.999992736817,2|2,0:0|0:0,0:0:0:0:
62,55,48699,2,0,P|81:112|83:171,1,118.999996368408,2|0,0:0|0:0,0:0:0:0:
38,328,49204,5,0,0:0:0:0:
43,313,49289,1,0,0:0:0:0:
48,299,49373,2,0,L|146:288,1,89.2499972763062,10|0,0:0|0:0,0:0:0:0:
152,287,49710,1,0,0:0:0:0:
214,122,49878,1,8,0:0:0:0:
199,116,49962,1,8,0:0:0:0:
184,110,50047,6,0,L|196:215,1,76.4999976654053,4|0,0:0|0:0,0:0:0:0:
355,322,50384,1,8,0:1:0:0:
253,363,50553,2,0,P|266:287|300:219,1,152.999995330811,8|8,0:0|3:1,0:0:0:0:
432,90,51058,6,0,P|358:114|282:118,1,152.999995330811,12|8,0:0|0:1,0:0:0:0:
215,54,51564,2,0,L|132:42,1,76.4999976654053,8|0,0:0|0:0,0:0:0:0:
89,126,51901,1,8,3:1:0:0:
206,185,52070,2,0,P|190:219|178:258,1,76.4999976654053,12|8,0:0|0:1,0:0:0:0:
222,336,52407,1,8,0:3:0:0:
105,140,52575,1,8,0:1:0:0:
292,256,52744,6,0,P|360:260|446:221,1,152.999995330811,12|8,0:0|0:1,0:0:0:0:
383,81,53249,2,0,P|373:117|369:155,1,76.4999976654053,8|0,0:0|0:0,0:0:0:0:
463,134,53586,1,8,3:1:0:0:
270,332,53755,6,0,P|270:255|235:185,1,152.999995330811,12|8,0:0|0:1,0:0:0:0:
152,140,54261,2,0,L|76:129,1,76.4999976654053,8|8,0:0|0:0,0:0:0:0:
157,235,54598,1,8,0:1:0:0:
93,308,54766,2,0,L|1:321,1,76.4999976654053,12|8,0:0|0:1,0:0:0:0:
157,235,55103,1,8,0:3:0:0:
239,275,55272,1,8,0:1:0:0:
321,314,55440,6,0,L|422:325,1,76.4999976654053,12|8,0:0|0:1,0:0:0:0:
464,262,55777,1,8,0:1:0:0:
157,235,55946,2,0,P|118:238|77:250,1,76.4999976654053,12|8,0:0|0:1,0:0:0:0:
19,323,56283,1,8,0:1:0:0:
340,208,56452,6,0,P|376:151|372:50,1,152.999995330811,12|8,0:0|0:1,0:0:0:0:
370,53,56873,1,8,0:1:0:0:
359,41,56957,1,8,0:0:0:0:
169,118,57126,2,0,L|159:65,2,38.2499988327027,8|8|4,0:3|0:3|0:3,0:0:0:0:
166,133,57379,1,8,0:1:0:0:
164,148,57463,2,0,L|88:160,1,76.4999976654053,12|0,0:0|0:0,0:0:0:0:
235,214,57800,1,8,0:0:0:0:
312,161,57968,1,0,0:0:0:0:
385,237,58137,6,0,L|393:330,1,76.4999976654053,12|0,0:1|0:0,0:0:0:0:
458,168,58474,2,0,L|469:92,1,76.4999976654053,8|0,0:1|0:0,0:0:0:0:
312,161,58811,2,0,P|251:164|170:236,1,152.999995330811,8|8,0:0|0:1,0:0:0:0:
171,305,59317,1,2,0:3:0:0:
178,104,59485,1,8,0:1:0:0:
272,262,59654,5,0,0:0:0:0:
98,156,59822,1,8,0:1:0:0:
265,156,59991,1,0,0:0:0:0:
171,305,60159,6,0,P|169:266|166:228,1,76.4999976654053,8|8,0:1|0:0,0:0:0:0:
229,15,60497,1,8,0:0:0:0:
92,61,60665,6,0,B|157:70|157:70|181:101|181:101|247:111,1,170,12|8,0:1|0:1,0:0:0:0:
311,195,61171,1,8,0:0:0:0:
408,126,61339,1,2,0:0:0:0:
411,109,61424,1,2,0:0:0:0:
414,92,61508,1,2,0:0:0:0:
205,205,61676,1,2,0:0:0:0:
205,205,61761,1,2,0:0:0:0:
205,205,61845,2,0,L|210:263,1,42.5,2|0,0:0|0:0,0:0:0:0:
218,355,62013,1,10,0:0:0:0:
178,54,63530,6,0,B|115:47|115:47|83:76|73:143,1,170,14|8,0:1|0:0,0:0:0:0:
176,241,64036,2,0,L|168:156,1,85,2|8,0:0|0:1,0:0:0:0:
257,113,64373,1,10,0:1:0:0:
100,310,64542,1,8,0:0:0:0:
268,206,64710,6,0,B|351:189|344:253|429:242,1,170,10|8,0:1|0:1,0:0:0:0:
406,144,65216,2,0,P|430:91|434:36,1,85,10|0,0:0|0:0,0:0:0:0:
291,294,65553,2,0,P|286:337|291:378,1,85,10|8,0:1|0:1,0:0:0:0:
183,149,65890,2,0,P|162:95|137:63,1,85,10|0,0:0|0:0,0:0:0:0:
2,206,66227,6,0,P|86:207|145:267,1,170,10|8,0:1|0:0,0:0:0:0:
126,355,66733,1,2,0:0:0:0:
214,185,66901,1,8,0:1:0:0:
40,294,67070,1,10,0:1:0:0:
225,323,67238,1,8,0:0:0:0:
192,92,67407,6,0,B|144:96|144:96|110:144|123:231,1,170,10|8,0:1|0:1,0:0:0:0:
316,351,67912,1,8,0:0:0:0:
323,255,68081,2,0,L|331:147,1,85,0|8,0:1|0:1,0:0:0:0:
379,91,68418,1,10,0:1:0:0:
228,187,68586,1,10,0:0:0:0:
426,213,68755,1,2,0:0:0:0:
387,2,68924,6,0,P|333:62|246:67,1,170,10|8,0:1|0:0,0:0:0:0:
69,110,69429,2,0,P|53:70|51:28,1,85,2|8,0:0|0:1,0:0:0:0:
9,198,69766,1,10,0:1:0:0:
145,52,69935,1,8,0:0:0:0:
110,203,70103,6,0,B|173:212|173:212|205:249|205:249|261:259,1,170,10|8,0:1|0:1,0:0:0:0:
336,209,70609,1,10,0:0:0:0:
222,341,70777,1,0,0:0:0:0:
257,158,70946,5,10,0:1:0:0:
329,330,71115,1,8,0:1:0:0:
119,298,71283,2,0,L|28:318,1,85,10|8,0:0|0:1,0:0:0:0:
220,71,71620,6,0,P|302:82|357:144,1,170,14|8,0:0|0:1,0:0:0:0:
215,334,72126,2,0,L|243:190,1,127.5,8|0,0:0|0:0,0:0:0:0:
249,188,72463,2,0,P|207:194|164:197,1,85,2|8,0:1|0:0,0:0:0:0:
28,55,72800,6,0,B|116:42|101:108|186:97,1,170,14|8,0:1|0:1,0:0:0:0:
276,149,73306,2,0,P|278:106|286:64,1,85,10|0,0:0|0:0,0:0:0:0:
210,9,73643,1,10,0:1:0:0:
373,98,73811,1,0,0:0:0:0:
198,195,73980,1,10,0:0:0:0:
412,13,74148,1,8,0:0:0:0:
412,13,74233,1,8,0:0:0:0:
412,13,74317,6,0,L|419:185,1,170,10|8,0:1|0:0,0:0:0:0:
269,329,74822,2,0,P|279:278|282:238,1,85,2|8,0:0|0:1,0:0:0:0:
225,163,75159,1,2,0:0:0:0:
366,294,75328,1,8,0:0:0:0:
183,279,75497,1,2,0:0:0:0:
183,279,75581,1,0,0:0:0:0:
183,279,75665,5,8,0:1:0:0:
321,163,75834,1,0,0:0:0:0:
132,194,76002,2,0,L|31:183,1,85,10|0,0:0|0:0,0:0:0:0:
135,368,76339,2,0,P|185:319|283:312,1,170,10|10,0:1|0:0,0:0:0:0:
459,136,77013,6,0,P|459:184|449:228,1,85,10|2,0:1|0:0,0:0:0:0:
303,212,77351,1,10,0:0:0:0:
381,365,77519,2,0,L|373:280,1,85,2|8,0:0|0:1,0:0:0:0:
240,57,77856,2,0,L|232:141,1,85,2|8,0:0|0:0,0:0:0:0:
46,316,78193,1,2,0:0:0:0:
46,316,78277,1,0,0:0:0:0:
46,316,78362,6,0,P|99:251|105:168,1,170,8|10,0:1|0:0,0:0:0:0:
203,261,78867,1,0,0:0:0:0:
2,109,79036,2,0,P|7:151|11:193,1,85,10|0,0:1|0:0,0:0:0:0:
180,129,79373,1,10,0:0:0:0:
94,280,79542,1,8,0:0:0:0:
103,72,79710,6,0,B|193:63|177:120|263:114,1,170,12|8,0:1|0:0,0:0:0:0:
344,56,80216,2,0,P|355:98|357:140,1,85,0|8,0:0|0:1,0:0:0:0:
306,346,80553,2,0,P|295:304|293:262,1,85,0|8,0:0|0:1,0:0:0:0:
211,212,80890,6,0,L|96:226,1,85,8|10,0:0|0:1,0:0:0:0:
133,315,81227,1,0,0:0:0:0:
22,182,81395,2,0,L|40:297,1,85,10|0,0:0|0:0,0:0:0:0:
140,126,81733,5,10,0:1:0:0:
40,356,81901,1,0,0:0:0:0:
224,307,82070,2,0,P|266:311|310:329,1,85,10|0,0:1|0:0,0:0:0:0:
288,187,82407,6,0,B|206:172|216:237|126:225,1,170,8|12,0:1|0:0,0:0:0:0:
41,111,82912,1,8,0:1:0:0:
43,127,82997,1,8,0:1:0:0:
45,143,83081,1,8,0:1:0:0:
221,342,83249,1,8,0:3:0:0:
222,333,83334,1,8,0:3:0:0:
223,324,83418,1,4,0:3:0:0:
224,315,83502,1,4,0:3:0:0:
225,306,83586,1,12,0:0:0:0:
409,143,83924,5,8,0:1:0:0:
405,159,84008,1,8,0:1:0:0:
401,175,84092,2,0,B|341:168|341:168|309:141|309:141|241:132,1,170,12|8,0:0|0:3,0:0:0:0:
176,187,84598,1,8,0:3:0:0:
92,171,84766,1,4,0:3:0:0:
60,92,84935,1,8,0:1:0:0:
25,311,85103,6,0,P|62:281|149:272,1,136,12|8,0:1|0:1,0:0:0:0:
223,329,85609,1,8,0:1:0:0:
304,294,85777,2,0,P|318:259|323:221,2,68,8|0|0,0:0|0:0|0:0,0:0:0:0:
442,133,86452,5,8,0:1:0:0:
374,76,86620,2,0,L|293:67,1,68,8|8,0:0|0:1,0:0:0:0:
267,209,86957,1,8,0:1:0:0:
193,258,87126,2,0,L|112:267,2,68,8|8|0,0:0|0:1|0:0,0:0:0:0:
457,366,87800,6,0,P|423:321|429:215,1,136,8|8,0:1|0:1,0:0:0:0:
482,183,88306,1,8,0:1:0:0:
436,105,88474,2,0,P|403:98|370:94,1,68,8|8,0:0|0:1,0:0:0:0:
216,228,88811,2,0,P|249:224|282:216,1,68,8|0,0:0|0:0,0:0:0:0:
290,205,89064,1,0,0:0:0:0:
297,193,89148,6,0,L|286:294,1,101.999996887207,12|8,0:1|0:0,0:0:0:0:
62,115,89822,2,0,L|72:216,1,101.999996887207,2|2,0:0|0:0,0:0:0:0:
8,49,90497,6,0,P|62:77|140:86,1,136,14|10,0:1|0:1,0:0:0:0:
213,128,91002,1,8,0:1:0:0:
290,85,91171,1,10,0:0:0:0:
365,129,91339,2,0,P|378:179|377:212,1,68,8|0,0:1|0:0,0:0:0:0:
330,269,91676,1,2,0:0:0:0:
459,138,91845,5,8,0:1:0:0:
281,184,92013,2,0,L|204:177,1,68,8|10,0:0|0:1,0:0:0:0:
147,238,92351,1,8,0:1:0:0:
62,81,92519,2,0,P|70:114|74:147,1,68,14|0,0:0|0:0,0:0:0:0:
73,161,92772,1,0,0:0:0:0:
70,174,92856,1,4,0:3:0:0:
236,314,93025,5,8,0:1:0:0:
234,300,93109,1,8,0:1:0:0:
232,286,93193,1,12,0:1:0:0:
151,370,93362,1,8,0:1:0:0:
315,226,93530,1,8,0:0:0:0:
162,212,93699,2,0,L|78:196,1,68,8|8,0:1|0:0,0:0:0:0:
348,312,94036,2,0,L|443:305,1,68,8|8,0:1|0:1,0:0:0:0:
242,342,94373,6,0,B|247:288|247:288|262:259|262:259|266:210,1,136,12|8,0:0|0:3,0:0:0:0:
220,134,94879,1,10,0:1:0:0:
296,91,95047,1,8,0:0:0:0:
190,20,95216,5,10,0:0:0:0:
316,101,95384,1,8,0:0:0:0:
156,208,95553,1,10,0:0:0:0:
367,284,95721,1,8,0:0:0:0:
256,192,96564,6,0,L|253:223,3,22.6666666666667,0|0|0|2,0:0|0:0|0:0|0:0,0:0:0:0:
256,192,96817,12,0,99935,0:0:0:0:
