osu file format v14

[General]
AudioFilename: audio.mp3
AudioLeadIn: 0
PreviewTime: 62519
Countdown: 0
SampleSet: Soft
StackLeniency: 0.3
Mode: 0
LetterboxInBreaks: 0
WidescreenStoryboard: 0

[Editor]
Bookmarks: 17688,33800,41890,44579,55365,63530
DistanceSpacing: 1.3
BeatDivisor: 4
GridSize: 16
TimelineZoom: 1

[Metadata]
Title:TriColour Heartbeat
TitleUnicode:三色绘恋
Artist:Duca
ArtistUnicode:Duca
Creator:Log Off Now
Version:Mochi's Hard
Source:三色△绘恋 -Tricolour Lovestory-
Tags:eroge visual novel vn opening yamayuri hl-galgame tricolour lovestory momochikun alphabet kibbleru
BeatmapID:1473890
BeatmapSetID:695676

[Difficulty]
HPDrainRate:5.5
CircleSize:4
OverallDifficulty:6
ApproachRate:7.5
SliderMultiplier:1.4
SliderTickRate:1

[Events]
//Background and Video events
0,0,"duca-bg-violet.jpg",0,0
//Break Periods
2,9798,10964
//Storyboard Layer 0 (Background)
//Storyboard Layer 1 (Fail)
//Storyboard Layer 2 (Pass)
//Storyboard Layer 3 (Foreground)
//Storyboard Sound Samples

[TimingPoints]
160,337.078651685393,4,2,1,30,1,0
160,-111.111111111111,4,2,1,30,0,0
10946,-100,4,2,1,10,0,0
11789,-100,4,2,1,30,0,0
12294,-100,4,2,1,40,0,0
17688,-105.263157894737,4,2,1,25,0,0
28474,-100,4,2,1,40,0,0
39261,-111.111111111111,4,2,1,25,0,0
48699,-111.111111111111,4,2,1,35,0,0
50047,-100,4,2,1,45,0,0
63530,-100,4,2,1,55,0,1
73643,-100,4,2,1,45,0,0
74317,-100,4,2,1,55,0,1
85103,-100,4,2,1,45,0,0
96564,-100,4,2,1,30,0,0
97912,-100,4,2,1,20,0,0
98586,-100,4,2,1,15,0,0
99261,-100,4,2,1,10,0,0
99935,-100,4,2,1,5,0,0

[Colours]
Combo1 : 113,113,255
Combo2 : 105,105,105
Combo3 : 201,201,201
Combo4 : 207,168,114

[HitObjects]
256,80,160,6,0,P|216:86|181:111,1,62.9999980773926,2|0,0:0|0:0,0:0:0:0:
128,44,497,1,0,0:0:0:0:
128,44,665,2,0,L|102:180,1,125.999996154785,2|2,0:0|0:0,0:0:0:0:
121,254,1171,2,0,P|86:199|9:186,2,125.999996154785,0|2|0,0:0|0:0|0:0,0:0:0:0:
173,324,2013,2,0,B|219:324|219:324|248:311|248:311|296:311,1,125.999996154785,2|0,0:0|0:0,0:0:0:0:
374,352,2519,2,0,L|389:291,1,62.9999980773926,2|0,0:0|0:0,0:0:0:0:
463,243,2856,6,0,P|399:251|343:207,1,125.999996154785,2|0,0:0|0:0,0:0:0:0:
305,141,3362,2,0,P|369:133|425:177,1,125.999996154785,2|0,0:0|0:0,0:0:0:0:
350,218,3867,2,0,L|214:243,2,125.999996154785,0|2|0,0:0|0:0|0:0,0:0:0:0:
414,278,4710,1,2,0:0:0:0:
414,278,4879,2,0,L|475:266,2,62.9999980773926,0|0|0,0:0|0:0|0:0,0:0:0:0:
256,234,5553,6,0,B|187:248|187:248|168:266|165:313,1,125.999996154785,2|0,0:0|0:0,0:0:0:0:
101,357,6058,1,2,0:0:0:0:
101,357,6395,1,2,0:0:0:0:
16,330,6564,2,0,P|10:297|19:261,1,62.9999980773926,0|0,0:0|0:0,0:0:0:0:
83,211,6901,2,0,P|90:149|46:102,1,125.999996154785,2|0,0:0|0:0,0:0:0:0:
0,161,7407,2,0,L|30:30,1,125.999996154785,2|0,0:0|0:0,0:0:0:0:
108,22,7912,1,2,0:0:0:0:
189,35,8081,1,0,0:0:0:0:
234,102,8249,5,2,0:0:0:0:
331,295,8755,2,0,P|366:305|401:302,1,62.9999980773926,0|2,0:0|0:0,0:0:0:0:
426,221,9092,2,0,P|457:203|480:176,1,62.9999980773926,0|2,0:0|0:0,0:0:0:0:
475,101,9429,1,0,0:0:0:0:
417,41,9598,1,2,0:0:0:0:
486,272,11789,5,8,3:1:0:0:
460,161,11957,1,8,3:1:0:0:
460,161,12294,6,0,P|390:165|316:204,1,140,12|8,0:1|0:1,0:0:0:0:
244,232,12800,1,0,0:0:0:0:
179,167,12968,2,0,P|138:161|110:140,1,70,8|2,0:1|0:0,0:0:0:0:
144,65,13306,1,8,0:1:0:0:
256,96,13474,6,0,B|342:76|342:76|372:92|386:123,1,140,2|0,0:0|0:0,0:0:0:0:
449,188,13980,2,0,P|438:238|431:265,1,70,8|2,0:1|0:0,0:0:0:0:
334,314,14317,2,0,P|323:264|316:237,1,70,8|10,0:1|0:0,0:0:0:0:
193,245,14654,2,0,P|185:279|178:314,1,70,8|12,0:1|0:0,0:0:0:0:
78,257,14991,6,0,P|70:223|63:188,1,70,12|0,0:1|0:0,0:0:0:0:
110,111,15328,2,0,P|163:126|259:111,1,140,8|8,0:1|0:1,0:0:0:0:
321,64,15834,2,0,P|357:51|401:58,1,70,0|8,0:0|0:1,0:0:0:0:
405,162,16171,6,0,P|369:175|325:168,1,70,10|8,0:0|0:1,0:0:0:0:
245,139,16508,1,12,0:0:0:0:
148,156,16676,1,8,0:0:0:0:
106,244,16845,2,0,L|111:331,1,70,8|8,0:3|0:3,0:0:0:0:
226,359,17182,2,0,L|221:289,2,70,4|8|8,0:3|0:1|0:0,0:0:0:0:
330,327,17688,6,0,P|388:336|442:275,2,132.999996448517,2|0|0,0:0|0:0|0:0,0:0:0:0:
330,327,18699,1,0,0:0:0:0:
276,251,18867,1,0,0:0:0:0:
183,239,19036,6,0,P|159:275|152:313,2,66.4999982242585,2|0|0,0:0|0:0|0:0,0:0:0:0:
238,171,19542,1,2,0:0:0:0:
238,171,19710,2,0,L|94:215,1,132.999996448517,2|0,0:0|0:0,0:0:0:0:
193,57,20384,6,0,P|260:44|323:91,1,132.999996448517,2|0,0:0|0:0,0:0:0:0:
416,32,20890,2,0,L|398:174,1,132.999996448517,2|0,0:0|0:0,0:0:0:0:
315,246,21395,2,0,L|306:180,1,66.4999982242585,2|2,0:0|0:0,0:0:0:0:
230,222,21733,6,0,P|188:232|102:204,1,132.999996448517,0|0,0:0|0:0,0:0:0:0:
12,197,22238,1,2,0:0:0:0:
88,128,22407,2,0,L|75:55,1,66.4999982242585,0|0,0:0|0:0,0:0:0:0:
12,197,22744,2,0,L|23:262,1,66.4999982242585,2|0,0:0|0:0,0:0:0:0:
98,328,23081,5,2,0:0:0:0:
98,328,23586,2,0,B|144:311|144:311|183:324|183:324|249:306,1,132.999996448517,2|0,0:0|0:0,0:0:0:0:
277,251,24092,2,0,P|249:235|214:234,1,66.4999982242585,2|0,0:0|0:0,0:0:0:0:
305,353,24429,6,0,P|353:338|374:239,1,132.999996448517,2|0,0:0|0:0,0:0:0:0:
334,194,24935,2,0,B|267:223|264:172|174:217,1,132.999996448517,2|0,0:0|0:0,0:0:0:0:
120,180,25440,1,2,0:0:0:0:
141,263,25609,1,0,0:0:0:0:
187,127,25777,6,0,P|213:72|185:-6,1,132.999996448517,2|0,0:0|0:0,0:0:0:0:
194,5,26283,2,0,L|336:36,1,132.999996448517,2|0,0:0|0:0,0:0:0:0:
404,87,26789,2,0,P|424:117|426:162,1,66.4999982242585,2|0,0:0|0:0,0:0:0:0:
473,240,27126,6,0,P|423:249|350:203,1,132.999996448517,2|0,0:0|0:0,0:0:0:0:
273,179,27631,1,2,0:0:0:0:
191,208,27800,2,0,L|114:222,2,66.4999982242585,0|0|0,0:0|0:0|0:0,0:0:0:0:
308,316,28474,6,0,P|359:281|346:200,1,140,12|8,0:1|0:1,0:0:0:0:
311,136,28980,1,0,0:0:0:0:
363,70,29148,2,0,P|305:104|223:90,1,140,8|8,0:1|0:1,0:0:0:0:
159,58,29654,1,0,0:0:0:0:
77,76,29822,6,0,P|64:115|70:152,1,70,8|0,0:1|0:0,0:0:0:0:
0,217,30159,2,0,P|27:247|62:261,1,70,8|0,0:1|0:0,0:0:0:0:
105,343,30497,2,0,P|174:318|262:318,1,140,8|8,0:1|0:0,0:0:0:0:
334,280,31002,5,0,0:0:0:0:
334,280,31086,1,0,0:0:0:0:
334,280,31171,2,0,L|323:353,2,70,12|0|8,0:1|0:0|0:1,0:0:0:0:
246,237,31676,2,0,P|231:175|302:119,1,140,8|0,0:0|0:0,0:0:0:0:
370,149,32182,1,8,0:0:0:0:
346,62,32351,6,0,B|306:31|244:40|244:40|198:-1,1,140,4|8,0:0|0:0,0:0:0:0:
141,48,32856,2,0,L|72:80,1,70,8|0,0:0|0:0,0:0:0:0:
134,153,33193,2,0,L|111:238,1,70,8|0,0:1|0:0,0:0:0:0:
169,293,33530,1,8,0:0:0:0:
257,313,33699,1,12,0:0:0:0:
339,275,33867,6,0,P|402:285|470:216,1,140,8|8,0:1|0:1,0:0:0:0:
410,165,34373,2,0,P|403:130|420:86,2,70,0|8|0,0:0|0:1|0:0,0:0:0:0:
494,130,34879,1,8,0:1:0:0:
410,165,35047,6,0,P|370:172|329:155,1,70,0|8,0:0|0:1,0:0:0:0:
256,80,35384,1,0,0:0:0:0:
256,80,35553,2,0,P|216:73|175:90,1,70,8|0,0:1|0:0,0:0:0:0:
119,141,35890,1,8,0:1:0:0:
99,229,36058,1,8,0:1:0:0:
160,296,36227,2,0,L|236:281,1,70,8|8,0:0|0:1,0:0:0:0:
371,339,36564,6,0,L|233:366,1,140,12|0,0:1|0:0,0:0:0:0:
160,296,37070,1,0,0:0:0:0:
58,324,37238,1,8,0:0:0:0:
58,324,37407,1,8,0:0:0:0:
92,236,37575,1,8,0:0:0:0:
206,202,37744,6,0,P|229:143|197:63,1,140,4|8,0:0|0:1,0:0:0:0:
314,21,38249,2,0,P|305:63|315:105,1,70,8|0,0:0|0:0,0:0:0:0:
397,160,38586,2,0,L|387:223,2,46.6666666666667,8|8|8,0:0|0:0|0:0,0:0:0:0:
471,226,38924,2,0,L|461:289,2,46.6666666666667,4|4|4,0:3|0:3|0:3,0:0:0:0:
484,149,39261,5,4,0:0:0:0:
484,149,39598,2,0,P|489:117|477:78,1,62.9999980773926,0|0,0:0|0:0,0:0:0:0:
417,36,39935,1,0,0:0:0:0:
335,46,40103,1,0,0:0:0:0:
274,101,40272,2,0,P|236:99|208:86,1,62.9999980773926
168,158,40609,2,0,P|185:191|188:222,1,62.9999980773926
269,230,40946,2,0,P|289:198|314:180,1,62.9999980773926
386,155,41283,1,2,0:0:0:0:
436,311,41620,1,2,0:0:0:0:
277,351,41957,6,0,B|233:362|233:362|203:353|203:353|140:371,1,125.999996154785,2|0,0:0|0:0,0:0:0:0:
93,312,42463,1,0,0:0:0:0:
93,312,42631,2,0,P|46:318|-8:255,1,125.999996154785,0|0,0:0|0:0,0:0:0:0:
31,193,43137,1,0,0:0:0:0:
82,129,43306,2,0,P|117:116|163:118,2,62.9999980773926
129,195,43811,1,0,0:0:0:0:
129,195,43980,2,0,L|250:160,1,125.999996154785,2|2,0:0|0:0,0:0:0:0:
338,22,44654,6,0,L|216:56,2,125.999996154785,2|0|0,0:0|0:0|0:0,0:0:0:0:
394,81,45497,1,0,0:0:0:0:
394,81,45665,2,0,P|410:118|408:151,1,62.9999980773926,0|0,0:0|0:0,0:0:0:0:
506,234,46002,2,0,P|490:197|492:164,1,62.9999980773926
401,223,46339,1,0,0:0:0:0:
401,223,46508,2,0,B|346:249|327:207|265:245,1,125.999996154785
207,277,47013,1,0,0:0:0:0:
267,332,47182,1,0,0:0:0:0:
153,348,47351,6,0,P|128:317|138:232,1,125.999996154785,2|0,0:0|0:0,0:0:0:0:
18,97,48025,2,0,P|43:128|32:212,1,125.999996154785
207,277,48699,1,2,0:0:0:0:
207,277,49036,1,0,0:0:0:0:
207,277,49373,2,0,B|179:370|179:370|214:351,1,125.999996154785,8|0,0:0|0:0,0:0:0:0:
322,239,50047,6,0,P|340:198|334:161,1,70,4|0,0:0|0:0,0:0:0:0:
388,89,50384,1,8,0:1:0:0:
388,89,50553,2,0,P|326:75|255:129,1,140,8|8,0:0|3:1,0:0:0:0:
190,207,51058,6,0,P|128:221|57:167,1,140,12|8,0:0|0:1,0:0:0:0:
11,109,51564,2,0,P|52:91|102:94,1,70,8|0,0:0|0:0,0:0:0:0:
157,33,51901,1,8,3:1:0:0:
157,33,52070,2,0,P|193:59|215:104,1,70,12|8,0:0|0:1,0:0:0:0:
304,67,52407,2,0,P|299:111|271:153,1,70,8|8,0:3|0:1,0:0:0:0:
223,219,52744,6,0,L|206:77,1,140,12|8,0:0|0:1,0:0:0:0:
100,161,53249,2,0,L|116:300,1,140,8|8,0:0|3:1,0:0:0:0:
213,338,53755,2,0,L|221:268,1,70,12|0,0:0|0:0,0:0:0:0:
267,189,54092,5,8,0:1:0:0:
355,243,54261,2,0,P|421:257|500:201,1,140,8|8,0:0|0:1,0:0:0:0:
439,91,54766,2,0,L|423:169,1,70,12|8,0:0|0:1,0:0:0:0:
327,80,55103,2,0,L|312:11,1,70,8|8,0:3|0:1,0:0:0:0:
203,128,55440,6,0,P|245:143|276:141,2,70,12|8|8,0:0|0:1|0:1,0:0:0:0:
123,72,55946,2,0,P|79:124|83:207,1,140,12|8,0:0|0:1,0:0:0:0:
150,272,56452,2,0,P|115:272|83:286,1,70,12|0,0:0|0:0,0:0:0:0:
68,373,56789,5,8,0:1:0:0:
210,333,56957,2,0,P|228:301|227:248,1,70,8|8,0:0|0:3,0:0:0:0:
260,159,57294,1,4,0:3:0:0:
260,159,57463,2,0,P|278:190|325:213,1,70,12|0,0:0|0:0,0:0:0:0:
393,289,57800,2,0,P|391:246|418:210,1,70,8|0,0:0|0:0,0:0:0:0:
447,120,58137,5,12,0:1:0:0:
447,120,58474,1,8,0:1:0:0:
447,120,58811,2,0,B|405:109|405:109|366:148|289:122,1,140,8|8,0:0|0:1,0:0:0:0:
237,176,59317,6,0,P|202:180|169:162,1,70,2|8,0:3|0:1,0:0:0:0:
90,205,59654,2,0,P|62:183|51:147,1,70,0|8,0:0|0:1,0:0:0:0:
16,66,59991,1,0,0:0:0:0:
16,66,60159,2,0,P|80:34|149:42,1,140,8|8,0:1|0:0,0:0:0:0:
270,157,60665,6,0,P|201:163|139:131,1,140,12|8,0:1|0:1,0:0:0:0:
181,50,61171,2,0,P|217:40|253:30,1,70,8|2,0:0|0:0,0:0:0:0:
116,157,61508,2,0,P|82:147|48:139,1,70,8|2,0:0|0:0,0:0:0:0:
176,249,61845,1,8,0:0:0:0:
181,276,61929,1,8,0:0:0:0:
186,303,62013,1,10,0:0:0:0:
276,95,63530,6,0,B|289:150|289:150|310:168|310:168|325:243,1,140,12|8,0:1|0:0,0:0:0:0:
407,250,64036,2,0,L|395:167,1,70,2|8,0:0|0:1,0:0:0:0:
265,285,64373,2,0,L|274:354,1,70,10|8,0:1|0:0,0:0:0:0:
182,253,64710,6,0,P|128:265|39:226,1,140,10|8,0:1|0:1,0:0:0:0:
88,104,65216,2,0,P|101:139|98:179,1,70,10|0,0:0|0:0,0:0:0:0:
183,81,65553,2,0,P|170:46|173:6,2,70,10|8|10,0:1|0:1|0:0,0:0:0:0:
252,139,66058,1,0,0:0:0:0:
335,101,66227,6,0,B|395:90|439:108|439:108|460:94|492:96,1,140,10|8,0:1|0:0,0:0:0:0:
512,183,66733,2,0,L|499:261,1,70,2|8,0:0|0:1,0:0:0:0:
430,310,67070,1,10,0:1:0:0:
342,286,67238,1,8,0:0:0:0:
252,268,67407,6,0,P|189:282|146:346,1,140,10|8,0:1|0:1,0:0:0:0:
170,254,67912,2,0,P|191:191|187:112,1,140,8|8,0:0|0:1,0:0:0:0:
130,47,68418,2,0,L|59:64,2,70,10|10|2,0:1|0:0|0:0,0:0:0:0:
277,120,68924,6,0,L|413:87,1,140,12|8,0:1|0:0,0:0:0:0:
495,49,69429,2,0,P|439:104|441:183,1,140,2|10,0:0|0:1,0:0:0:0:
489,235,69935,1,8,0:0:0:0:
386,280,70103,6,0,P|331:295|240:252,1,140,10|8,0:1|0:1,0:0:0:0:
199,195,70609,1,10,0:0:0:0:
49,298,70946,2,0,P|67:251|65:213,1,70,10|8,0:1|0:1,0:0:0:0:
109,150,71283,2,0,P|77:110|42:97,1,70,10|8,0:0|0:1,0:0:0:0:
173,53,71620,6,0,B|223:38|223:38|262:51|262:51|315:36,1,140,12|8,0:1|0:1,0:0:0:0:
396,15,72126,1,8,0:0:0:0:
386,106,72294,2,0,L|313:127,1,70,0|2,0:0|0:1,0:0:0:0:
291,212,72631,1,8,0:0:0:0:
433,176,72800,6,0,P|463:127|443:41,1,140,12|8,0:1|0:1,0:0:0:0:
318,125,73306,2,0,P|301:191|334:252,1,140,8|8,0:0|0:1,0:0:0:0:
390,323,73811,1,2,0:0:0:0:
308,282,73980,1,10,0:0:0:0:
220,305,74148,5,8,0:0:0:0:
220,305,74233,1,8,0:0:0:0:
220,305,74317,2,0,P|196:335|184:371,2,70,12|0|8,0:1|0:0|0:0,0:0:0:0:
166,232,74822,2,0,P|128:233|81:203,1,70,2|8,0:0|0:1,0:0:0:0:
80,131,75159,1,2,0:0:0:0:
168,110,75328,1,8,0:0:0:0:
239,170,75497,6,0,B|300:187|300:187|358:180|380:134,1,140,2|0,0:0|0:0,0:0:0:0:
455,124,76002,2,0,P|473:165|468:209,1,70,10|0,0:0|0:0,0:0:0:0:
426,268,76339,2,0,L|412:344,1,70,10|0,0:1|0:0,0:0:0:0:
317,281,76676,2,0,L|304:212,1,70,10|0,0:0|0:0,0:0:0:0:
207,212,77013,6,0,L|195:281,1,70,10|2,0:1|0:0,0:0:0:0:
106,306,77351,1,10,0:0:0:0:
126,183,77519,2,0,P|184:128|253:139,1,140,2|2,0:0|0:0,0:0:0:0:
342,82,78025,1,8,0:0:0:0:
324,164,78193,6,0,P|267:119|273:36,1,140,2|0,0:0|0:0,0:0:0:0:
176,28,78699,2,0,P|149:65|144:103,1,70,10|0,0:0|0:0,0:0:0:0:
129,195,79036,2,0,P|166:168|204:162,1,70,10|0,0:1|0:0,0:0:0:0:
198,250,79373,2,0,P|197:284|184:316,1,70,10|8,0:0|0:0,0:0:0:0:
107,365,79710,6,0,P|175:340|259:326,1,140,12|8,0:1|0:0,0:0:0:0:
305,262,80216,2,0,P|346:271|378:273,2,70,0|8|0,0:0|0:1|0:0,0:0:0:0:
261,182,80721,1,8,0:1:0:0:
171,201,80890,6,0,B|161:147|187:104|187:104|169:65,1,140,8|0,0:0|0:0,0:0:0:0:
258,46,81395,2,0,P|296:56|334:52,1,70,10|0,0:0|0:0,0:0:0:0:
395,114,81733,1,10,0:1:0:0:
475,72,81901,1,0,0:0:0:0:
395,114,82070,2,0,P|395:154|418:194,1,70,10|8,0:1|0:0,0:0:0:0:
448,267,82407,5,8,0:1:0:0:
357,250,82575,1,8,0:1:0:0:
414,344,82744,1,12,0:0:0:0:
300,312,82912,2,0,P|272:260|310:181,1,140,8|8,0:1|0:3,0:0:0:0:
357,250,83418,1,4,0:3:0:0:
298,116,83586,6,0,P|235:145|198:206,1,140,12|8,0:0|0:1,0:0:0:0:
298,116,84092,2,0,P|243:78|166:80,1,140,12|8,0:0|0:3,0:0:0:0:
298,116,84598,2,0,P|318:83|317:37,2,70,8|4|8,0:3|0:3|0:1,0:0:0:0:
256,192,85103,5,12,0:1:0:0:
256,192,85440,2,0,P|237:238|236:264,1,70,8|8,0:1|0:1,0:0:0:0:
158,316,85777,2,0,P|209:346|297:339,1,140,8|0,0:0|0:0,0:0:0:0:
375,368,86283,6,0,P|394:322|395:296,1,70,0|8,0:0|0:1,0:0:0:0:
371,214,86620,1,8,0:0:0:0:
455,235,86789,2,0,L|534:216,2,70,8|8|8,0:1|0:1|0:0,0:0:0:0:
320,112,87463,2,0,L|251:128,1,70,0|8,0:0|0:1,0:0:0:0:
264,38,87800,6,0,B|351:19|351:19|381:33|400:67,1,140,8|8,0:1|0:1,0:0:0:0:
320,112,88306,1,8,0:1:0:0:
276,191,88474,2,0,P|262:228|256:258,1,70,8|8,0:0|0:1,0:0:0:0:
172,222,88811,2,0,P|135:208|105:202,1,70,8|0,0:0|0:0,0:0:0:0:
211,136,89148,6,0,P|225:99|231:69,1,70,12|0,0:1|0:0,0:0:0:0:
314,33,89485,2,0,B|365:64|423:49|423:49|455:73,2,140,8|2|2,0:0|0:0|0:0,0:0:0:0:
184,162,90497,6,0,L|135:222,1,70,12|0,0:1|0:0,0:0:0:0:
217,264,90834,2,0,L|224:341,1,70,10|8,0:1|0:1,0:0:0:0:
302,287,91171,2,0,L|372:318,2,70,10|8|0,0:0|0:1|0:0,0:0:0:0:
359,216,91676,5,2,0:0:0:0:
359,216,91845,2,0,L|438:194,1,70,8|8,0:1|0:0,0:0:0:0:
487,122,92182,2,0,P|424:110|340:90,1,140,10|14,0:1|0:0,0:0:0:0:
269,46,92688,2,0,P|244:77|234:109,1,70,0|4,0:0|0:3,0:0:0:0:
299,168,93025,1,8,0:1:0:0:
236,248,93193,6,0,B|184:265|146:217|146:217|164:225|185:218,1,140,12|8,0:1|0:0,0:0:0:0:
299,168,93699,2,0,P|340:180|372:189,1,70,8|8,0:1|0:0,0:0:0:0:
469,254,94036,2,0,P|436:262|401:271,1,70,8|8,0:1|0:1,0:0:0:0:
317,339,94373,1,12,0:0:0:0:
317,339,94710,5,8,0:3:0:0:
301,256,94879,1,10,0:1:0:0:
285,173,95047,2,0,L|292:103,1,70,8|10,0:0|0:0,0:0:0:0:
411,61,95384,2,0,L|403:130,2,70,8|10|8,0:0|0:0|0:0,0:0:0:0:
256,192,96564,12,0,99935,0:0:0:0:
