osu file format v14

[General]
AudioFilename: audio.mp3
AudioLeadIn: 0
PreviewTime: 62519
Countdown: 0
SampleSet: Soft
StackLeniency: 0.5
Mode: 0
LetterboxInBreaks: 0
WidescreenStoryboard: 0

[Editor]
Bookmarks: 17688,39261,55440,63530,97828
DistanceSpacing: 1
BeatDivisor: 4
GridSize: 4
TimelineZoom: 1

[Metadata]
Title:TriColour Heartbeat
TitleUnicode:三色绘恋
Artist:Duca
ArtistUnicode:Duca
Creator:Log Off Now
Version:Easy
Source:三色△绘恋 -Tricolour Lovestory-
Tags:eroge visual novel vn opening yamayuri hl-galgame tricolour lovestory momochikun alphabet kibbleru
BeatmapID:1477254
BeatmapSetID:695676

[Difficulty]
HPDrainRate:3
CircleSize:3
OverallDifficulty:2
ApproachRate:3
SliderMultiplier:0.9
SliderTickRate:1

[Events]
//Background and Video events
0,0,"duca-bg-violet.jpg",0,0
//Break Periods
2,17889,27035
//Storyboard Layer 0 (Background)
//Storyboard Layer 1 (Fail)
//Storyboard Layer 2 (Pass)
//Storyboard Layer 3 (Foreground)
//Storyboard Sound Samples

[TimingPoints]
160,337.078651685393,4,2,1,30,1,0
12294,-100,4,2,1,40,0,0
17688,-100,4,2,1,25,0,0
28474,-100,4,2,1,40,0,0
39261,-100,4,2,1,25,0,0
48699,-100,4,2,1,35,0,0
50047,-100,4,2,1,45,0,0
63530,-100,4,2,1,60,0,1
85103,-100,4,2,1,45,0,0
96564,-100,4,2,1,30,0,0
97912,-100,4,2,1,20,0,0
98586,-100,4,2,1,15,0,0
99261,-100,4,2,1,10,0,0
99935,-100,4,2,1,5,0,0

[Colours]
Combo1 : 113,113,255
Combo2 : 105,105,105
Combo3 : 201,201,201
Combo4 : 207,168,114

[HitObjects]
74,77,160,6,0,P|68:124|75:219,2,135,2|2|0,0:0|0:0|0:0,0:0:0:0:
158,45,1509,2,0,P|185:69|324:58,1,180,2|0,0:0|0:0,0:0:0:0:
468,162,2857,6,0,P|474:229|467:296,2,135,2|0|0,0:0|0:0|0:0,0:0:0:0:
397,106,4205,2,0,P|310:88|237:136,1,180,2|0,0:0|0:0,0:0:0:0:
350,275,5553,6,0,P|417:281|484:274,2,135,2|2|0,0:0|0:0|0:0,0:0:0:0:
308,194,6902,2,0,P|283:109|324:32,1,180,2|0,0:0|0:0,0:0:0:0:
411,10,7913,1,2,0:0:0:0:
472,75,8250,5,2,0:0:0:0:
396,238,8925,2,0,B|346:245|300:238,1,90,2|0,0:0|0:0,0:0:0:0:
239,179,9599,1,2,0:0:0:0:
86,30,12295,6,0,P|84:105|94:175,1,135,14|0,0:1|0:0,0:0:0:0:
176,132,13138,1,2,0:0:0:0:
255,175,13475,2,0,B|341:206|341:142|437:176,1,180,2|0,0:0|0:0,0:0:0:0:
510,214,14486,1,10,0:0:0:0:
473,344,14992,6,0,P|398:346|328:336,1,135,14|0,0:1|0:0,0:0:0:0:
285,265,15835,1,0,0:0:0:0:
319,181,16172,1,10,0:0:0:0:
256,192,16340,12,2,17689,0:0:0:0:
125,68,28475,6,0,L|135:250,1,180,12|8,0:1|0:1,0:0:0:0:
219,279,29486,1,8,0:1:0:0:
301,242,29822,2,0,B|337:234|337:234|394:246,1,90,8|8,0:1|0:1,0:0:0:0:
476,266,30497,1,8,0:1:0:0:
457,177,30835,1,8,0:0:0:0:
421,94,31172,6,0,B|352:77|352:77|279:92,1,135,12|8,0:1|0:0,0:0:0:0:
203,61,32014,1,0,0:0:0:0:
151,134,32351,2,0,P|151:176|227:222,1,135,12|8,0:0|0:0,0:0:0:0:
287,286,33193,2,0,B|323:278|323:278|380:290,1,90,8|8,0:1|0:0,0:0:0:0:
454,331,33868,6,0,B|471:277|471:277|453:146,1,180,8|8,0:1|0:1,0:0:0:0:
440,65,34879,1,8,0:1:0:0:
355,95,35216,2,0,B|319:103|319:103|267:92,1,90,8|8,0:1|0:1,0:0:0:0:
180,67,35891,1,8,0:1:0:0:
105,118,36227,1,8,0:0:0:0:
149,196,36564,6,0,B|235:227|235:163|331:197,1,180,12|8,0:1|0:0,0:0:0:0:
448,247,37745,2,0,B|466:198|466:198|456:102,1,135,12|8,0:0|0:0,0:0:0:0:
389,57,38587,2,0,P|339:70|292:62,1,90,8|4,0:0|0:3,0:0:0:0:
221,23,39262,6,0,B|190:109|254:109|220:205,1,180,4|0,0:0|0:0,0:0:0:0:
117,345,40609,2,0,P|73:360|59:259,1,180,0|2,0:0|0:0,0:0:0:0:
138,230,41621,1,2,0:0:0:0:
208,285,41958,6,0,B|294:316|294:252|390:286,1,180,2|0,0:0|0:0,0:0:0:0:
489,138,43306,2,0,P|476:59|400:82,1,180,0|2,0:0|0:0,0:0:0:0:
369,167,44317,1,2,0:0:0:0:
341,252,44654,6,0,B|255:283|255:219|159:253,1,180,2|0,0:0|0:0,0:0:0:0:
19,356,46003,2,0,B|-12:266|51:266|20:180,1,180,0|0,0:0|0:0,0:0:0:0:
2,1,47352,6,0,B|61:6|61:6|106:34|106:34|190:40,1,180,2|2,0:0|0:0,0:0:0:0:
320,142,48699,2,0,B|252:146|252:146|207:174|207:174|148:179,1,180,2|10,0:0|0:0,0:0:0:0:
240,333,50048,6,0,P|294:328|360:266,2,135,4|8|12,0:0|0:0|0:0,0:0:0:0:
166,280,51395,2,0,L|175:182,1,90,8|0,0:1|0:0,0:0:0:0:
121,117,52071,1,12,0:0:0:0:
297,83,52745,6,0,P|351:88|430:44,2,135,12|8|12,0:0|0:0|0:0,0:0:0:0:
263,166,54092,2,0,L|271:255,1,90,8|8,0:1|0:0,0:0:0:0:
226,333,54767,1,12,0:0:0:0:
387,254,55441,6,0,P|441:249|520:293,2,135,12|12|12,0:0|0:0|0:0,0:0:0:0:
354,170,56789,2,0,L|362:80,1,90,8|8,0:1|0:3,0:0:0:0:
284,34,57464,1,12,0:0:0:0:
214,91,57801,1,8,0:0:0:0:
126,72,58137,6,0,B|130:140|130:140|158:185|158:185|163:244,1,180,12|8,0:1|0:0,0:0:0:0:
171,333,59148,1,8,0:1:0:0:
256,304,59485,2,0,B|300:295|300:295|350:304,2,90,8|8|8,0:1|0:1|0:1,0:0:0:0:
248,214,60497,2,0,L|255:134,1,45,8|12,0:0|0:1,0:0:0:0:
110,193,62519,6,0,P|116:229|110:290,2,90
65,114,63530,6,0,B|154:82|154:146|240:115,1,180,14|8,0:1|0:1,0:0:0:0:
323,79,64542,1,8,0:0:0:0:
388,140,64879,1,0,0:0:0:0:
330,208,65216,2,0,P|274:236|250:268,1,90,10|10,0:0|0:1,0:0:0:0:
195,324,65890,1,10,0:0:0:0:
109,294,66227,6,0,B|68:181|149:181|110:72,1,225,10|10,0:1|0:1,0:0:0:0:
176,12,67407,2,0,P|212:35|302:22,1,135,10|8,0:1|0:0,0:0:0:0:
387,4,68249,2,0,L|381:110,1,90,8|10,0:1|0:0,0:0:0:0:
305,141,68924,6,0,L|316:325,1,180,10|8,0:1|0:1,0:0:0:0:
396,359,69935,1,8,0:0:0:0:
451,288,70272,1,0,0:0:0:0:
400,213,70609,2,0,B|394:172|394:172|405:124,1,90,10|10,0:0|0:1,0:0:0:0:
352,51,71283,1,10,0:0:0:0:
262,62,71620,6,0,B|185:44|185:44|123:52,1,135,14|8,0:0|0:0,0:0:0:0:
66,115,72463,1,2,0:1:0:0:
108,196,72800,1,14,0:1:0:0:
83,328,73306,2,0,P|52:358|5:374,2,90,10|10|10,0:0|0:1|0:0,0:0:0:0:
152,271,74317,6,0,B|241:239|241:303|327:272,1,180,10|8,0:1|0:1,0:0:0:0:
403,225,75328,1,8,0:0:0:0:
374,139,75665,1,8,0:1:0:0:
386,49,76002,2,0,P|340:41|296:56,1,90,10|10,0:0|0:1,0:0:0:0:
229,110,76676,1,10,0:0:0:0:
162,49,77013,6,0,L|71:63,1,90,10|10,0:1|0:0,0:0:0:0:
13,130,77688,2,0,B|2:178|2:178|12:237,1,90,8|8,0:1|0:0,0:0:0:0:
88,264,78362,1,0,0:0:0:0:
173,291,78699,2,0,P|168:337|173:387,2,90,10|10|10,0:0|0:1|0:0,0:0:0:0:
222,215,79710,6,0,B|311:183|311:247|397:216,1,180,12|8,0:1|0:1,0:0:0:0:
478,177,80721,1,8,0:1:0:0:
509,261,81058,2,0,L|503:353,1,90,10|10,0:1|0:0,0:0:0:0:
415,331,81733,2,0,B|367:320|367:320|308:330,1,90,10|10,0:1|0:1,0:0:0:0:
239,350,82407,5,8,0:1:0:0:
175,286,82744,2,0,B|161:234|161:234|173:143,1,135,12|8,0:0|0:3,0:0:0:0:
247,105,83586,2,0,B|299:119|299:119|390:107,1,135,12|12,0:0|0:0,0:0:0:0:
467,86,84429,1,8,0:3:0:0:
430,262,85103,6,0,B|344:293|344:229|255:261,1,180,12|8,0:1|0:0,0:0:0:0:
91,337,86452,2,0,P|81:289|93:241,1,90,8|8,0:1|0:1,0:0:0:0:
164,199,87126,2,0,P|174:151|162:103,1,90,8|0,0:0|0:0,0:0:0:0:
126,30,87800,6,0,B|215:-2|215:62|301:31,1,180,8|8,0:1|0:0,0:0:0:0:
388,9,88811,1,8,0:0:0:0:
431,88,89148,1,12,0:1:0:0:
134,292,90497,6,0,L|128:192,1,90,14|10,0:1|0:1,0:0:0:0:
209,162,91171,2,0,P|253:182|342:168,2,135,10|2|10,0:0|0:0|0:1,0:0:0:0:
134,112,92519,1,14,0:0:0:0:
177,33,92856,1,4,0:3:0:0:
266,33,93193,6,0,B|309:36|309:36|351:63|351:63|424:66,1,135,12|8,0:1|0:1,0:0:0:0:
482,70,94036,1,8,0:1:0:0:
499,158,94373,2,0,P|499:206|435:286,1,135,12|10,0:0|0:1,0:0:0:0:
367,245,95216,1,10,0:0:0:0:
303,309,95553,1,10,0:0:0:0:
256,192,96733,12,0,99935,0:0:0:0:
