osu file format v14

[General]
AudioFilename: audio.mp3
AudioLeadIn: 0
PreviewTime: 62519
Countdown: 0
SampleSet: Soft
StackLeniency: 0.5
Mode: 0
LetterboxInBreaks: 0
WidescreenStoryboard: 0

[Editor]
Bookmarks: 17688,28474,39261,47351,50047,55440,63530
DistanceSpacing: 1
BeatDivisor: 4
GridSize: 8
TimelineZoom: 1

[Metadata]
Title:TriColour Heartbeat
TitleUnicode:三色绘恋
Artist:Duca
ArtistUnicode:Duca
Creator:Log Off Now
Version:Alphabet's Normal
Source:三色△绘恋 -Tricolour Lovestory-
Tags:eroge visual novel vn opening yamayuri hl-galgame tricolour lovestory momochikun alphabet kibbleru
BeatmapID:1487507
BeatmapSetID:695676

[Difficulty]
HPDrainRate:3
CircleSize:3.2
OverallDifficulty:3.5
ApproachRate:4
SliderMultiplier:1
SliderTickRate:1

[Events]
//Background and Video events
0,0,"duca-bg-violet.jpg",0,0
//Break Periods
2,17887,27154
2,39461,46031
//Storyboard Layer 0 (Background)
//Storyboard Layer 1 (Fail)
//Storyboard Layer 2 (Pass)
//Storyboard Layer 3 (Foreground)
//Storyboard Sound Samples

[TimingPoints]
160,337.078651685393,4,2,1,30,1,0
10946,-100,4,2,1,10,0,0
11789,-100,4,2,1,30,0,0
12294,-100,4,2,1,40,0,0
12547,-100,4,2,1,5,0,0
12631,-100,4,2,1,40,0,0
15244,-100,4,2,1,5,0,0
15328,-100,4,2,1,40,0,0
17688,-100,4,2,1,25,0,0
28474,-100,4,2,1,40,0,0
39261,-100,4,2,1,25,0,0
48699,-100,4,2,1,35,0,0
50047,-100,4,2,1,45,0,0
63530,-100,4,2,1,60,0,1
85103,-100,4,2,1,45,0,0
96564,-100,4,2,1,30,0,0
97912,-100,4,2,1,20,0,0
98586,-100,4,2,1,15,0,0
99261,-100,4,2,1,10,0,0
99935,-100,4,2,1,5,0,0

[Colours]
Combo1 : 113,113,255
Combo2 : 105,105,105
Combo3 : 201,201,201
Combo4 : 207,168,114

[HitObjects]
312,351,160,6,0,L|468:354,2,150,2|2|0,0:0|0:0|0:0,0:0:0:0:
233,289,1508,2,0,L|126:293,1,100,2|0,0:0|0:0,0:0:0:0:
83,295,2013,2,0,P|68:252|94:185,1,100,2|0,0:0|0:0,0:0:0:0:
189,96,2856,6,0,L|30:105,2,150,2|2|0,0:0|0:0|0:0,0:0:0:0:
284,64,4204,2,0,L|404:72,1,100,2|0,0:0|0:0,0:0:0:0:
433,73,4710,2,0,P|401:130|431:213,1,150,2|0,0:0|0:0,0:0:0:0:
482,288,5553,6,0,L|316:281,1,150,2|2,0:0|0:0,0:0:0:0:
206,363,6564,2,0,L|139:353,1,50,0|0,0:0|0:0,0:0:0:0:
107,344,6901,2,0,L|99:223,1,100,2|0,0:0|0:0,0:0:0:0:
56,219,7407,2,0,L|67:68,1,150,2|2,0:0|0:0,0:0:0:0:
107,39,8081,1,0,0:0:0:0:
148,66,8249,6,0,P|197:94|319:40,1,200,2|2,0:0|0:0,0:0:0:0:
373,124,9261,2,0,L|370:190,2,50,2|0|2,0:0|0:0|0:0,0:0:0:0:
373,124,11789,2,0,L|370:190,1,50,8|8,3:1|3:1,0:0:0:0:
429,254,12294,6,0,P|377:273|291:236,1,150,14|0,0:1|0:0,0:0:0:0:
225,164,13137,1,2,0:0:0:0:
139,214,13474,2,0,L|146:332,1,100,2|0,0:0|0:0,0:0:0:0:
231,364,14148,2,0,L|236:264,1,100,2|10,0:0|0:0,0:0:0:0:
262,221,14654,2,0,L|259:162,1,50,8|12,0:1|0:0,0:0:0:0:
230,130,14991,6,0,P|289:147|378:113,1,150,14|0,0:1|0:0,0:0:0:0:
446,53,15834,1,0,0:0:0:0:
468,150,16171,2,0,L|470:258,1,100,10|12,0:0|0:0,0:0:0:0:
472,299,16676,1,8,0:0:0:0:
472,349,16845,2,0,P|417:329|322:347,1,150,8|8,0:3|0:1,0:0:0:0:
283,364,17519,6,0,L|282:304,1,50,8|2,0:0|0:0,0:0:0:0:
60,281,28474,6,0,P|111:269|171:283,1,100,12|8,0:1|0:1,0:0:0:0:
241,330,29148,2,0,P|290:337|338:325,1,100,8|8,0:1|0:1,0:0:0:0:
379,296,29654,1,0,0:0:0:0:
414,261,29822,2,0,L|410:155,1,100,8|8,0:1|0:1,0:0:0:0:
349,81,30497,1,0,0:1:0:0:
263,132,30834,1,8,0:0:0:0:
177,79,31171,6,0,L|57:76,1,100,12|8,0:1|0:1,0:0:0:0:
31,97,31676,2,0,P|46:154|33:203,1,100,8|0,0:0|0:0,0:0:0:0:
77,285,32351,2,0,L|197:278,1,100,12|8,0:0|0:0,0:0:0:0:
220,254,32856,2,0,L|291:260,1,50,8|0,0:0|0:0,0:0:0:0:
303,295,33193,2,0,L|414:285,1,100,8|8,0:1|0:0,0:0:0:0:
473,215,33867,6,0,P|482:170|469:94,1,100,8|8,0:1|0:1,0:0:0:0:
451,73,34373,2,0,P|406:64|330:77,1,100,0|0,0:0|0:0,0:0:0:0:
267,121,35047,2,0,L|276:277,1,150,0|8,0:0|0:1,0:0:0:0:
272,320,35721,1,0,0:0:0:0:
241,359,35890,2,0,P|187:370|128:355,1,100,8|8,0:1|0:0,0:0:0:0:
87,279,36564,6,0,B|64:232|88:182|88:182|110:128|83:72,1,200,12|8,0:1|0:0,0:0:0:0:
64,41,37407,2,0,L|137:45,1,50,8|8,0:0|0:0,0:0:0:0:
159,65,37744,2,0,B|210:59|210:59|257:68|257:68|323:59,1,150,12|8,0:0|0:0,0:0:0:0:
403,32,38586,2,0,L|397:142,1,100,8|4,0:0|0:3,0:0:0:0:
391,231,39261,5,4,0:0:0:0:
387,312,47351,6,0,P|329:335|189:300,1,200,2|2,0:0|0:0,0:0:0:0:
142,224,48362,1,0,0:0:0:0:
87,140,48699,2,0,B|128:112|192:121|221:161|221:161|248:145|250:103,1,200,2|10,0:0|0:0,0:0:0:0:
436,53,50047,6,0,L|424:220,1,150,4|8,0:0|0:0,0:0:0:0:
293,131,51058,2,0,L|305:298,1,150,12|8,0:0|0:0,0:0:0:0:
229,347,51901,1,8,3:1:0:0:
229,347,52070,2,0,P|168:331|121:349,1,100,12|8,0:0|0:3,0:0:0:0:
59,273,52744,6,0,P|82:229|62:132,1,150,12|8,0:0|0:0,0:0:0:0:
185,46,53755,2,0,P|162:90|182:187,1,150,12|8,0:0|0:0,0:0:0:0:
263,241,54598,1,8,0:1:0:0:
263,241,54766,2,0,L|373:238,1,100,12|8,0:0|0:3,0:0:0:0:
445,294,55440,6,0,B|450:234|450:234|443:206|443:206|448:134,1,150,12|12,0:0|0:0,0:0:0:0:
349,31,56452,2,0,B|344:91|344:91|351:119|351:119|346:191,1,150,12|8,0:0|0:0,0:0:0:0:
269,242,57294,1,4,0:3:0:0:
269,242,57463,2,0,P|217:253|161:228,1,100,12|8,0:0|0:0,0:0:0:0:
133,146,58137,5,12,0:1:0:0:
73,226,58474,1,8,0:1:0:0:
5,152,58811,2,0,P|-5:99|11:48,1,100,8|8,0:0|0:1,0:0:0:0:
98,14,59485,2,0,L|210:17,1,100,8|8,0:1|0:1,0:0:0:0:
244,35,59991,1,0,0:0:0:0:
288,57,60159,2,0,L|400:54,1,100,8|8,0:1|0:0,0:0:0:0:
438,54,60665,6,0,P|472:126|442:203,1,150,12|8,0:1|0:0,0:0:0:0:
376,255,61508,2,0,P|326:238|269:254,1,100,2|10,0:0|0:0,0:0:0:0:
239,274,62013,1,8,0:0:0:0:
239,274,63530,6,0,L|244:160,1,100,14|8,0:1|0:0,0:0:0:0:
247,124,64036,1,2,0:0:0:0:
163,179,64373,1,10,0:1:0:0:
89,110,64710,2,0,P|60:177|86:246,1,150,10|10,0:1|0:0,0:0:0:0:
168,302,65553,2,0,P|222:298|270:306,1,100,10|10,0:1|0:0,0:0:0:0:
355,350,66227,6,0,L|351:233,1,100,10|8,0:1|0:0,0:0:0:0:
350,199,66733,1,2,0:0:0:0:
444,231,67070,1,10,0:1:0:0:
413,135,67407,2,0,P|372:112|276:146,1,150,10|8,0:1|0:0,0:0:0:0:
228,226,68249,2,0,P|179:238|123:214,1,100,8|10,0:1|0:0,0:0:0:0:
100,184,68755,1,2,0:0:0:0:
71,143,68924,6,0,L|66:242,1,100,10|8,0:1|0:0,0:0:0:0:
17,255,69429,2,0,L|19:366,2,100,2|10|10,0:0|0:1|0:1,0:0:0:0:
127,356,70609,1,10,0:0:0:0:
212,304,70946,1,10,0:1:0:0:
303,343,71283,1,10,0:0:0:0:
398,315,71620,6,0,P|415:273|385:160,1,150,14|8,0:0|0:0,0:0:0:0:
297,153,72463,2,0,L|224:160,1,50,2|8,0:1|0:0,0:0:0:0:
204,183,72800,2,0,P|187:141|217:28,1,150,14|10,0:1|0:0,0:0:0:0:
304,63,73643,2,0,P|333:67|364:58,1,50,10|0,0:1|0:0,0:0:0:0:
399,42,73980,2,0,P|428:38|459:47,1,50,10|8,0:0|0:0,0:0:0:0:
487,72,74317,6,0,L|492:188,1,100,10|8,0:1|0:0,0:0:0:0:
494,221,74822,1,2,0:0:0:0:
407,171,75159,1,2,0:0:0:0:
326,230,75497,2,0,P|280:242|221:230,1,100,2|0,0:0|0:0,0:0:0:0:
185,208,76002,2,0,L|188:318,2,100,10|10|10,0:0|0:1|0:0,0:0:0:0:
238,123,77013,6,0,P|187:106|137:119,1,100,10|10,0:1|0:0,0:0:0:0:
102,146,77519,1,2,0:0:0:0:
61,237,77856,1,2,0:0:0:0:
115,320,78193,2,0,L|221:324,1,100,2|0,0:0|0:0,0:0:0:0:
258,348,78699,2,0,L|364:344,1,100,10|10,0:0|0:1,0:0:0:0:
454,320,79373,2,0,P|459:287|454:261,1,50,10|8,0:0|0:0,0:0:0:0:
420,235,79710,6,0,P|406:178|425:86,1,150,12|0,0:1|0:0,0:0:0:0:
351,19,80553,1,0,0:0:0:0:
267,73,80890,2,0,L|108:78,1,150,8|10,0:0|0:0,0:0:0:0:
60,160,81733,2,0,L|170:159,1,100,10|10,0:1|0:1,0:0:0:0:
205,181,82238,1,0,0:0:0:0:
238,217,82407,6,0,L|232:325,1,100,8|12,0:1|0:0,0:0:0:0:
227,366,82912,1,8,0:1:0:0:
319,328,83249,1,8,0:3:0:0:
414,357,83586,2,0,P|434:295|405:214,1,150,12|12,0:0|0:0,0:0:0:0:
364,190,84261,1,8,0:3:0:0:
317,172,84429,2,0,L|205:180,1,100,8|4,0:3|0:3,0:0:0:0:
167,183,84935,1,8,0:1:0:0:
117,187,85103,6,0,P|100:145|124:33,2,150,12|8|0,0:1|0:1|0:0,0:0:0:0:
170,271,86452,1,8,0:1:0:0:
170,271,86620,2,0,L|281:267,1,100,8|8,0:0|0:1,0:0:0:0:
288,314,87126,2,0,L|399:310,1,100,8|0,0:0|0:0,0:0:0:0:
459,240,87800,6,0,P|488:309|457:393,2,150,8|8|8,0:1|0:1|0:0,0:0:0:0:
395,162,89148,1,12,0:1:0:0:
395,162,89317,2,0,L|275:155,1,100,0|0,0:0|0:0,0:0:0:0:
251,132,89822,2,0,L|144:138,1,100,2|2,0:0|0:0,0:0:0:0:
57,173,90497,5,14,0:1:0:0:
28,268,90834,1,10,0:1:0:0:
82,352,91171,2,0,L|190:353,1,100,10|0,0:0|0:0,0:0:0:0:
231,356,91676,1,2,0:0:0:0:
281,356,91845,2,0,P|296:309|292:249,1,100,8|10,0:1|0:1,0:0:0:0:
236,177,92519,2,0,P|234:127|249:79,1,100,14|4,0:0|0:3,0:0:0:0:
336,30,93193,6,0,L|452:33,1,100,12|8,0:1|0:0,0:0:0:0:
475,63,93699,1,8,0:1:0:0:
501,104,93867,2,0,P|511:164|502:209,1,100,8|8,0:0|0:1,0:0:0:0:
479,245,94373,2,0,P|419:231|325:249,1,150,12|10,0:0|0:1,0:0:0:0:
289,270,95047,1,8,0:0:0:0:
248,299,95216,2,0,L|249:235,1,50,10|8,0:0|0:0,0:0:0:0:
211,215,95553,2,0,L|212:151,1,50,10|8,0:0|0:0,0:0:0:0:
212,38,96733,5,2,0:0:0:0:
256,192,96901,12,0,99935,0:0:0:0:
