osu file format v14

[General]
AudioFilename: audio.mp3
AudioLeadIn: 0
PreviewTime: 45865
Countdown: 0
SampleSet: Soft
StackLeniency: 0.7
Mode: 0
LetterboxInBreaks: 0
WidescreenStoryboard: 1

[Editor]
Bookmarks: 319,2819,15319,25319,30319,36569,71569,74069,77350,77819,79069,83912,90006
DistanceSpacing: 0.3
BeatDivisor: 4
GridSize: 4
TimelineZoom: 2.3

[Metadata]
Title:Time is
TitleUnicode:Time is
Artist:Duca
ArtistUnicode:Duca
Creator:tomatas95
Version:Light Insane
Source:出会って5分は俺のもの! 時間停止と不可避な運命 (アトロポス)
Tags:hulotte eroge 鈴木プヨ Suzuki Puyo galgame visual novel vn The inevitable destiny opened by an Atropos watch op opening video game japanese pop jpop j-pop
BeatmapID:3268565
BeatmapSetID:1531782

[Difficulty]
HPDrainRate:5
CircleSize:3.6
OverallDifficulty:7
ApproachRate:8.5
SliderMultiplier:1.4
SliderTickRate:1

[Events]
//Background and Video events
Video,-200,"waifuu.mp4"
0,0,"KuroseWaifu.jpg",0,0
//Break Periods
2,74269,77144
//Storyboard Layer 0 (Background)
//Storyboard Layer 1 (Fail)
//Storyboard Layer 2 (Pass)
//Storyboard Layer 3 (Foreground)
//Storyboard Layer 4 (Overlay)
//Storyboard Sound Samples

[TimingPoints]
319,312.5,4,2,0,65,1,0
319,-100,4,2,0,65,0,0
2819,-100,4,2,3,70,0,0
3287,-166.666666666667,4,2,2,45,0,0
3912,-100,4,2,1,70,0,0
4225,-100,4,2,2,70,0,0
4850,-100,4,2,2,45,0,0
5006,-111.111111111111,4,2,3,65,0,0
5240,-111.111111111111,4,2,3,5,0,0
5319,-90.9090909090909,4,2,2,75,0,0
5787,-100,4,2,2,75,0,0
6569,-100,4,2,3,75,0,0
6725,-100,4,2,2,75,0,0
7819,-100,4,2,3,75,0,0
7975,-100,4,2,2,75,0,0
8287,-100,4,2,1,70,0,0
8912,-100,4,2,3,75,0,0
9069,-100,4,2,2,75,0,0
9537,-100,4,2,2,65,0,0
9772,-100,4,2,1,65,0,0
10006,-100,4,2,1,70,0,0
10162,-100,4,2,1,75,0,0
10319,-100,4,2,1,80,0,0
10475,-100,4,2,2,75,0,0
11569,-100,4,2,3,75,0,0
11725,-100,4,2,2,75,0,0
12819,-100,4,2,3,80,0,0
13444,-100,4,2,3,65,0,0
13600,-100,4,2,3,80,0,0
13756,-100,4,2,3,65,0,0
13912,-100,4,2,1,80,0,0
14225,-100,4,2,3,60,0,0
14381,-100,4,2,3,65,0,0
14537,-100,4,2,3,70,0,0
14694,-100,4,2,3,75,0,0
15006,-100,4,2,3,80,0,0
15319,-125,4,2,3,80,0,0
15475,-125,4,2,1,60,0,0
20319,-125,4,2,3,60,0,0
20631,-125,4,2,1,60,0,0
23912,-100,4,2,3,75,0,0
24225,-100,4,2,2,75,0,0
25319,-111.111111111111,4,2,1,65,0,0
29225,-111.111111111111,4,2,3,60,0,0
29850,-111.111111111111,4,2,1,60,0,0
30319,-111.111111111111,4,2,1,70,0,0
30631,-111.111111111111,4,2,1,65,0,0
30787,-111.111111111111,4,2,3,70,0,0
31100,-111.111111111111,4,2,1,65,0,0
31412,-111.111111111111,4,2,3,70,0,0
31725,-111.111111111111,4,2,1,65,0,0
32037,-111.111111111111,4,2,1,75,0,0
32350,-111.111111111111,4,2,3,75,0,0
32975,-111.111111111111,4,2,3,70,0,0
33756,-111.111111111111,4,2,3,65,0,0
33912,-111.111111111111,4,2,3,60,0,0
34225,-111.111111111111,4,2,1,65,0,0
35475,-111.111111111111,4,2,2,65,0,0
35787,-111.111111111111,4,2,2,70,0,0
36100,-111.111111111111,4,2,2,75,0,0
36412,-111.111111111111,4,2,2,80,0,0
36569,-100,4,2,3,75,0,0
36725,-100,4,2,2,75,0,0
41256,-100,4,2,3,60,0,0
41490,-100,4,2,3,5,0,0
41569,-100,4,2,1,70,0,0
42506,-100,4,2,3,60,0,0
42819,-100,4,2,1,70,0,0
44069,-100,4,2,3,80,0,0
44537,-100,4,2,3,70,0,0
44694,-100,4,2,3,80,0,0
44850,-100,4,2,3,70,0,0
45476,-100,4,2,3,80,0,0
46569,-90.9090909090909,4,2,2,80,0,1
46881,-90.9090909090909,4,2,1,85,0,1
47819,-90.9090909090909,4,2,3,85,0,1
47975,-90.9090909090909,4,2,1,85,0,1
49069,-90.9090909090909,4,2,3,85,0,1
49381,-90.9090909090909,4,2,1,85,0,1
49537,-90.9090909090909,4,2,3,85,0,1
49849,-90.9090909090909,4,2,1,85,0,1
51256,-90.9090909090909,4,2,1,70,0,1
51569,-90.9090909090909,4,2,3,85,0,1
51881,-90.9090909090909,4,2,1,85,0,1
53756,-90.9090909090909,4,2,1,70,0,1
54069,-90.9090909090909,4,2,1,85,0,1
55162,-90.9090909090909,4,2,3,85,0,1
55475,-90.9090909090909,4,2,1,85,0,1
55631,-90.9090909090909,4,2,2,75,0,1
55944,-90.9090909090909,4,2,2,70,0,0
56256,-90.9090909090909,4,2,2,75,0,0
56569,-90.9090909090909,4,2,2,85,0,1
56881,-90.9090909090909,4,2,1,85,0,1
57819,-90.9090909090909,4,2,3,85,0,1
57975,-90.9090909090909,4,2,1,85,0,1
59069,-90.9090909090909,4,2,3,85,0,1
59381,-90.9090909090909,4,2,1,85,0,1
59537,-90.9090909090909,4,2,3,85,0,1
60162,-90.9090909090909,4,2,1,85,0,1
61725,-90.9090909090909,4,2,2,85,0,1
62350,-90.9090909090909,4,2,2,80,0,1
62506,-90.9090909090909,4,2,2,75,0,1
62662,-90.9090909090909,4,2,2,70,0,1
62819,-133.333333333333,4,2,3,75,0,1
62975,-133.333333333333,4,2,3,70,0,1
63131,-133.333333333333,4,2,3,65,0,1
63287,-133.333333333333,4,2,3,60,0,1
63444,-133.333333333333,4,2,3,55,0,1
63600,-133.333333333333,4,2,3,50,0,1
63756,-133.333333333333,4,2,3,45,0,1
64069,-100,4,2,2,75,0,0
65319,-100,4,2,3,75,0,0
65475,-100,4,2,2,75,0,0
66569,-100,4,2,3,75,0,0
66725,-100,4,2,2,75,0,0
67037,-100,4,2,1,70,0,0
67662,-100,4,2,3,75,0,0
67819,-100,4,2,2,75,0,0
68287,-100,4,2,2,65,0,0
68522,-100,4,2,1,65,0,0
68756,-100,4,2,1,70,0,0
68912,-100,4,2,1,75,0,0
69069,-100,4,2,1,80,0,0
69225,-100,4,2,2,75,0,0
70319,-100,4,2,3,75,0,0
70475,-100,4,2,2,75,0,0
71569,-100,4,2,3,80,0,0
72194,-100,4,2,3,65,0,0
72350,-100,4,2,3,80,0,0
72506,-100,4,2,3,65,0,0
72662,-100,4,2,1,80,0,0
72975,-100,4,2,3,60,0,0
73131,-100,4,2,3,65,0,0
73287,-100,4,2,3,70,0,0
73444,-100,4,2,3,75,0,0
73756,-100,4,2,3,80,0,0
74069,-100,4,2,3,80,0,0
74381,-100,4,2,1,50,0,0
77350,-100,4,2,10,55,0,0
77819,-125,4,2,1,65,0,0
78756,-125,4,2,3,60,0,0
79069,-100,4,2,1,80,0,0
79381,-100,4,2,2,80,0,0
81569,-100,4,2,3,80,0,0
81647,-100,4,2,2,80,0,0
83912,-100,4,2,2,80,0,0
84381,-100,4,2,2,55,0,0
85006,-100,4,2,2,50,0,0
85631,-100,4,2,2,45,0,0
86256,-100,4,2,2,40,0,0
86881,-100,4,2,2,35,0,0
87506,-100,4,2,2,30,0,0
88131,-100,4,2,2,25,0,0
88756,-100,4,2,2,20,0,0
89381,-100,4,2,2,10,0,0
90006,-100,4,2,2,5,0,0

[Colours]
Combo1 : 245,174,109
Combo2 : 231,236,36
Combo3 : 123,240,240
Combo4 : 247,147,217

[HitObjects]
13,91,2819,5,10,0:0:0:0:
124,115,2975,1,10,0:0:0:0:
139,115,3287,6,0,L|167:109,2,20.9999993591309,0|0|8,3:0|3:0|0:0,0:0:0:0:
81,45,3600,1,0,3:0:0:0:
82,40,3678,1,0,3:0:0:0:
82,33,3756,1,0,3:0:0:0:
55,159,3912,6,0,B|50:192|50:192|55:225|55:225|34:298,1,140,14|10,0:0|0:0,0:0:0:0:
96,375,4381,1,10,0:0:0:0:
35,295,4537,1,10,0:0:0:0:
172,317,4694,2,0,P|177:286|167:226,1,70,10|0,0:0|3:0,0:0:0:0:
186,207,4928,1,0,3:0:0:0:
186,207,5006,2,0,P|218:237|288:235,1,94.499997116089,14|0,0:0|0:0,0:0:0:0:
330,197,5319,6,0,B|357:170|357:170|370:235|356:313,1,154.000004699707,6|8,3:2|0:0,0:0:0:0:
292,383,5787,1,2,3:2:0:0:
360,285,5944,1,2,0:0:0:0:
271,357,6100,1,2,3:2:0:0:
383,310,6256,2,0,P|383:344|390:398,1,70,10|0,0:0|3:0,0:0:0:0:
503,384,6569,6,0,P|498:340|514:232,1,140,2|10,3:2|0:0,0:0:0:0:
490,140,7037,1,2,3:2:0:0:
509,245,7194,1,2,0:0:0:0:
509,132,7350,1,2,3:2:0:0:
480,243,7506,2,0,P|446:247|403:231,1,70,10|0,0:0|3:0,0:0:0:0:
281,148,7819,6,0,P|348:127|416:167,1,140,2|10,3:2|0:0,0:0:0:0:
512,250,8287,1,2,3:1:0:0:
449,15,8600,1,2,3:1:0:0:
449,15,8756,1,10,0:0:0:0:
351,45,8912,6,0,B|310:47|310:47|279:30|279:30|208:32,1,140,6|0,3:2|3:0,0:0:0:0:
122,8,9381,2,0,P|117:42|123:76,1,70,8|2,0:0|3:2,0:0:0:0:
25,129,9694,1,2,3:2:0:0:
24,120,9772,1,8,0:0:0:0:
23,111,9850,2,0,P|28:79|17:32,1,70,10|10,0:0|3:2,0:0:0:0:
11,4,10084,1,8,0:0:0:0:
11,4,10162,1,10,0:0:0:0:
123,76,10319,6,0,B|159:67|159:67|199:81,2,70,6|2|10,3:2|0:0|0:0,0:0:0:0:
23,111,10787,2,0,P|20:165|20:279,1,140,2|2,3:2|3:2,0:0:0:0:
24,349,11256,1,10,0:0:0:0:
110,246,11412,1,2,3:2:0:0:
118,340,11569,5,2,3:2:0:0:
118,340,11725,2,0,P|156:344|196:333,1,70,2|10,3:2|0:0,0:0:0:0:
342,337,12037,2,0,P|304:341|264:330,1,70,2|0,3:2|0:0,0:0:0:0:
227,261,12350,2,0,L|221:219,2,35,0|0|10,3:0|3:0|0:0,0:0:0:0:
273,334,12662,1,2,0:0:0:0:
300,172,12819,5,10,0:0:0:0:
222,226,12975,1,0,3:0:0:0:
308,265,13131,1,10,0:0:0:0:
386,211,13287,2,0,L|398:310,1,70,10|0,0:0|3:0,0:0:0:0:
482,356,13600,2,0,L|494:257,1,70,10|0,0:0|3:0,0:0:0:0:
512,142,13912,6,0,B|467:144|467:144|442:124|442:124|376:122,1,140,14|10,0:0|0:0,0:0:0:0:
295,164,14381,1,10,3:2:0:0:
295,164,14537,1,10,0:0:0:0:
363,28,14694,1,10,3:2:0:0:
228,97,14850,1,10,0:0:0:0:
270,12,15006,1,10,3:2:0:0:
379,122,15162,1,10,0:0:0:0:
387,128,15240,1,8,0:0:0:0:
393,132,15319,6,0,P|436:150|506:119,1,112,14|8,3:2|0:0,0:0:0:0:
176,19,15944,1,0,3:0:0:0:
92,52,16100,1,2,3:2:0:0:
92,52,16256,2,0,L|97:126,1,56,10|2,0:0|0:0,0:0:0:0:
3,7,16569,6,0,L|11:129,1,112,2|10,3:2|0:0,0:0:0:0:
24,257,17037,2,0,L|19:183,1,56,2|0,0:0|3:0,0:0:0:0:
106,191,17350,2,0,L|111:265,1,56,2|10,3:2|0:0,0:0:0:0:
111,343,17662,1,2,0:0:0:0:
0,346,17819,6,0,P|56:340|123:345,1,112,2|10,3:2|0:0,0:0:0:0:
197,366,18287,2,0,P|200:339|192:304,1,56,2|0,0:0|3:0,0:0:0:0:
271,256,18600,2,0,P|249:239|214:229,1,56,2|10,3:2|0:0,0:0:0:0:
165,165,18912,6,0,P|195:137|274:129,1,112,2|0,0:0|0:0,0:0:0:0:
355,178,19381,2,0,P|350:208|366:245,1,56,10|0,0:0|0:0,0:0:0:0:
436,210,19694,1,0,3:0:0:0:
436,210,19850,1,0,3:0:0:0:
510,235,20006,2,0,P|515:205|499:168,1,56,10|0,0:0|0:0,0:0:0:0:
436,210,20319,6,0,L|424:342,1,112,2|8,3:2|0:0,0:0:0:0:
512,66,20944,1,0,3:0:0:0:
449,15,21100,1,2,3:2:0:0:
449,15,21256,2,0,P|417:9|387:18,1,56,10|2,0:0|0:0,0:0:0:0:
329,100,21569,6,0,P|381:88|449:110,1,112,2|8,3:2|0:0,0:0:0:0:
512,149,22037,2,0,P|518:181|509:211,1,56,2|0,0:0|3:0,0:0:0:0:
468,277,22350,2,0,P|456:329|478:397,1,112,2|2,3:2|0:0,0:0:0:0:
348,384,22819,6,0,P|360:332|338:264,1,112,2|10,3:2|0:0,0:0:0:0:
275,331,23287,2,0,L|210:321,1,56,2|0,0:0|3:0,0:0:0:0:
161,248,23600,2,0,L|226:238,1,56,2|10,3:2|0:0,0:0:0:0:
325,158,23912,6,0,B|293:140|256:156|256:156|262:121|237:78,1,140,6|0,3:2|3:0,0:0:0:0:
162,0,24381,1,10,0:0:0:0:
71,80,24537,2,0,P|54:77|32:78,2,35,2|2|10,3:2|3:2|0:0,0:0:0:0:
153,171,24850,2,0,P|150:187|151:210,2,35,0|0|8,3:0|3:0|0:0,0:0:0:0:
243,90,25162,1,2,0:0:0:0:
156,83,25319,6,0,B|147:115|147:115|159:150|159:150|148:215,1,125.999996154785,14|8,3:2|0:0,0:0:0:0:
30,384,25944,1,0,3:0:0:0:
0,309,26100,2,0,P|29:301|74:322,1,62.9999980773926,2|8,3:2|0:0,0:0:0:0:
151,353,26412,1,2,0:0:0:0:
151,353,26569,6,0,P|202:371|280:336,1,125.999996154785,2|10,3:2|0:0,0:0:0:0:
368,302,27037,2,0,L|363:384,1,62.9999980773926,2|0,0:0|3:0,0:0:0:0:
267,348,27350,2,0,L|272:266,1,62.9999980773926,2|8,3:2|0:0,0:0:0:0:
275,130,27662,1,2,0:0:0:0:
219,186,27819,6,0,P|271:210|343:174,1,125.999996154785,2|10,3:2|0:0,0:0:0:0:
420,163,28287,2,0,P|423:203|409:247,1,62.9999980773926,2|0,0:0|3:0,0:0:0:0:
512,227,28600,2,0,P|508:186|522:142,1,62.9999980773926,2|8,3:2|0:0,0:0:0:0:
512,58,28912,6,0,L|369:50,1,125.999996154785,2|2,0:0|3:2,0:0:0:0:
278,21,29381,2,0,B|249:10|249:10|205:21,2,62.9999980773926,10|2|2,0:0|3:2|3:2,0:0:0:0:
386,50,29850,1,2,3:2:0:0:
269,137,30006,1,10,0:0:0:0:
269,137,30162,1,2,0:0:0:0:
386,50,30319,6,0,B|382:96|382:96|388:121|388:121|376:203,1,125.999996154785,6|8,3:2|0:0,0:0:0:0:
472,241,30787,2,0,B|476:195|476:195|470:170|470:170|482:88,1,125.999996154785,6|0,3:2|3:0,0:0:0:0:
512,329,31256,1,10,0:0:0:0:
423,354,31412,6,0,B|365:333|365:333|277:356,1,125.999996154785,6|2,3:2|3:2,0:0:0:0:
203,350,31881,1,10,0:0:0:0:
82,345,32037,2,0,B|140:366|140:366|228:343,1,125.999996154785,6|10,3:2|0:0,0:0:0:0:
250,249,32506,1,10,0:0:0:0:
202,349,32663,1,2,3:2:0:0:
146,231,32819,6,0,P|140:195|155:145,1,62.9999980773926,10|0,0:0|3:0,0:0:0:0:
173,138,33053,1,0,3:0:0:0:
173,138,33131,1,8,0:0:0:0:
24,154,33287,2,0,P|52:130|102:118,1,62.9999980773926,10|0,0:0|3:0,0:0:0:0:
29,10,33600,2,0,P|63:22|98:60,1,62.9999980773926,2|0,3:2|3:0,0:0:0:0:
132,51,33834,1,0,3:0:0:0:
132,51,33912,6,0,B|172:52|172:52|197:34|197:34|253:29,1,125.999996154785,14|0,0:0|3:0,0:0:0:0:
339,0,34381,2,0,L|346:77,1,62.9999980773926,8|0,0:0|3:0,0:0:0:0:
363,165,34694,1,0,3:0:0:0:
344,62,34850,1,0,3:0:0:0:
447,43,35006,1,8,0:0:0:0:
466,146,35162,6,0,P|466:182|473:221,1,62.9999980773926,10|0,0:0|0:0,0:0:0:0:
480,376,35475,1,10,0:0:0:0:
480,376,35631,1,10,0:0:0:0:
388,383,35787,1,10,0:0:0:0:
380,291,35944,1,10,0:0:0:0:
471,283,36100,5,10,0:0:0:0:
371,200,36256,1,10,0:0:0:0:
288,300,36412,1,10,0:0:0:0:
388,383,36569,6,0,P|357:376|305:385,1,70,14|0,0:0|0:0,0:0:0:0:
325,242,36881,2,0,P|303:265|285:314,1,70,10|0,0:0|0:0,0:0:0:0:
171,226,37194,2,0,P|180:256|214:296,1,70,10|0,0:0|3:0,0:0:0:0:
217,332,37428,1,0,3:0:0:0:
217,332,37506,1,8,0:0:0:0:
130,367,37662,1,2,3:2:0:0:
14,374,37819,6,0,L|6:291,1,70,8|2,0:0|0:0,0:0:0:0:
130,367,38131,2,0,L|122:284,1,70,10|0,0:0|3:0,0:0:0:0:
240,358,38444,2,0,L|232:275,1,70,10|0,0:0|3:0,0:0:0:0:
236,245,38678,1,0,3:0:0:0:
236,245,38756,2,0,L|228:162,1,70,10|0,0:0|3:0,0:0:0:0:
244,46,39069,6,0,P|206:54|157:44,1,70,10|0,0:0|0:0,0:0:0:0:
44,37,39381,2,0,P|52:74|47:111,1,70,10|0,0:0|3:0,0:0:0:0:
36,236,39694,2,0,P|73:227|122:237,1,70,10|0,0:0|3:0,0:0:0:0:
236,245,40006,2,0,P|227:207|232:170,1,70,10|2,0:0|3:2,0:0:0:0:
254,147,40240,1,2,3:2:0:0:
254,147,40319,5,10,0:0:0:0:
332,83,40475,1,2,3:2:0:0:
410,19,40631,2,0,P|451:22|486:13,1,70,10|0,0:0|3:0,0:0:0:0:
512,130,40944,2,0,P|471:127|436:136,1,70,10|0,0:0|3:0,0:0:0:0:
418,180,41178,1,0,3:0:0:0:
418,180,41256,2,0,B|435:219|424:260|424:260|463:279,1,105,14|0,0:0|0:0,0:0:0:0:
497,327,41569,6,0,P|461:305|363:333,1,140,6|8,3:2|0:0,0:0:0:0:
309,214,42037,2,0,P|307:256|381:327,1,140,2|4,3:2|3:3,0:0:0:0:
339,383,42506,2,0,P|359:365|369:323,1,70,10|0,0:0|3:0,0:0:0:0:
232,249,42819,6,0,P|171:233|84:257,1,140,6|10,3:2|0:0,0:0:0:0:
164,366,43287,2,0,P|147:305|83:241,1,140,0|4,3:0|3:3,0:0:0:0:
52,257,43678,1,0,3:0:0:0:
52,257,43756,2,0,L|43:340,1,70,10|0,0:0|3:0,0:0:0:0:
0,166,44069,5,10,0:0:0:0:
99,97,44225,1,10,0:0:0:0:
198,28,44381,1,10,0:0:0:0:
314,356,44694,5,10,0:0:0:0:
314,28,45006,5,10,0:0:0:0:
256,128,45162,1,10,0:0:0:0:
198,356,45475,5,10,0:0:0:0:
256,256,45631,1,8,0:0:0:0:
512,27,46569,6,0,B|469:1|436:12|436:12|403:44|346:16,1,154.000004699707,6|10,3:2|0:0,0:0:0:0:
233,27,47037,2,0,P|226:65|243:113,1,77.0000023498536,2|0,0:0|3:0,0:0:0:0:
369,98,47350,2,0,P|376:60|359:12,1,77.0000023498536,2|8,3:2|0:0,0:0:0:0:
302,61,47662,1,2,0:0:0:0:
312,213,47819,5,2,3:2:0:0:
390,177,47975,1,2,3:2:0:0:
460,227,48131,1,10,0:0:0:0:
381,262,48287,2,0,P|379:303|383:355,1,77.0000023498536,2|0,0:0|3:0,0:0:0:0:
474,384,48600,2,0,P|469:343|476:292,1,77.0000023498536,2|8,3:2|0:0,0:0:0:0:
460,227,48912,1,2,0:0:0:0:
380,338,49069,6,0,L|226:347,1,154.000004699707,6|10,3:2|0:0,0:0:0:0:
121,372,49537,2,0,P|117:333|130:289,1,77.0000023498536,6|0,3:2|0:0,0:0:0:0:
27,371,49850,2,0,P|31:332|18:288,1,77.0000023498536,2|8,3:2|0:0,0:0:0:0:
0,161,50162,6,0,B|41:143|41:143|84:186|153:160,1,154.000004699707,6|2,3:2|3:2,0:0:0:0:
223,217,50631,2,0,P|238:163|181:73,1,154.000004699707,10|0,0:0|3:0,0:0:0:0:
156,6,51100,1,0,3:0:0:0:
12,66,51256,1,10,0:0:0:0:
15,48,51569,6,0,B|34:16|34:16|50:82|33:145,1,154.000004699707,6|10,3:2|0:0,0:0:0:0:
9,251,52037,2,0,P|74:219|151:268,1,154.000004699707,2|2,0:0|3:2,0:0:0:0:
75,303,52506,1,10,0:0:0:0:
140,358,52662,1,2,0:0:0:0:
219,221,52819,6,0,L|230:53,1,154.000004699707,2|8,3:2|0:0,0:0:0:0:
298,0,53287,1,0,3:0:0:0:
408,52,53444,2,0,P|441:60|499:45,1,77.0000023498536,2|2,3:2|3:2,0:0:0:0:
354,156,53756,2,0,P|344:123|302:80,1,77.0000023498536,10|0,0:0|0:0,0:0:0:0:
495,142,54069,6,0,P|448:175|430:271,1,154.000004699707,6|10,3:2|0:0,0:0:0:0:
512,364,54537,2,0,P|514:325|504:282,1,77.0000023498536,2|0,3:2|3:0,0:0:0:0:
348,367,54850,2,0,P|346:328|356:285,1,77.0000023498536,0|8,3:0|0:0,0:0:0:0:
429,383,55162,6,0,B|423:345|423:345|433:294|433:294|425:196,1,154.000004699707,6|0,3:2|3:0,0:0:0:0:
433,78,55631,1,10,0:0:0:0:
485,154,55787,1,0,3:0:0:0:
334,209,55944,2,0,L|326:123,1,77.0000023498536,10|0,3:2|3:0,0:0:0:0:
321,89,56178,1,0,3:0:0:0:
321,89,56256,1,10,0:0:0:0:
213,15,56412,1,10,0:0:0:0:
209,26,56490,1,10,0:0:0:0:
200,34,56569,6,0,P|145:57|54:6,1,154.000004699707,14|10,3:2|0:0,0:0:0:0:
9,99,57037,2,0,P|38:123|96:141,1,77.0000023498536,2|0,0:0|3:0,0:0:0:0:
239,108,57350,2,0,P|210:132|148:146,1,77.0000023498536,2|8,3:2|0:0,0:0:0:0:
116,212,57662,1,2,0:0:0:0:
223,334,57819,5,2,3:2:0:0:
187,258,57975,1,2,3:2:0:0:
111,294,58131,1,10,0:0:0:0:
147,370,58287,2,0,L|53:379,1,77.0000023498536,2|0,0:0|3:0,0:0:0:0:
34,286,58600,2,0,L|128:295,1,77.0000023498536,2|8,3:2|0:0,0:0:0:0:
187,258,58912,1,2,0:0:0:0:
36,196,59069,6,0,B|29:153|41:116|41:116|83:89|122:105,1,154.000004699707,6|10,3:2|0:0,0:0:0:0:
204,171,59537,2,0,L|212:78,1,77.0000023498536,2|0,3:2|0:0,0:0:0:0:
272,222,59850,2,0,L|356:182,1,77.0000023498536,2|8,3:2|0:0,0:0:0:0:
489,214,60162,6,0,B|467:249|467:249|434:202|464:122,1,154.000004699707,6|2,3:2|3:2,0:0:0:0:
512,35,60631,2,0,L|339:21,1,154.000004699707,10|0,0:0|3:0,0:0:0:0:
243,4,61100,1,0,3:0:0:0:
302,111,61256,2,0,L|291:204,1,77.0000023498536,10|2,0:0|0:0,0:0:0:0:
280,384,61569,5,2,3:2:0:0:
184,319,61725,1,8,0:0:0:0:
286,269,61881,1,10,0:0:0:0:
381,332,62037,2,0,P|422:340|463:332,1,77.0000023498536,2|8,3:2|0:0,0:0:0:0:
512,176,62350,1,8,3:3:0:0:
422,176,62506,1,8,3:3:0:0:
467,252,62662,1,4,3:3:0:0:
467,98,62819,6,0,B|413:73|343:96|385:119|297:143|240:109|240:109|267:78|316:90,1,315.000012016297,6|0,3:2|3:0,0:0:0:0:
20,356,64069,6,0,B|44:382|44:382|42:256,1,140,6|8,3:2|0:0,0:0:0:0:
6,152,64537,1,2,3:2:0:0:
105,207,64694,1,2,0:0:0:0:
0,176,64850,1,2,3:2:0:0:
96,112,65006,2,0,P|99:74|91:36,1,70,10|0,0:0|3:0,0:0:0:0:
203,5,65319,6,0,P|185:62|215:150,1,140,2|10,3:2|0:0,0:0:0:0:
280,230,65787,1,2,3:2:0:0:
205,137,65944,1,2,0:0:0:0:
268,247,66100,1,2,3:2:0:0:
251,129,66256,2,0,P|284:122|339:130,1,70,10|0,0:0|3:0,0:0:0:0:
401,218,66569,6,0,L|411:61,1,140,2|10,3:2|0:0,0:0:0:0:
508,0,67037,1,2,3:1:0:0:
498,277,67350,1,2,3:1:0:0:
498,277,67506,1,10,0:0:0:0:
401,218,67662,6,0,B|396:261|396:261|409:295|409:295|400:362,1,140,6|0,3:2|3:0,0:0:0:0:
317,384,68131,2,0,L|325:295,1,70,8|2,0:0|3:2,0:0:0:0:
214,250,68444,1,2,3:2:0:0:
214,261,68522,1,8,0:0:0:0:
214,272,68600,2,0,L|206:361,1,70,10|10,0:0|3:2,0:0:0:0:
203,384,68834,1,8,0:0:0:0:
203,384,68912,1,10,0:0:0:0:
102,307,69069,6,0,B|66:296|66:296|23:309,2,70,14|2|10,3:2|0:0|0:0,0:0:0:0:
70,377,69537,2,0,L|67:207,1,140,2|2,3:2|3:2,0:0:0:0:
5,154,70006,1,10,0:0:0:0:
72,80,70162,1,2,3:2:0:0:
153,170,70319,5,2,3:2:0:0:
153,170,70475,2,0,L|78:162,1,70,2|10,3:2|0:0,0:0:0:0:
205,237,70787,2,0,L|249:176,1,70,2|0,3:2|0:0,0:0:0:0:
205,105,71100,2,0,L|190:73,2,35,0|0|10,3:0|3:0|0:0,0:0:0:0:
246,180,71412,1,2,0:0:0:0:
296,38,71569,5,10,0:0:0:0:
374,7,71725,1,0,3:0:0:0:
440,58,71881,1,10,0:0:0:0:
362,89,72037,2,0,P|359:128|366:169,1,70,10|0,0:0|3:0,0:0:0:0:
364,227,72350,2,0,P|367:188|360:147,1,70,10|0,0:0|3:0,0:0:0:0:
512,92,72662,6,0,B|505:135|505:135|514:172|514:172|503:261,1,140,14|10,0:0|0:0,0:0:0:0:
454,384,73131,1,10,3:2:0:0:
454,384,73287,1,10,0:0:0:0:
430,254,73444,1,10,3:2:0:0:
506,306,73600,1,10,0:0:0:0:
377,331,73756,1,10,3:2:0:0:
352,202,73912,1,10,0:0:0:0:
349,189,73990,1,8,0:0:0:0:
346,176,74069,1,14,3:2:0:0:
34,363,77819,5,8,0:0:0:0:
82,224,77975,2,0,P|85:206|77:189,3,28,8|0|0|0,0:0|3:0|3:0|3:0,0:0:0:0:
58,261,78287,1,8,0:0:0:0:
173,326,78444,2,0,P|190:319|200:304,3,28,8|0|0|0,0:0|3:0|3:0|3:0,0:0:0:0:
128,323,78756,1,14,0:0:0:0:
30,30,79069,6,0,L|127:20,1,70,6|0,3:2|0:0,0:0:0:0:
11,171,79381,2,0,L|1:74,1,70,8|0,0:0|3:0,0:0:0:0:
152,190,79694,2,0,L|82:197,1,70,8|0,0:0|3:0,0:0:0:0:
171,49,80006,2,0,L|178:118,1,70,8|0,0:0|3:0,0:0:0:0:
199,259,80319,5,8,0:0:0:0:
152,190,80475,1,0,3:0:0:0:
255,132,80631,5,8,0:0:0:0:
302,201,80787,1,0,3:0:0:0:
246,328,80944,2,0,P|284:322|332:336,1,70,8|0,0:0|3:0,0:0:0:0:
347,361,81178,1,0,3:0:0:0:
347,361,81256,2,0,P|385:367|433:353,1,70,8|0,0:0|3:0,0:0:0:0:
505,268,81569,6,0,B|503:231|503:231|519:177,2,70,14|2|10,0:0|3:2|0:0,0:0:0:0:
405,268,82037,1,2,3:2:0:0:
405,256,82115,1,2,3:2:0:0:
405,244,82194,2,0,B|407:207|407:207|391:153,2,70,10|2|8,0:0|3:2|0:0,0:0:0:0:
415,361,82662,6,0,P|433:367|458:355,2,35,2|2|10,3:2|3:2|0:0,0:0:0:0:
308,311,82975,2,0,P|274:300|235:309,1,70,2|8,3:2|0:0,0:0:0:0:
137,369,83287,1,2,3:2:0:0:
136,356,83365,1,2,3:2:0:0:
135,340,83444,2,0,L|140:266,1,70,10|0,0:0|3:0,0:0:0:0:
144,144,83756,1,10,0:0:0:0:
32,202,83912,5,6,3:2:0:0:
256,192,84069,12,0,90006,0:0:0:0:
