osu file format v14

[General]
AudioFilename: audio.mp3
AudioLeadIn: 0
PreviewTime: 45865
Countdown: 0
SampleSet: Soft
StackLeniency: 0.7
Mode: 0
LetterboxInBreaks: 0
WidescreenStoryboard: 1

[Editor]
Bookmarks: 319,2819,15319,25319,30319,36569,71569,74069,77350,77819,79069,83912,90006
DistanceSpacing: 0.9
BeatDivisor: 4
GridSize: 32
TimelineZoom: 2.3

[Metadata]
Title:Time is
TitleUnicode:Time is
Artist:Duca
ArtistUnicode:Duca
Creator:tomatas95
Version:Extra
Source:出会って5分は俺のもの! 時間停止と不可避な運命 (アトロポス)
Tags:hulotte eroge 鈴木プヨ Suzuki Puyo galgame visual novel vn The inevitable destiny opened by an Atropos watch op opening video game japanese pop jpop j-pop
BeatmapID:3132732
BeatmapSetID:1531782

[Difficulty]
HPDrainRate:6
CircleSize:3.9
OverallDifficulty:8.5
ApproachRate:9.2
SliderMultiplier:1.7
SliderTickRate:1

[Events]
//Background and Video events
Video,-200,"waifuu.mp4"
0,0,"NoaSenpai.jpg",0,0
//Break Periods
2,74269,76780
//Storyboard Layer 0 (Background)
//Storyboard Layer 1 (Fail)
//Storyboard Layer 2 (Pass)
//Storyboard Layer 3 (Foreground)
//Storyboard Layer 4 (Overlay)
//Storyboard Sound Samples

[TimingPoints]
319,312.5,4,2,0,65,1,0
319,-100,4,2,0,65,0,0
2819,-100,4,2,3,70,0,0
3287,-166.666666666667,4,2,2,45,0,0
3912,-100,4,2,1,70,0,0
4225,-100,4,2,2,70,0,0
4850,-100,4,2,2,45,0,0
5006,-250,4,2,3,65,0,0
5240,-250,4,2,3,5,0,0
5319,-80,4,2,2,75,0,0
5787,-100,4,2,2,75,0,0
6569,-100,4,2,3,75,0,0
6725,-100,4,2,2,75,0,0
7819,-100,4,2,3,75,0,0
7975,-100,4,2,2,75,0,0
8287,-66.6666666666667,4,2,1,70,0,0
8522,-66.6666666666667,4,2,1,5,0,0
8600,-66.6666666666667,4,2,1,70,0,0
8912,-100,4,2,3,75,0,0
9069,-100,4,2,2,75,0,0
9537,-76.9230769230769,4,2,2,65,0,0
9772,-76.9230769230769,4,2,1,65,0,0
10006,-76.9230769230769,4,2,1,70,0,0
10162,-76.9230769230769,4,2,1,75,0,0
10319,-100,4,2,1,80,0,0
10475,-100,4,2,2,75,0,0
11569,-100,4,2,3,75,0,0
11725,-100,4,2,2,75,0,0
12819,-100,4,2,3,80,0,0
13444,-100,4,2,3,65,0,0
13600,-100,4,2,3,80,0,0
13756,-100,4,2,3,65,0,0
13912,-100,4,2,1,80,0,0
14225,-100,4,2,3,60,0,0
14381,-100,4,2,3,65,0,0
14537,-100,4,2,3,70,0,0
14694,-100,4,2,3,75,0,0
15006,-100,4,2,3,80,0,0
15319,-125,4,2,3,80,0,0
15475,-125,4,2,1,60,0,0
20319,-125,4,2,3,60,0,0
20631,-125,4,2,1,60,0,0
23912,-100,4,2,3,75,0,0
24225,-100,4,2,2,75,0,0
25319,-111.111111111111,4,2,1,65,0,0
29225,-111.111111111111,4,2,3,60,0,0
29850,-111.111111111111,4,2,1,60,0,0
30319,-90.9090909090909,4,2,1,70,0,0
30631,-90.9090909090909,4,2,1,65,0,0
30787,-90.9090909090909,4,2,3,70,0,0
31100,-90.9090909090909,4,2,1,65,0,0
31412,-90.9090909090909,4,2,3,70,0,0
31725,-90.9090909090909,4,2,1,65,0,0
32037,-62.5,4,2,1,75,0,0
32350,-62.5,4,2,3,75,0,0
32975,-62.5,4,2,3,70,0,0
33287,-90.9090909090909,4,2,3,70,0,0
33756,-90.9090909090909,4,2,3,65,0,0
33912,-100,4,2,3,60,0,0
34225,-100,4,2,1,65,0,0
35475,-100,4,2,2,65,0,0
35787,-100,4,2,2,70,0,0
36100,-100,4,2,2,75,0,0
36412,-100,4,2,2,80,0,0
36569,-100,4,2,3,75,0,0
36725,-100,4,2,2,75,0,0
41256,-250,4,2,3,60,0,0
41490,-250,4,2,3,5,0,0
41569,-76.9230769230769,4,2,1,70,0,0
42506,-250,4,2,3,60,0,0
42740,-250,4,2,3,5,0,0
42819,-76.9230769230769,4,2,1,70,0,0
43287,-90.9090909090909,4,2,1,70,0,0
44069,-76.9230769230769,4,2,3,80,0,0
44537,-76.9230769230769,4,2,3,70,0,0
44694,-76.9230769230769,4,2,3,80,0,0
44850,-76.9230769230769,4,2,3,70,0,0
45476,-76.9230769230769,4,2,3,80,0,0
46569,-90.9090909090909,4,2,2,80,0,1
46881,-90.9090909090909,4,2,1,85,0,1
47819,-90.9090909090909,4,2,3,85,0,1
47975,-90.9090909090909,4,2,1,85,0,1
49069,-90.9090909090909,4,2,3,85,0,1
49381,-90.9090909090909,4,2,1,85,0,1
49537,-90.9090909090909,4,2,3,85,0,1
49849,-90.9090909090909,4,2,1,85,0,1
50162,-76.9230769230769,4,2,1,85,0,1
50631,-90.9090909090909,4,2,1,85,0,1
50865,-90.9090909090909,4,2,1,5,0,1
50944,-90.9090909090909,4,2,1,85,0,1
51256,-90.9090909090909,4,2,1,70,0,1
51569,-90.9090909090909,4,2,3,85,0,1
51881,-90.9090909090909,4,2,1,85,0,1
53756,-250,4,2,1,70,0,1
53990,-250,4,2,1,5,0,0
54069,-76.9230769230769,4,2,1,85,0,1
54537,-90.9090909090909,4,2,1,85,0,1
55162,-76.9230769230769,4,2,3,85,0,1
55475,-76.9230769230769,4,2,1,85,0,1
55631,-76.9230769230769,4,2,2,75,0,1
55944,-90.9090909090909,4,2,2,70,0,0
56256,-90.9090909090909,4,2,2,75,0,0
56569,-90.9090909090909,4,2,2,85,0,1
56881,-90.9090909090909,4,2,1,85,0,1
57819,-90.9090909090909,4,2,3,85,0,1
57975,-90.9090909090909,4,2,1,85,0,1
59069,-90.9090909090909,4,2,3,85,0,1
59381,-90.9090909090909,4,2,1,85,0,1
59537,-90.9090909090909,4,2,3,85,0,1
60162,-76.9230769230769,4,2,1,85,0,1
60630,-90.9090909090909,4,2,1,85,0,1
61725,-90.9090909090909,4,2,2,85,0,1
62350,-90.9090909090909,4,2,2,80,0,1
62506,-90.9090909090909,4,2,2,75,0,1
62662,-90.9090909090909,4,2,2,70,0,1
62819,-153.846153846154,4,2,3,75,0,1
62975,-153.846153846154,4,2,3,70,0,1
63131,-153.846153846154,4,2,3,65,0,1
63287,-153.846153846154,4,2,3,60,0,1
63444,-153.846153846154,4,2,3,55,0,1
63600,-153.846153846154,4,2,3,50,0,1
63756,-153.846153846154,4,2,3,45,0,1
64069,-80,4,2,2,75,0,0
64537,-100,4,2,2,75,0,0
65319,-100,4,2,3,75,0,0
65475,-100,4,2,2,75,0,0
66569,-100,4,2,3,75,0,0
66725,-100,4,2,2,75,0,0
67037,-66.6666666666667,4,2,1,70,0,0
67272,-250,4,2,1,5,0,0
67350,-66.6666666666667,4,2,1,70,0,0
67662,-100,4,2,3,75,0,0
67819,-100,4,2,2,75,0,0
68287,-76.9230769230769,4,2,2,65,0,0
68522,-76.9230769230769,4,2,1,65,0,0
68756,-76.9230769230769,4,2,1,70,0,0
68912,-76.9230769230769,4,2,1,75,0,0
69069,-100,4,2,1,80,0,0
69225,-100,4,2,2,75,0,0
70319,-100,4,2,3,75,0,0
70475,-100,4,2,2,75,0,0
71569,-100,4,2,3,80,0,0
72194,-100,4,2,3,65,0,0
72350,-100,4,2,3,80,0,0
72506,-100,4,2,3,65,0,0
72662,-100,4,2,1,80,0,0
72975,-100,4,2,3,60,0,0
73131,-100,4,2,3,65,0,0
73287,-100,4,2,3,70,0,0
73444,-100,4,2,3,75,0,0
73756,-100,4,2,3,80,0,0
74069,-100,4,2,3,80,0,0
74381,-100,4,2,1,50,0,0
77350,-100,4,2,10,55,0,0
77819,-100,4,2,1,65,0,0
78756,-250,4,2,3,60,0,0
78990,-250,4,2,3,5,0,0
79069,-90.9090909090909,4,2,1,80,0,0
79381,-90.9090909090909,4,2,2,80,0,0
81569,-90.9090909090909,4,2,3,80,0,0
81647,-90.9090909090909,4,2,2,80,0,0
83912,-285.714285714286,4,2,2,80,0,0
84381,-285.714285714286,4,2,2,55,0,0
85006,-285.714285714286,4,2,2,50,0,0
85631,-285.714285714286,4,2,2,45,0,0
86256,-285.714285714286,4,2,2,40,0,0
86881,-285.714285714286,4,2,2,35,0,0
87506,-285.714285714286,4,2,2,30,0,0
88131,-285.714285714286,4,2,2,25,0,0
88756,-285.714285714286,4,2,2,20,0,0
89381,-285.714285714286,4,2,2,10,0,0
90006,-100,4,2,2,5,0,0

[Colours]
Combo1 : 245,174,109
Combo2 : 231,236,36
Combo3 : 123,240,240
Combo4 : 247,147,217

[HitObjects]
19,39,2819,5,10,0:0:0:0:
168,198,2975,1,10,0:0:0:0:
168,198,3287,5,0,3:0:0:0:
168,198,3365,1,0,3:0:0:0:
168,198,3444,1,8,0:0:0:0:
174,42,3600,1,0,3:0:0:0:
174,42,3678,1,0,3:0:0:0:
174,42,3756,1,0,3:0:0:0:
12,191,3912,6,0,B|30:234|12:292|12:292|31:318|76:290,1,170,14|10,0:0|0:0,0:0:0:0:
93,118,4381,1,10,0:0:0:0:
73,293,4537,1,10,0:0:0:0:
255,252,4694,1,10,0:0:0:0:
162,217,4850,1,0,3:0:0:0:
162,217,4928,1,0,3:0:0:0:
162,217,5006,2,0,L|165:155,1,51,14|0,0:0|0:0,0:0:0:0:
174,79,5319,6,0,B|215:39|259:59|259:59|300:107|372:68,1,212.5,6|8,3:2|0:0,0:0:0:0:
512,21,5787,1,2,3:2:0:0:
499,224,5944,1,2,0:0:0:0:
433,29,6100,1,2,3:2:0:0:
499,246,6256,2,0,L|505:152,1,85,10|0,0:0|3:0,0:0:0:0:
397,340,6569,6,0,L|409:149,1,170,2|10,3:2|0:0,0:0:0:0:
503,352,7037,1,2,3:2:0:0:
297,331,7194,1,2,0:0:0:0:
503,325,7350,1,2,3:2:0:0:
297,358,7506,2,0,P|297:309|286:247,1,85,10|0,0:0|3:0,0:0:0:0:
288,17,7819,6,0,P|291:77|284:221,1,170,2|10,3:2|0:0,0:0:0:0:
21,237,8287,6,0,P|109:215|223:238,1,191.250007295609,2|0,3:1|0:0,0:0:0:0:
179,306,8600,2,0,P|118:292|41:319,1,127.500004863739,2|10,3:1|0:0,0:0:0:0:
0,121,8912,6,0,B|27:150|27:150|16:87|44:7,1,170,6|0,3:2|3:0,0:0:0:0:
106,217,9381,1,8,0:0:0:0:
172,29,9537,1,2,3:2:0:0:
172,29,9615,1,0,3:0:0:0:
172,29,9694,2,0,P|171:58|164:96,1,55.2499974708558,2|8,3:2|0:0,0:0:0:0:
319,177,9850,2,0,P|318:155|321:119,1,55.2499974708558,10|8,0:0|0:0,0:0:0:0:
319,27,10006,2,0,P|298:27|264:23,1,55.2499974708558,10|8,3:2|0:0,0:0:0:0:
170,177,10162,2,0,P|190:176|225:178,1,55.2499974708558,10|8,0:0|0:0,0:0:0:0:
371,369,10319,5,6,3:2:0:0:
409,260,10475,1,2,0:0:0:0:
449,152,10631,1,10,0:0:0:0:
488,44,10787,2,0,L|308:25,1,170,2|2,3:2|3:2,0:0:0:0:
122,19,11256,1,10,0:0:0:0:
220,22,11412,1,2,3:2:0:0:
24,16,11569,5,2,3:2:0:0:
32,100,11725,2,0,L|21:-7,1,85,2|10,3:2|0:0,0:0:0:0:
220,22,12037,2,0,L|231:129,1,85,2|0,3:2|0:0,0:0:0:0:
132,200,12350,1,0,3:0:0:0:
132,200,12428,1,0,3:0:0:0:
132,200,12506,1,10,0:0:0:0:
126,103,12662,1,2,0:0:0:0:
37,294,12819,5,10,0:0:0:0:
22,108,12975,1,0,3:0:0:0:
228,106,13131,1,10,0:0:0:0:
243,292,13287,2,0,P|202:282|156:294,1,85,10|0,0:0|3:0,0:0:0:0:
50,200,13600,2,0,P|91:190|137:202,1,85,10|0,0:0|3:0,0:0:0:0:
332,384,13912,6,0,B|329:330|329:330|338:294|338:294|338:196,1,170,14|10,0:0|0:0,0:0:0:0:
445,27,14381,1,10,3:2:0:0:
338,215,14537,1,10,0:0:0:0:
338,27,14694,1,10,3:2:0:0:
445,215,14850,1,10,0:0:0:0:
282,120,15006,1,10,3:2:0:0:
498,120,15162,1,10,0:0:0:0:
498,120,15240,1,8,0:0:0:0:
498,120,15319,6,0,B|448:106|448:106|412:122|412:122|355:117,2,136,14|8|0,3:2|0:0|3:0,0:0:0:0:
454,211,16100,1,2,3:2:0:0:
454,211,16256,2,0,P|452:252|461:298,1,68,10|2,0:0|0:0,0:0:0:0:
451,384,16569,6,0,P|391:345|315:319,1,136,2|10,3:2|0:0,0:0:0:0:
316,240,17037,2,0,P|352:221|387:190,1,68,2|0,0:0|3:0,0:0:0:0:
251,293,17350,2,0,P|216:270|172:255,1,68,2|10,3:2|0:0,0:0:0:0:
0,314,17662,1,2,0:0:0:0:
48,373,17819,6,0,L|63:209,1,136,2|10,3:2|0:0,0:0:0:0:
0,94,18287,2,0,L|6:161,1,68,2|0,0:0|3:0,0:0:0:0:
129,173,18600,2,0,L|135:105,1,68,2|10,3:2|0:0,0:0:0:0:
32,17,18912,6,0,P|88:35|178:0,1,136,2|0,0:0|0:0,0:0:0:0:
247,4,19381,2,0,P|245:45|251:98,1,68,10|0,0:0|0:0,0:0:0:0:
294,290,19694,1,0,3:0:0:0:
333,211,19850,1,0,3:0:0:0:
246,217,20006,2,0,P|248:176|242:123,1,68,10|0,0:0|0:0,0:0:0:0:
381,284,20319,6,0,P|377:222|388:120,2,136,2|8|0,3:2|0:0|3:0,0:0:0:0:
412,381,21100,1,2,3:2:0:0:
478,253,21256,1,10,0:0:0:0:
381,284,21412,1,2,0:0:0:0:
509,350,21569,6,0,L|494:207,1,136,2|8,3:2|0:0,0:0:0:0:
478,66,22037,2,0,L|485:140,1,68,2|0,0:0|3:0,0:0:0:0:
307,139,22350,2,0,L|299:64,1,68,2|8,3:2|0:0,0:0:0:0:
400,178,22662,1,2,0:0:0:0:
400,178,22819,6,0,L|385:35,1,136,2|10,3:2|0:0,0:0:0:0:
208,38,23287,2,0,L|223:181,1,136,2|2,0:0|3:2,0:0:0:0:
228,254,23756,1,10,0:0:0:0:
80,72,23912,6,0,B|43:51|43:51|18:112|47:192,1,170,6|0,3:2|3:0,0:0:0:0:
149,352,24381,1,10,0:0:0:0:
42,176,24537,1,2,3:2:0:0:
42,176,24615,1,2,3:2:0:0:
42,176,24694,1,10,0:0:0:0:
228,254,24850,1,0,3:0:0:0:
228,254,24928,1,0,3:0:0:0:
228,254,25006,1,8,0:0:0:0:
31,299,25162,1,2,0:0:0:0:
163,149,25319,6,0,B|171:110|155:63|155:63|181:39|234:54,2,152.999995330811,14|8|0,3:2|0:0|3:0,0:0:0:0:
136,255,26100,2,0,P|175:248|231:265,1,76.4999976654053,2|8,3:2|0:0,0:0:0:0:
65,316,26412,1,2,0:0:0:0:
24,384,26569,6,0,P|28:328|17:222,1,152.999995330811,2|10,3:2|0:0,0:0:0:0:
18,58,27037,2,0,P|20:89|14:148,1,76.4999976654053,2|0,0:0|3:0,0:0:0:0:
179,131,27350,2,0,P|176:99|182:40,1,76.4999976654053,2|8,3:2|0:0,0:0:0:0:
100,18,27662,1,2,0:0:0:0:
100,18,27819,6,0,P|99:97|96:194,1,152.999995330811,2|10,3:2|0:0,0:0:0:0:
110,350,28287,2,0,P|147:340|200:358,1,76.4999976654053,2|0,0:0|3:0,0:0:0:0:
222,193,28600,2,0,P|212:230|170:266,1,76.4999976654053,2|8,3:2|0:0,0:0:0:0:
383,366,28912,6,0,P|340:372|260:295,1,152.999995330811,2|2,0:0|3:2,0:0:0:0:
277,111,29381,1,10,0:0:0:0:
222,193,29537,1,2,3:2:0:0:
346,290,29694,1,2,3:2:0:0:
401,208,29850,1,2,3:2:0:0:
312,201,30006,1,10,0:0:0:0:
433,289,30162,1,2,0:0:0:0:
512,67,30319,6,0,B|468:36|427:44|427:44|394:88|335:57,1,187.000005706787,6|8,3:2|0:0,0:0:0:0:
73,39,30787,2,0,B|94:28|108:-1|108:-1|111:158,1,187.000005706787,6|0,3:2|3:0,0:0:0:0:
166,224,31256,1,10,0:0:0:0:
257,37,31412,6,0,B|235:26|222:-3|222:-3|219:156,1,187.000005706787,6|2,3:2|3:2,0:0:0:0:
216,329,31881,1,10,0:0:0:0:
0,236,32037,6,0,P|105:223|282:236,1,272,6|10,3:2|0:0,0:0:0:0:
472,342,32506,1,10,0:0:0:0:
441,149,32662,1,2,3:2:0:0:
270,233,32819,5,10,0:0:0:0:
387,258,32975,1,0,3:0:0:0:
387,258,33053,1,0,3:0:0:0:
387,258,33131,1,8,0:0:0:0:
343,33,33287,2,0,P|350:86|347:157,1,93.5000028533936,10|0,0:0|3:0,0:0:0:0:
302,351,33600,1,2,3:2:0:0:
270,328,33678,1,0,3:0:0:0:
233,319,33756,1,0,3:0:0:0:
196,327,33834,1,0,3:0:0:0:
164,348,33912,6,0,P|100:365|2:322,1,170,14|0,0:0|3:0,0:0:0:0:
59,268,34381,2,0,P|97:283|156:255,1,85,8|0,0:0|3:0,0:0:0:0:
224,111,34694,1,0,3:0:0:0:
181,191,34850,1,0,3:0:0:0:
138,272,35006,1,8,0:0:0:0:
224,111,35162,2,0,L|213:13,1,85,10|0,0:0|0:0,0:0:0:0:
0,157,35475,5,10,0:0:0:0:
38,61,35631,1,10,0:0:0:0:
58,214,35787,5,10,0:0:0:0:
117,71,35944,1,10,0:0:0:0:
116,271,36100,5,10,0:0:0:0:
196,81,36256,1,10,0:0:0:0:
174,328,36412,5,10,0:0:0:0:
275,91,36569,2,0,P|280:133|279:175,1,85,14|0,0:0|0:0,0:0:0:0:
461,49,36881,2,0,P|421:33|385:10,1,85,10|0,0:0|0:0,0:0:0:0:
404,231,37194,2,0,P|437:204|475:185,1,85,10|0,0:0|3:0,0:0:0:0:
512,158,37428,1,0,3:0:0:0:
512,158,37506,1,8,0:0:0:0:
502,292,37662,1,2,3:2:0:0:
382,120,37819,6,0,L|260:99,1,85,8|2,0:0|0:0,0:0:0:0:
137,223,38131,2,0,L|259:202,1,85,10|0,0:0|3:0,0:0:0:0:
382,326,38444,2,0,L|260:305,1,85,10|0,0:0|3:0,0:0:0:0:
251,306,38678,1,0,3:0:0:0:
251,306,38756,1,10,0:0:0:0:
358,210,38912,1,0,3:0:0:0:
174,90,39069,6,0,P|167:45|183:-12,1,85,10|0,0:0|0:0,0:0:0:0:
0,94,39381,2,0,P|7:49|-9:-8,1,85,10|0,0:0|3:0,0:0:0:0:
80,191,39694,2,0,L|95:-10,1,170,10|10,0:0|0:0,0:0:0:0:
0,181,40162,1,2,3:2:0:0:
92,21,40319,5,10,0:0:0:0:
165,190,40475,1,2,3:2:0:0:
92,21,40631,2,0,L|179:26,1,85,10|0,0:0|3:0,0:0:0:0:
437,22,40944,2,0,L|350:27,1,85,10|0,0:0|3:0,0:0:0:0:
265,28,41178,1,0,3:0:0:0:
265,28,41256,6,0,L|261:89,1,51,14|0,0:0|0:0,0:0:0:0:
251,207,41569,6,0,B|236:121|261:80|261:80|302:121|371:90,1,220.999989883423,6|8,3:2|0:0,0:0:0:0:
512,193,42037,1,2,3:2:0:0:
512,193,42115,1,0,3:0:0:0:
512,193,42194,1,8,3:3:0:0:
493,33,42350,1,4,3:3:0:0:
437,114,42506,6,0,L|431:178,1,51,14|0,0:0|0:0,0:0:0:0:
453,288,42819,6,0,B|457:211|430:164|430:164|388:205|332:182,1,220.999989883423,6|10,3:2|0:0,0:0:0:0:
350,373,43287,2,0,P|351:299|342:164,1,187.000005706787,0|4,3:0|3:3,0:0:0:0:
336,138,43678,1,0,3:0:0:0:
336,138,43756,1,10,0:0:0:0:
453,288,43912,1,0,3:0:0:0:
230,329,44069,5,10,0:0:0:0:
119,140,44225,1,10,0:0:0:0:
336,138,44381,1,10,0:0:0:0:
35,361,44694,5,10,0:0:0:0:
477,361,45006,5,10,0:0:0:0:
256,192,45162,1,10,0:0:0:0:
35,361,45475,5,10,0:0:0:0:
256,192,45631,1,8,0:0:0:0:
504,45,46569,6,0,B|459:15|414:23|414:23|362:68|306:21,1,187.000005706787,6|10,3:2|0:0,0:0:0:0:
123,19,47037,2,0,P|129:72|118:126,1,93.5000028533936,2|0,0:0|3:0,0:0:0:0:
229,108,47350,2,0,P|222:61|229:15,1,93.5000028533936,2|8,3:2|0:0,0:0:0:0:
329,36,47662,1,2,0:0:0:0:
178,202,47819,5,2,3:2:0:0:
229,108,47975,1,2,3:2:0:0:
122,111,48131,1,10,0:0:0:0:
71,205,48287,2,0,P|75:256|63:314,1,93.5000028533936,2|0,0:0|3:0,0:0:0:0:
15,114,48600,2,0,P|10:62|22:4,1,93.5000028533936,2|8,3:2|0:0,0:0:0:0:
122,111,48912,1,2,0:0:0:0:
14,360,49069,6,0,B|54:324|98:338|98:338|142:378|191:359,1,187.000005706787,6|10,3:2|0:0,0:0:0:0:
512,364,49537,2,0,B|472:328|428:342|428:342|384:382|335:363,1,187.000005706787,6|2,3:2|3:2,0:0:0:0:
263,363,50006,1,8,0:0:0:0:
284,65,50162,6,0,L|268:292,1,220.999989883423,6|2,3:2|3:2,0:0:0:0:
413,352,50631,2,0,L|424:191,1,140.25000428009,10|0,0:0|0:0,0:0:0:0:
429,167,50944,1,0,3:0:0:0:
503,263,51100,1,0,3:0:0:0:
508,23,51256,1,10,0:0:0:0:
504,39,51569,6,0,P|421:23|294:41,1,187.000005706787,6|10,3:2|0:0,0:0:0:0:
178,260,52037,2,0,P|232:195|281:77,1,187.000005706787,2|2,0:0|3:2,0:0:0:0:
234,29,52506,1,10,0:0:0:0:
359,106,52662,1,2,0:0:0:0:
143,13,52819,6,0,B|112:4|65:18|65:18|89:75|64:127,1,187.000005706787,2|8,3:2|0:0,0:0:0:0:
0,286,53287,1,0,3:0:0:0:
0,286,53365,1,10,0:2:0:0:
0,286,53444,1,2,3:2:0:0:
183,224,53600,1,2,3:2:0:0:
81,225,53756,6,0,L|90:288,1,51,10|0,0:0|0:0,0:0:0:0:
81,366,54069,6,0,B|130:397|159:333|159:333|214:293|292:335,1,220.999989883423,6|10,3:2|0:0,0:0:0:0:
370,371,54537,2,0,L|376:261,1,93.5000028533936,2|0,3:2|3:0,0:0:0:0:
376,109,54850,1,0,3:0:0:0:
376,109,54928,1,0,3:0:0:0:
376,109,55006,1,8,0:0:0:0:
486,384,55162,6,0,L|497:158,1,220.999989883423,6|0,3:2|3:0,0:0:0:0:
430,3,55631,5,10,0:0:0:0:
496,163,55787,1,0,3:0:0:0:
258,56,55944,5,10,3:2:0:0:
324,216,56100,1,0,3:0:0:0:
324,216,56178,1,0,3:0:0:0:
324,216,56256,1,10,0:0:0:0:
287,188,56334,1,10,0:0:0:0:
241,179,56412,1,10,0:0:0:0:
196,192,56490,1,10,0:0:0:0:
162,224,56569,6,0,B|130:265|130:265|138:184|122:127,1,187.000005706787,14|10,3:2|0:0,0:0:0:0:
0,29,57037,2,0,L|119:12,1,93.5000028533936,2|0,0:0|3:0,0:0:0:0:
276,27,57350,2,0,L|157:10,1,93.5000028533936,2|8,3:2|0:0,0:0:0:0:
0,29,57662,1,2,0:0:0:0:
36,298,57819,5,2,3:2:0:0:
1,217,57975,1,2,3:2:0:0:
82,182,58131,1,10,0:0:0:0:
117,263,58287,2,0,P|120:314|113:365,1,93.5000028533936,2|0,0:0|3:0,0:0:0:0:
298,357,58600,2,0,P|295:306|302:255,1,93.5000028533936,2|8,3:2|0:0,0:0:0:0:
205,378,58912,1,2,0:0:0:0:
224,98,59069,6,0,L|207:315,1,187.000005706787,6|10,3:2|0:0,0:0:0:0:
399,379,59537,2,0,L|416:162,1,187.000005706787,6|2,3:2|3:2,0:0:0:0:
472,13,60006,1,8,0:0:0:0:
506,103,60162,6,0,B|435:101|435:101|391:68|391:68|277:65,1,220.999989883423,6|2,3:2|3:2,0:0:0:0:
134,33,60631,2,0,P|183:21|252:49,1,93.5000028533936,10|0,0:0|0:0,0:0:0:0:
296,65,60865,1,8,0:0:0:0:
296,65,60944,1,0,3:0:0:0:
134,33,61100,1,0,3:0:0:0:
124,245,61256,6,0,L|134:134,1,93.5000028533936,10|2,0:0|0:0,0:0:0:0:
161,361,61569,1,2,3:2:0:0:
26,176,61725,1,8,0:0:0:0:
242,246,61881,1,10,0:0:0:0:
27,317,62037,1,2,3:2:0:0:
27,317,62115,1,0,3:0:0:0:
27,317,62194,5,8,0:0:0:0:
161,361,62350,1,8,3:3:0:0:
242,246,62506,1,8,3:3:0:0:
160,131,62662,1,4,3:3:0:0:
26,176,62819,6,0,B|29:126|78:98|122:108|155:152|155:152|187:182|223:193|267:186|305:152,1,331.499984825135,6|0,3:2|3:0,0:0:0:0:
511,322,64069,6,0,B|483:368|483:368|433:298|473:196,1,212.5,6|8,3:2|0:0,0:0:0:0:
512,17,64537,1,2,3:2:0:0:
463,216,64694,1,2,0:0:0:0:
414,18,64850,1,2,3:2:0:0:
470,240,65006,2,0,L|479:127,1,85,10|0,0:0|3:0,0:0:0:0:
316,19,65319,6,0,L|299:211,1,170,2|10,3:2|0:0,0:0:0:0:
306,367,65787,1,2,3:2:0:0:
470,280,65944,1,2,0:0:0:0:
283,348,66100,1,2,3:2:0:0:
491,383,66256,2,0,P|488:339|494:298,1,85,10|0,0:0|3:0,0:0:0:0:
388,384,66569,6,0,P|390:316|371:189,1,170,2|10,3:2|0:0,0:0:0:0:
207,105,67037,6,0,P|155:142|27:97,1,191.250007295609,2|0,3:1|0:0,0:0:0:0:
85,5,67350,2,0,P|86:56|35:114,1,127.500004863739,2|10,3:1|0:0,0:0:0:0:
11,368,67662,6,0,B|27:318|4:273|4:273|35:234|73:268,1,170,6|0,3:2|3:0,0:0:0:0:
242,281,68131,1,8,0:0:0:0:
166,384,68287,1,2,3:2:0:0:
166,384,68365,1,0,3:0:0:0:
166,384,68444,2,0,P|160:355|170:320,1,55.2499974708558,2|8,3:2|0:0,0:0:0:0:
318,178,68600,2,0,P|323:198|322:233,1,55.2499974708558,10|8,0:0|0:0,0:0:0:0:
344,357,68756,2,0,P|324:362|289:360,1,55.2499974708558,10|8,3:2|0:0,0:0:0:0:
139,204,68912,2,0,P|159:199|193:204,1,55.2499974708558,10|8,0:0|0:0,0:0:0:0:
441,357,69069,5,14,3:2:0:0:
455,242,69225,1,2,0:0:0:0:
470,128,69381,1,10,0:0:0:0:
485,14,69537,2,0,P|483:80|501:200,1,170,2|2,3:2|3:2,0:0:0:0:
390,27,70006,1,10,0:0:0:0:
356,138,70162,1,2,3:2:0:0:
211,17,70319,5,2,3:2:0:0:
177,128,70475,2,0,L|268:120,1,85,2|10,3:2|0:0,0:0:0:0:
390,27,70787,2,0,L|299:19,1,85,2|0,3:2|0:0,0:0:0:0:
117,15,71100,1,0,3:0:0:0:
117,15,71178,1,0,3:0:0:0:
117,15,71256,1,10,0:0:0:0:
211,17,71412,1,2,0:0:0:0:
5,168,71569,5,10,0:0:0:0:
117,15,71725,1,0,3:0:0:0:
269,128,71881,1,10,0:0:0:0:
157,280,72037,2,0,L|148:182,1,85,10|0,0:0|3:0,0:0:0:0:
94,349,72350,2,0,L|4:307,1,85,10|0,0:0|3:0,0:0:0:0:
221,354,72662,6,0,L|380:280,1,170,14|10,0:0|0:0,0:0:0:0:
463,53,73131,1,10,3:2:0:0:
254,185,73287,1,10,0:0:0:0:
502,198,73444,1,10,3:2:0:0:
310,44,73600,1,10,0:0:0:0:
375,282,73756,1,10,3:2:0:0:
391,164,73912,1,10,0:0:0:0:
391,164,73990,1,8,0:0:0:0:
391,164,74069,1,14,3:2:0:0:
487,37,77350,5,0,3:0:0:0:
487,37,77428,1,0,3:0:0:0:
487,37,77506,1,0,3:0:0:0:
487,37,77819,6,0,L|433:44,1,42.5,8|0,0:0|3:0,0:0:0:0:
483,177,77975,2,0,L|503:126,1,42.5,8|0,0:0|3:0,0:0:0:0:
363,103,78131,1,0,3:0:0:0:
363,103,78209,1,0,3:0:0:0:
363,103,78287,2,0,L|396:146,1,42.5,8|0,0:0|3:0,0:0:0:0:
512,304,78444,1,8,0:0:0:0:
488,285,78522,1,0,3:0:0:0:
461,275,78600,1,0,3:0:0:0:
431,276,78678,1,0,3:0:0:0:
403,286,78756,6,0,L|400:345,1,51,14|0,0:0|0:0,0:0:0:0:
324,377,79069,6,0,L|305:251,1,93.5000028533936,6|0,3:2|0:0,0:0:0:0:
105,350,79381,2,0,L|223:396,1,93.5000028533936,8|0,0:0|3:0,0:0:0:0:
237,172,79694,2,0,L|137:251,1,93.5000028533936,8|0,0:0|3:0,0:0:0:0:
219,295,80006,5,8,0:0:0:0:
97,139,80162,1,0,3:0:0:0:
221,317,80319,5,8,0:0:0:0:
197,96,80475,1,0,3:0:0:0:
223,339,80631,5,8,0:0:0:0:
305,108,80787,1,0,3:0:0:0:
224,363,80944,2,0,L|218:256,1,93.5000028533936,8|0,0:0|3:0,0:0:0:0:
220,229,81178,1,0,3:0:0:0:
220,229,81256,1,8,0:0:0:0:
305,299,81412,1,0,3:0:0:0:
40,254,81569,5,14,0:0:0:0:
36,348,81725,2,0,L|42:215,1,93.5000028533936,2|10,3:2|0:0,0:0:0:0:
82,39,82037,5,2,3:2:0:0:
82,39,82115,1,2,3:2:0:0:
82,39,82194,1,10,0:0:0:0:
0,134,82350,1,2,3:2:0:0:
40,254,82506,1,8,0:0:0:0:
205,64,82662,5,2,3:2:0:0:
205,64,82740,1,2,3:2:0:0:
205,64,82819,1,10,0:0:0:0:
247,183,82975,1,2,3:2:0:0:
165,279,83132,1,8,0:0:0:0:
130,168,83287,1,2,3:2:0:0:
130,168,83365,1,2,3:2:0:0:
130,168,83444,2,0,P|81:154|25:177,1,93.5000028533936,10|0,0:0|3:0,0:0:0:0:
13,327,83756,1,10,0:0:0:0:
94,35,83912,6,0,B|153:65|224:56|197:31|272:12|346:73|346:73|434:128|430:230|346:289|262:230|258:128|346:73|346:73|392:1|469:38|469:38|524:88|542:190|497:298|399:323,1,1160.24996459198,6|0,3:2|0:0,0:0:0:0:
