osu file format v14

[General]
AudioFilename: duca.mp3
AudioLeadIn: 0
PreviewTime: 51225
Countdown: 0
SampleSet: Soft
StackLeniency: 0.7
Mode: 0
LetterboxInBreaks: 0
WidescreenStoryboard: 0

[Editor]
Bookmarks: 84990,88119
DistanceSpacing: 1.3
BeatDivisor: 4
GridSize: 8
TimelineZoom: 1.7

[Metadata]
Title:Shiawase no Otoshimono
TitleUnicode:幸せのオトシモノ
Artist:Duca
ArtistUnicode:Duca
Creator:Doro
Version:SupaV's Hard
Source:your diary+H
Tags:CUBE Alchemist Entergram Inc female vocals vocalist theme Yua ゆあ デュッカ 中丸智絵 Chie Nakamaru ANZIE eroge vn visual novel video game op opening short ver jpop j-pop jp japanese pop supav share
BeatmapID:3923859
BeatmapSetID:1899762

[Difficulty]
HPDrainRate:4
CircleSize:3.8
OverallDifficulty:6
ApproachRate:7.5
SliderMultiplier:1.38
SliderTickRate:1

[Events]
//Background and Video events
0,0,"supav.jpg",0,0
//Break Periods
//Storyboard Layer 0 (Background)
//Storyboard Layer 1 (Fail)
//Storyboard Layer 2 (Pass)
//Storyboard Layer 3 (Foreground)
//Storyboard Layer 4 (Overlay)
//Storyboard Sound Samples

[TimingPoints]
1256,368.098159509203,4,2,1,45,1,0
7145,-142.857142857143,4,2,1,45,0,0
11562,-100,4,2,1,45,0,0
11930,-100,4,2,1,50,0,0
12298,-100,4,2,1,55,0,0
13035,-117.647058823529,4,2,2,60,0,0
13403,-117.647058823529,4,2,1,60,0,0
34936,-100,4,2,1,60,0,0
36593,-111.111111111111,4,2,1,55,0,0
46900,-111.111111111111,4,2,1,60,0,0
48372,-100,4,2,1,60,0,0
49844,-100,4,2,1,65,0,0
51317,-90.9090909090909,4,2,2,70,0,0
51501,-90.9090909090909,4,2,1,70,0,0
60151,-90.9090909090909,4,2,1,75,0,0
61624,-90.9090909090909,4,2,1,75,0,0
62728,-90.9090909090909,4,2,1,70,0,0
63096,-90.9090909090909,4,2,2,70,0,0
63280,-90.9090909090909,4,2,1,70,0,0
73403,-90.9090909090909,4,2,1,80,0,0
74875,-125,4,2,2,60,0,0
75243,-125,4,2,1,50,0,0
80397,-111.111111111111,4,2,1,50,0,0
80765,-111.111111111111,4,2,1,60,0,0
83986,-100,4,2,1,60,0,0
84998,-200,4,2,1,60,0,0
85182,-200,4,2,1,45,0,0
85550,-200,4,2,1,40,0,0
85918,-200,4,2,1,35,0,0
86286,-200,4,2,1,30,0,0
86654,-200,4,2,1,25,0,0
87022,-200,4,2,1,20,0,0
87390,-200,4,2,1,15,0,0
87759,-200,4,2,1,10,0,0
88127,-200,4,2,1,5,0,0

[Colours]
Combo1 : 218,218,218
Combo2 : 234,177,132
Combo3 : 249,212,170
Combo4 : 249,237,198
Combo5 : 192,192,191

[HitObjects]
256,192,3648,12,2,6777,2:2:0:0:
364,194,7145,54,0,P|356:244|346:299,1,96.599997052002,2|2,2:2|2:2,0:0:0:0:
211,381,7881,2,0,P|203:331|194:284,1,96.599997052002,2|2,2:2|2:2,0:0:0:0:
166,124,8617,6,0,P|126:94|73:105,1,96.599997052002,2|2,2:2|2:2,0:0:0:0:
4,126,9170,2,0,P|14:171|27:231,1,96.599997052002,2|2,2:2|2:2,0:0:0:0:
2,299,9722,1,2,2:2:0:0:
145,379,10090,53,2,2:2:0:0:
301,323,10458,1,2,2:2:0:0:
301,323,10642,2,0,P|334:330|357:336,1,48.299998526001,2|2,2:2|2:2,0:0:0:0:
430,337,11010,2,0,P|425:364|418:398,2,48.299998526001,0|2|0,2:2|2:2|2:2,0:0:0:0:
511,299,11562,6,0,P|506:263|497:215,1,69,2|0,2:2|2:2,0:0:0:0:
433,171,11930,2,0,P|438:135|447:87,1,69,2|0,2:2|2:2,0:0:0:0:
422,15,12298,2,0,L|381:22,3,34.5,2|0|0|0,2:2|2:2|2:2|2:2,0:0:0:0:
347,41,12667,2,0,L|306:34,3,34.5,2|0|0|0,2:2|2:2|2:2|2:2,0:0:0:0:
276,17,13035,5,6,3:2:0:0:
121,72,13403,2,0,P|115:38|106:-5,1,58.65000111866,10|2,3:2|3:2,0:0:0:0:
29,30,13771,2,0,P|34:58|39:87,1,58.65000111866,2|0,3:2|3:2,0:0:0:0:
93,155,14139,1,10,3:2:0:0:
93,155,14323,6,0,P|84:207|71:282,1,117.30000223732,2|0,3:2|3:2,0:0:0:0:
94,349,14875,2,0,P|118:364|165:353,1,58.65000111866,10|0,3:2|3:2,0:0:0:0:
217,320,15243,2,0,P|241:305|288:316,1,58.65000111866,2|0,3:2|3:2,0:0:0:0:
339,349,15611,1,10,3:2:0:0:
482,268,15979,6,0,P|492:324|506:407,2,117.30000223732,2|8|0,3:2|3:2|3:2,0:0:0:0:
418,215,16900,1,2,3:2:0:0:
463,147,17084,1,10,3:2:0:0:
463,147,17268,1,2,3:2:0:0:
392,104,17452,54,0,P|330:116|258:128,1,117.30000223732,0|8,3:2|3:2,0:0:0:0:
204,164,18004,2,0,P|168:142|172:68,1,117.30000223732,0|0,3:2|3:2,0:0:0:0:
207,1,18556,1,8,3:2:0:0:
356,69,18924,53,0,3:2:0:0:
507,5,19292,2,0,P|500:41|493:78,1,58.65000111866,10|0,3:2|3:2,0:0:0:0:
454,133,19660,2,0,P|460:169|468:206,1,58.65000111866,2|0,3:2|3:2,0:0:0:0:
512,264,20029,1,10,3:2:0:0:
512,264,20213,6,0,P|459:295|388:273,1,117.30000223732,2|0,3:2|3:2,0:0:0:0:
324,278,20765,2,0,P|329:306|334:335,1,58.65000111866,10|0,3:2|3:2,0:0:0:0:
264,382,21133,2,0,P|258:353|253:324,1,58.65000111866,2|0,3:2|3:2,0:0:0:0:
187,275,21501,1,10,3:2:0:0:
61,380,21869,6,0,P|11:350|33:284,1,117.30000223732,2|8,3:2|3:2,0:0:0:0:
56,227,22421,1,2,3:2:0:0:
56,227,22605,2,0,P|48:193|28:100,1,117.30000223732,2|8,3:2|3:2,0:0:0:0:
4,34,23157,1,2,3:2:0:0:
78,0,23341,54,0,P|130:43|186:27,1,117.30000223732,2|10,3:2|3:2,0:0:0:0:
250,1,23894,2,0,P|256:36|264:78,1,58.65000111866,2|0,3:2|3:2,0:0:0:0:
315,119,24262,1,2,3:2:0:0:
258,178,24446,1,8,3:2:0:0:
366,301,24814,53,0,3:2:0:0:
222,380,25182,1,10,3:2:0:0:
222,380,25366,1,2,3:2:0:0:
159,326,25550,2,0,P|165:291|169:254,1,58.65000111866,2|0,3:2|3:2,0:0:0:0:
217,204,25918,1,10,3:2:0:0:
217,204,26102,6,0,P|269:189|324:246,1,117.30000223732,2|0,3:2|3:2,0:0:0:0:
373,282,26654,2,0,P|367:318|359:355,1,58.65000111866,10|0,3:2|3:2,0:0:0:0:
433,381,27022,2,0,P|438:352|443:323,1,58.65000111866,2|0,3:2|3:2,0:0:0:0:
507,272,27390,1,10,3:2:0:0:
379,168,27759,6,0,P|315:177|244:193,2,117.30000223732,2|8|0,3:2|3:2|3:2,0:0:0:0:
453,202,28679,1,2,3:2:0:0:
505,139,28863,1,10,3:2:0:0:
505,139,29047,1,2,3:2:0:0:
456,72,29231,54,0,P|414:33|352:45,1,117.30000223732,0|8,3:2|3:2,0:0:0:0:
214,119,29967,2,0,P|208:86|202:53,1,58.65000111866,2|0,3:2|3:2,0:0:0:0:
148,0,30335,1,10,3:2:0:0:
6,83,30703,54,0,P|14:115|21:160,1,58.65000111866,2|0,3:2|3:2,0:0:0:0:
0,220,31071,1,10,3:2:0:0:
0,220,31256,2,0,P|56:220|100:168,1,117.30000223732,2|0,3:2|3:2,0:0:0:0:
147,113,31808,2,0,P|182:121|222:130,1,58.65000111866,10|2,3:2|3:2,0:0:0:0:
275,86,32176,6,0,P|314:141|284:195,1,117.30000223732,2|8,3:2|3:2,0:0:0:0:
300,347,32912,2,0,P|265:339|225:330,1,58.65000111866,2|0,3:2|3:2,0:0:0:0:
174,379,33280,1,10,3:2:0:0:
9,382,33648,6,0,P|18:314|29:247,1,117.30000223732,2|8,3:2|3:2,0:0:0:0:
2,187,34200,2,0,P|33:149|114:171,1,117.30000223732,2|0,3:2|3:2,0:0:0:0:
170,189,34752,1,8,3:2:0:0:
229,121,34936,54,0,P|219:62|214:32,1,69,0|0,3:2|3:2,0:0:0:0:
295,5,35305,1,0,3:2:0:0:
295,5,35489,2,0,P|300:39|306:73,1,69,8|0,3:2|3:2,0:0:0:0:
306,162,35857,2,0,P|345:182|383:169,1,69,2|0,3:2|3:2,0:0:0:0:
442,125,36225,1,10,3:2:0:0:
442,125,36409,1,0,3:2:0:0:
509,179,36593,54,0,P|500:241|486:313,1,124.199996209717,2|0,3:2|3:2,0:0:0:0:
333,380,37329,1,10,3:2:0:0:
333,380,37513,2,0,P|327:342|321:306,1,62.0999981048585,2|2,3:2|3:2,0:0:0:0:
278,244,37881,6,0,P|341:232|397:276,2,124.199996209717,2|0|0,3:2|3:2|3:2,0:0:0:0:
234,321,38802,1,10,3:2:0:0:
234,321,38986,2,0,P|204:326|173:330,1,62.0999981048585,2|2,3:2|3:2,0:0:0:0:
8,272,39538,6,0,P|13:238|21:193,1,62.0999981048585,2|0,3:2|3:2,0:0:0:0:
0,125,39906,1,2,3:2:0:0:
124,3,40274,1,10,3:2:0:0:
124,3,40458,2,0,P|157:10|194:18,1,62.0999981048585,0|2,3:2|3:2,0:0:0:0:
270,2,40826,54,0,P|281:62|296:143,1,124.199996209717,2|2,3:2|3:2,0:0:0:0:
340,196,41378,1,2,3:2:0:0:
179,263,41746,2,0,P|186:297|192:331,1,62.0999981048585,10|0,3:2|3:2,0:0:0:0:
253,384,42114,1,2,3:2:0:0:
425,344,42482,53,2,3:2:0:0:
425,344,42667,2,0,P|448:282|409:239,1,124.199996209717,0|0,3:2|3:2,0:0:0:0:
363,177,43219,1,10,3:2:0:0:
363,177,43403,2,0,P|368:143|373:100,1,62.0999981048585,2|2,3:2|3:2,0:0:0:0:
417,42,43771,6,0,P|470:35|512:100,2,124.199996209717,2|0|0,3:2|3:2|3:2,0:0:0:0:
335,28,44691,1,10,3:2:0:0:
335,28,44875,2,0,P|331:58|326:89,1,62.0999981048585,2|2,3:2|3:2,0:0:0:0:
266,152,45243,2,0,P|223:114|150:134,2,124.199996209717,2|0|0,3:2|3:2|3:2,0:0:0:0:
319,220,46163,2,0,P|349:216|380:211,1,62.0999981048585,8|0,3:2|3:2,0:0:0:0:
460,175,46532,1,2,3:2:0:0:
360,32,46900,6,0,P|325:39|282:48,1,62.0999981048585,2|0,3:2|3:2,0:0:0:0:
227,90,47268,1,10,3:2:0:0:
227,90,47452,2,0,P|209:117|214:158,1,62.0999981048585,2|0,3:2|3:2,0:0:0:0:
255,219,47820,1,2,3:2:0:0:
202,288,48004,1,8,3:2:0:0:
17,281,48372,54,0,P|10:316|2:365,1,69,6|0,3:2|3:2,0:0:0:0:
92,384,48740,1,8,3:2:0:0:
92,384,48924,2,0,P|102:320|115:242,1,138,0|0,3:2|3:2,0:0:0:0:
173,180,49476,2,0,P|167:148|161:109,1,69,8|0,3:2|3:2,0:0:0:0:
192,27,49844,6,0,P|220:6|264:11,1,69,14|0,3:2|3:2,0:0:0:0:
330,52,50213,1,2,3:2:0:0:
413,11,50397,1,14,3:2:0:0:
413,11,50489,1,0,3:2:0:0:
413,11,50581,2,0,P|418:42|430:100,1,69,0|2,3:2|3:2,0:0:0:0:
502,125,50949,2,0,P|496:150|491:177,3,34.5,12|0|0|0,3:2|3:2|3:2|3:2,0:0:0:0:
472,198,51317,38,0,P|481:239|492:291,1,75.9000023162842,6|0,3:2|3:2,0:0:0:0:
509,360,51685,2,0,B|483:374|453:364|437:347|441:342|446:338|434:317|403:306|370:322,1,151.800004632568,10|2,3:2|3:2,0:0:0:0:
289,293,52237,1,2,3:2:0:0:
230,362,52421,1,10,3:2:0:0:
152,314,52605,6,0,P|164:242|183:148,1,151.800004632568,2|0,3:2|3:2,0:0:0:0:
124,92,53157,2,0,P|80:100|34:112,1,75.9000023162842,10|0,3:2|3:2,0:0:0:0:
160,10,53525,2,0,P|204:18|250:30,1,75.9000023162842,2|0,3:2|3:2,0:0:0:0:
306,82,53894,1,10,3:2:0:0:
469,0,54262,6,0,P|477:38|488:95,1,75.9000023162842,2|0,3:2|3:2,0:0:0:0:
512,165,54630,1,8,3:2:0:0:
512,165,54814,2,0,B|497:219|497:219|510:255|510:255|488:322,1,151.800004632568,0|0,3:2|3:2,0:0:0:0:
430,376,55366,2,0,P|404:351|418:300,1,75.9000023162842,10|0,3:2|3:2,0:0:0:0:
353,240,55734,54,0,B|321:223|293:235|281:253|285:258|290:262|278:283|247:294|214:278,1,151.800004632568,2|10,3:2|3:2,0:0:0:0:
145,329,56286,2,0,P|138:291|129:254,1,75.9000023162842,2|0,3:2|3:2,0:0:0:0:
66,188,56654,1,2,3:2:0:0:
132,126,56838,1,8,3:2:0:0:
0,0,57206,54,0,P|37:8|87:20,1,75.9000023162842,6|0,3:2|3:2,0:0:0:0:
168,6,57575,1,8,3:2:0:0:
168,6,57759,2,0,P|232:54|216:122,1,151.800004632568,0|0,3:2|3:2,0:0:0:0:
194,204,58311,2,0,P|203:245|212:293,1,75.9000023162842,10|0,3:2|3:2,0:0:0:0:
189,370,58679,5,2,3:2:0:0:
189,370,58863,1,2,3:2:0:0:
108,327,59047,1,10,3:2:0:0:
33,379,59231,2,0,P|23:307|6:219,1,151.800004632568,2|0,3:2|3:2,0:0:0:0:
1,138,59783,2,0,P|41:132|77:161,1,75.9000023162842,8|0,3:2|3:2,0:0:0:0:
160,159,60151,6,0,P|152:196|145:233,1,75.9000023162842,2|0,3:2|3:2,0:0:0:0:
222,281,60519,2,0,P|229:243|236:206,1,75.9000023162842,10|0,3:2|3:2,0:0:0:0:
293,135,60887,2,0,P|332:126|382:116,1,75.9000023162842,2|0,3:2|3:2,0:0:0:0:
264,49,61256,2,0,P|225:40|175:30,1,75.9000023162842,10|0,3:2|3:2,0:0:0:0:
104,1,61624,53,14,3:2:0:0:
32,56,61808,1,2,3:2:0:0:
81,138,61992,1,14,3:2:0:0:
81,138,62176,2,0,P|75:181|65:235,1,75.9000023162842,2|12,3:2|3:2,0:0:0:0:
0,272,62544,1,2,3:2:0:0:
47,349,62728,2,0,P|74:328|132:340,1,75.9000023162842,12|0,3:2|3:2,0:0:0:0:
187,382,63096,54,0,P|194:342|205:287,1,75.9000023162842,6|0,3:2|3:2,0:0:0:0:
226,219,63464,2,0,B|258:202|286:214|298:232|294:237|289:241|301:262|332:273|365:257,1,151.800004632568,10|2,3:2|3:2,0:0:0:0:
431,209,64016,1,2,3:2:0:0:
504,262,64200,1,10,3:2:0:0:
444,330,64384,6,0,P|352:344|274:357,1,151.800004632568,2|0,3:2|3:2,0:0:0:0:
213,310,64936,2,0,P|206:349|198:389,1,75.9000023162842,10|0,3:2|3:2,0:0:0:0:
125,280,65305,2,0,P|132:241|140:201,1,75.9000023162842,2|0,3:2|3:2,0:0:0:0:
80,135,65673,1,10,3:2:0:0:
207,5,66041,6,0,P|232:27|286:22,1,75.9000023162842,2|0,3:2|3:2,0:0:0:0:
363,5,66409,1,8,3:2:0:0:
363,5,66593,2,0,P|372:42|384:98,1,75.9000023162842,0|2,3:2|3:2,0:0:0:0:
422,145,66961,1,2,3:2:0:0:
381,226,67145,1,10,3:2:0:0:
294,196,67329,54,0,P|223:180|159:252,1,151.800004632568,2|0,3:2|3:2,0:0:0:0:
87,272,67881,2,0,P|93:314|100:351,1,75.9000023162842,10|0,3:2|3:2,0:0:0:0:
0,220,68249,2,0,P|7:182|12:145,1,75.9000023162842,2|0,3:2|3:2,0:0:0:0:
2,54,68617,1,10,3:2:0:0:
176,1,68986,54,0,P|212:-7|257:35,1,75.9000023162842,6|0,3:2|3:2,0:0:0:0:
339,21,69354,1,8,3:2:0:0:
339,21,69538,2,0,B|322:74|322:74|340:111|340:111|319:172,1,151.800004632568,0|0,3:2|3:2,0:0:0:0:
320,254,70090,2,0,P|288:271|233:258,1,75.9000023162842,10|0,3:2|3:2,0:0:0:0:
163,295,70458,6,0,P|154:336|142:393,1,75.9000023162842,2|0,3:2|3:2,0:0:0:0:
56,383,70826,2,0,P|63:345|72:308,1,75.9000023162842,10|0,3:2|3:2,0:0:0:0:
73,217,71194,2,0,P|27:227|-25:237,1,75.9000023162842,2|0,3:2|3:2,0:0:0:0:
135,135,71562,2,0,P|181:145|233:155,1,75.9000023162842,10|0,3:2|3:2,0:0:0:0:
273,214,71930,6,0,B|302:192|331:200|346:216|342:222|338:227|353:246|385:252|415:232,2,151.800004632568,6|8|0,3:2|3:2|3:2,0:0:0:0:
195,262,72851,1,0,3:2:0:0:
121,209,73035,2,0,P|128:170|139:111,1,75.9000023162842,8|0,3:2|3:2,0:0:0:0:
98,50,73403,54,0,P|128:23|185:37,1,75.9000023162842,14|2,3:2|3:2,0:0:0:0:
250,1,73771,1,2,3:2:0:0:
314,72,73955,1,14,3:2:0:0:
314,72,74139,2,0,P|305:114|296:170,1,75.9000023162842,2|2,3:2|3:2,0:0:0:0:
231,207,74507,2,0,P|237:234|243:258,3,37.9500011581421,14|0|0|0,3:2|3:2|3:2|3:2,0:0:0:0:
244,287,74875,22,0,B|308:304|308:304|323:319|323:319|402:338,1,165.6,6|2,3:2|3:2,0:0:0:0:
481,379,75611,1,10,3:2:0:0:
481,379,75795,1,0,3:2:0:0:
510,204,76163,5,2,3:2:0:0:
477,211,76532,1,2,3:2:0:0:
445,221,76900,1,2,3:2:0:0:
361,248,77084,2,0,P|371:193|383:122,1,110.4,10|0,3:2|3:2,0:0:0:0:
511,20,77820,54,0,B|443:31|443:31|433:46|433:46|345:61,1,165.6,2|2,3:2|3:2,0:0:0:0:
289,8,78556,1,10,3:2:0:0:
289,8,78740,1,0,3:2:0:0:
117,50,79108,5,2,3:2:0:0:
124,83,79476,1,2,3:2:0:0:
134,115,79844,1,2,3:2:0:0:
195,178,80029,2,0,P|190:211|184:254,1,55.2,10|0,3:2|3:2,0:0:0:0:
226,309,80397,2,0,P|222:326|218:346,3,31.0499990524292,0|0|0|0,3:2|3:2|3:2|3:2,0:0:0:0:
197,376,80765,6,0,P|146:337|79:356,1,124.199996209717,12|0,3:2|3:2,0:0:0:0:
4,332,81317,1,2,3:2:0:0:
36,253,81501,1,10,3:2:0:0:
36,253,81685,2,0,P|30:215|18:166,1,62.0999981048585,0|2,3:2|3:2,0:0:0:0:
1,108,82053,5,2,3:2:0:0:
138,52,82421,1,2,3:2:0:0:
276,3,82789,1,2,3:2:0:0:
352,45,82973,2,0,P|346:75|340:106,1,62.0999981048585,10|0,3:2|3:2,0:0:0:0:
279,168,83341,1,2,3:2:0:0:
339,229,83525,6,0,P|349:290|360:351,1,124.199996209717,0|0,3:2|3:2,0:0:0:0:
399,383,83986,1,0,3:2:0:0:
399,383,84078,1,0,3:2:0:0:
480,345,84262,54,0,P|474:313|464:258,1,69,12|0,3:2|3:2,0:0:0:0:
451,240,84538,1,0,3:2:0:0:
451,240,84630,1,0,3:2:0:0:
509,171,84814,1,14,3:2:0:0:
509,171,84906,1,0,3:2:0:0:
509,171,84998,54,0,B|376:-13|114:93|225:325|32:294,1,586.5,14|0,3:2|0:0,0:0:0:0:
