osu file format v14

[General]
AudioFilename: duca.mp3
AudioLeadIn: 0
PreviewTime: 51225
Countdown: 0
SampleSet: Soft
StackLeniency: 0.7
Mode: 0
LetterboxInBreaks: 0
WidescreenStoryboard: 1

[Editor]
Bookmarks: 1248,7137,13027,18916,24806,30695,36585,42474,44407,48364,49836,51309,54254,57198,60143,61616,62720,63088,66033,68978,71922,73395,74867,80757,86646
DistanceSpacing: 0.4
BeatDivisor: 4
GridSize: 8
TimelineZoom: 1.7

[Metadata]
Title:Shiawase no Otoshimono
TitleUnicode:幸せのオトシモノ
Artist:Duca
ArtistUnicode:Duca
Creator:Doro
Version:Share's Insane
Source:your diary+H
Tags:CUBE Alchemist Entergram Inc female vocals vocalist theme Yua ゆあ デュッカ 中丸智絵 Chie Nakamaru ANZIE eroge vn visual novel video game op opening short ver jpop j-pop jp japanese pop supav share
BeatmapID:3923858
BeatmapSetID:1899762

[Difficulty]
HPDrainRate:4.7
CircleSize:3.6
OverallDifficulty:7.5
ApproachRate:8.3
SliderMultiplier:1.55
SliderTickRate:1

[Events]
//Background and Video events
0,0,"share.jpg",0,0
//Break Periods
//Storyboard Layer 0 (Background)
//Storyboard Layer 1 (Fail)
//Storyboard Layer 2 (Pass)
//Storyboard Layer 3 (Foreground)
//Storyboard Layer 4 (Overlay)
//Storyboard Sound Samples

[TimingPoints]
1256,368.098159509203,4,2,1,45,1,0
1256,-111.111111111111,4,2,1,45,0,0
7145,-99.9999999999999,4,2,1,45,0,0
11930,-99.9999999999999,4,2,1,50,0,0
12298,-111.111111111111,4,2,1,55,0,0
13035,-100,4,2,2,60,0,0
13403,-100,4,2,1,60,0,0
36593,-111.111111111111,4,2,1,55,0,0
43771,-105.263157894737,4,2,1,55,0,0
46900,-99.9999999999999,4,2,1,60,0,0
49844,-99.9999999999999,4,2,1,65,0,0
51317,-90.9090909090909,4,2,2,70,0,1
51501,-90.9090909090909,4,2,1,70,0,1
60151,-90.9090909090909,4,2,1,75,0,1
61624,-90.9090909090909,4,2,1,75,0,1
62728,-90.9090909090909,4,2,1,70,0,0
63096,-90.9090909090909,4,2,2,70,0,1
63280,-90.9090909090909,4,2,1,70,0,1
73403,-90.9090909090909,4,2,1,80,0,1
74875,-100,4,2,2,60,0,0
75243,-100,4,2,1,50,0,0
80765,-100,4,2,1,60,0,0
83709,-100,4,2,1,60,0,0
85182,-100,4,2,1,45,0,0
85550,-100,4,2,1,40,0,0
85918,-100,4,2,1,35,0,0
86286,-100,4,2,1,30,0,0
86654,-100,4,2,1,25,0,0
87022,-100,4,2,1,20,0,0
87390,-100,4,2,1,15,0,0
87759,-100,4,2,1,10,0,0
88127,-100,4,2,1,5,0,0

[Colours]
Combo1 : 218,218,218
Combo2 : 234,177,132
Combo3 : 249,212,170
Combo4 : 249,237,198
Combo5 : 192,192,191

[HitObjects]
49,116,1256,54,0,B|80:96|113:97|113:97|149:129|200:109,1,139.499995742798,2|2,2:2|2:2,0:0:0:0:
425,55,1992,2,0,B|395:35|362:36|362:36|326:68|295:54,1,139.499995742798,2|2,2:2|2:2,0:0:0:0:
208,97,2728,5,2,2:2:0:0:
238,167,2912,1,2,2:2:0:0:
312,183,3096,1,2,2:2:0:0:
377,143,3280,1,2,2:2:0:0:
396,130,3648,54,0,L|478:138,2,69.749997871399,2|2|2,2:2|2:2|2:2,0:0:0:0:
312,183,4200,6,0,P|274:235|298:310,1,139.499995742798,2|2,2:2|2:2,0:0:0:0:
429,335,4936,2,0,P|467:283|443:208,1,139.499995742798,2|2,2:2|2:2,0:0:0:0:
412,65,5673,53,2,2:2:0:0:
341,35,5857,1,2,2:2:0:0:
266,55,6041,1,2,2:2:0:0:
223,118,6225,1,2,2:2:0:0:
199,103,6593,6,0,L|117:95,2,69.749997871399,2|2|2,2:2|2:2|2:2,0:0:0:0:
262,161,7145,54,0,P|250:238|242:319,1,155,2|2,2:2|2:2,0:0:0:0:
135,364,7697,1,0,2:2:0:0:
144,257,7881,2,0,P|107:249|63:251,1,77.5,2|0,2:2|2:2,0:0:0:0:
242,314,8249,2,0,P|280:315|318:307,1,77.5,2|0,2:2|2:2,0:0:0:0:
421,280,8617,6,0,P|424:319|427:361,2,77.5,2|2|2,2:2|0:0|2:2,0:0:0:0:
485,194,9170,2,0,P|424:146|353:168,1,155,2|2,2:2|2:2,0:0:0:0:
225,85,9722,2,0,P|262:93|301:91,1,77.5,2|2,2:2|2:2,0:0:0:0:
176,11,10090,54,0,P|183:97|188:176,1,155,2|2,2:2|2:2,0:0:0:0:
78,226,10642,1,2,2:2:0:0:
171,277,10826,2,0,B|212:257|247:283|245:288|240:294|282:326|323:299,1,155,2|2,2:2|2:2,0:0:0:0:
416,232,11378,1,0,2:2:0:0:
397,316,11562,6,0,P|423:322|455:330,3,38.75,2|0|0|0,2:2|2:2|2:2|2:2,0:0:0:0:
322,202,11930,1,2,2:2:0:0:
334,165,12022,1,2,2:2:0:0:
361,139,12114,1,2,2:2:0:0:
398,128,12206,1,2,2:2:0:0:
436,136,12298,54,0,L|432:85,3,34.8749989356995,2|0|0|0,2:2|2:2|2:2|0:0,0:0:0:0:
297,59,12667,2,0,L|294:93,3,34.8749989356995,2|0|0|0,2:2|2:2|2:2|2:2,0:0:0:0:
304,15,13035,22,0,P|231:24|142:33,1,155,6|10,3:2|3:2,0:0:0:0:
59,98,13587,1,2,3:2:0:0:
117,187,13771,2,0,P|147:159|156:117,1,77.5,2|0,3:2|3:2,0:0:0:0:
22,207,14139,2,0,P|32:243|61:269,1,77.5,10|2,3:2|3:2,0:0:0:0:
173,338,14507,6,0,B|114:340|114:340|95:362|95:362|24:366,2,155,0|10|2,3:2|3:2|3:2,0:0:0:0:
256,263,15427,1,0,3:2:0:0:
256,263,15611,2,0,P|293:252|334:263,1,77.5,10|0,3:2|3:2,0:0:0:0:
415,358,15979,6,0,P|420:282|429:190,1,155,2|8,3:2|3:2,0:0:0:0:
499,124,16532,1,0,3:2:0:0:
436,42,16716,2,0,P|399:31|361:39,1,77.5,0|2,3:2|3:2,0:0:0:0:
281,106,17084,1,10,3:2:0:0:
222,31,17268,1,2,3:2:0:0:
155,110,17452,54,0,P|160:151|164:189,1,77.5,0|0,3:2|3:2,0:0:0:0:
249,267,17820,2,0,P|253:228|257:190,1,77.5,8|0,3:2|3:2,0:0:0:0:
77,192,18188,2,0,P|81:230|85:268,1,77.5,0|0,3:2|3:2,0:0:0:0:
15,339,18556,1,8,3:2:0:0:
15,339,18740,1,0,3:2:0:0:
108,367,18924,54,0,P|171:332|250:370,1,155,0|10,3:2|3:2,0:0:0:0:
346,266,19476,1,0,3:2:0:0:
260,190,19660,2,0,P|255:228|251:266,1,77.5,2|0,3:2|3:2,0:0:0:0:
339,354,20029,1,10,3:2:0:0:
438,293,20213,6,0,P|442:195|446:130,1,155,2|0,3:2|3:2,0:0:0:0:
392,57,20765,2,0,P|353:52|315:48,1,77.5,10|0,3:2|3:2,0:0:0:0:
204,95,21133,2,0,P|199:56|195:18,1,77.5,2|0,3:2|3:2,0:0:0:0:
265,162,21501,2,0,P|303:166|341:170,1,77.5,10|0,3:2|3:2,0:0:0:0:
198,232,21869,6,0,P|138:190|53:228,1,155,2|8,3:2|3:2,0:0:0:0:
10,294,22421,1,2,3:2:0:0:
86,365,22605,2,0,B|110:342|151:346|151:346|199:387|239:353,1,155,2|8,3:2|3:2,0:0:0:0:
287,248,23157,1,2,3:2:0:0:
337,363,23341,54,0,B|319:265|319:265|370:238,1,155,2|10,3:2|3:2,0:0:0:0:
496,321,23894,2,0,L|416:310,1,77.5,2|0,3:2|3:2,0:0:0:0:
507,222,24262,1,2,3:2:0:0:
419,125,24446,2,0,L|408:201,1,77.5,8|0,3:2|3:2,0:0:0:0:
499,67,24814,54,0,P|441:26|357:52,1,155,0|10,3:2|3:2,0:0:0:0:
291,130,25366,1,2,3:2:0:0:
227,48,25550,2,0,P|188:43|150:39,1,77.5,2|0,3:2|3:2,0:0:0:0:
290,152,25918,1,10,3:2:0:0:
419,125,26102,6,0,P|412:199|403:295,1,155,2|0,3:2|3:2,0:0:0:0:
327,329,26654,2,0,P|285:320|243:326,1,77.5,10|0,3:2|3:2,0:0:0:0:
160,366,27022,2,0,P|121:369|83:360,1,77.5,2|0,3:2|3:2,0:0:0:0:
87,259,27390,2,0,P|125:255|163:264,1,77.5,10|0,3:2|3:2,0:0:0:0:
250,323,27759,6,0,P|259:244|268:156,2,155,2|8|0,3:2|3:2|3:2,0:0:0:0:
352,214,28679,1,2,3:2:0:0:
228,244,28863,2,0,P|189:239|151:235,1,77.5,10|2,3:2|3:2,0:0:0:0:
32,136,29231,54,0,P|86:102|169:136,1,155,0|8,3:2|3:2,0:0:0:0:
228,244,29783,1,0,3:2:0:0:
273,75,29967,2,0,P|268:114|264:152,1,77.5,2|0,3:2|3:2,0:0:0:0:
390,218,30335,2,0,P|385:179|381:141,1,77.5,10|0,3:2|3:2,0:0:0:0:
443,39,30703,54,0,P|407:32|366:47,1,77.5,2|0,3:2|3:2,0:0:0:0:
264,151,31071,1,10,3:2:0:0:
192,56,31256,2,0,P|121:33|49:86,1,155,2|0,3:2|3:2,0:0:0:0:
105,217,31808,1,10,3:2:0:0:
133,122,31992,1,2,3:2:0:0:
18,254,32176,6,0,P|66:258|183:277,1,155,2|8,3:2|3:2,0:0:0:0:
252,343,32728,1,0,3:2:0:0:
265,178,32912,2,0,P|260:216|256:254,1,77.5,2|0,3:2|3:2,0:0:0:0:
366,357,33280,2,0,P|361:318|357:280,1,77.5,10|0,3:2|3:2,0:0:0:0:
363,166,33648,6,0,P|423:209|492:181,1,155,2|8,3:2|3:2,0:0:0:0:
465,4,34200,2,0,B|415:24|415:24|435:138,1,155,2|0,3:2|3:2,0:0:0:0:
367,246,34752,1,8,3:2:0:0:
312,74,34936,54,0,B|233:59|233:59|187:80|209:126,1,155,0|0,3:2|3:2,0:0:0:0:
237,269,35489,1,8,3:2:0:0:
294,159,35673,1,0,3:2:0:0:
165,198,35857,2,0,P|126:193|88:189,1,77.5,2|0,3:2|3:2,0:0:0:0:
264,281,36225,2,0,P|302:276|340:272,1,77.5,10|0,3:2|3:2,0:0:0:0:
180,355,36593,54,0,P|120:325|43:363,1,139.499995742798,2|0,3:2|3:2,0:0:0:0:
166,176,37145,1,0,3:2:0:0:
24,229,37329,2,0,P|59:232|93:235,1,69.749997871399,10|2,3:2|3:2,0:0:0:0:
224,254,37697,1,2,3:2:0:0:
197,62,37881,6,0,B|153:88|153:88|168:191,1,139.499995742798,2|0,3:2|3:2,0:0:0:0:
322,145,38433,2,0,P|287:141|252:138,1,69.749997871399,0|0,3:2|3:2,0:0:0:0:
314,245,38802,1,10,3:2:0:0:
424,145,38986,1,2,3:2:0:0:
416,257,39170,2,0,P|452:265|489:256,1,69.749997871399,2|0,3:2|3:2,0:0:0:0:
496,72,39538,6,0,B|452:42|452:42|350:70,1,139.499995742798,2|2,3:2|3:2,0:0:0:0:
294,133,40090,1,0,3:2:0:0:
235,56,40274,2,0,P|199:48|162:57,1,69.749997871399,10|0,3:2|3:2,0:0:0:0:
101,130,40642,1,2,3:2:0:0:
40,52,40826,54,0,P|46:110|53:206,1,139.499995742798,2|2,3:2|3:2,0:0:0:0:
17,277,41378,2,0,P|51:283|84:275,1,69.749997871399,2|0,3:2|3:2,0:0:0:0:
167,214,41746,2,0,P|201:207|234:215,1,69.749997871399,10|0,3:2|3:2,0:0:0:0:
233,335,42114,2,0,P|198:341|165:333,1,69.749997871399,2|0,3:2|3:2,0:0:0:0:
322,228,42482,54,0,B|314:278|314:278|334:311|334:311|324:383,1,139.499995742798,2|0,3:2|3:2,0:0:0:0:
417,244,43035,1,0,3:2:0:0:
223,283,43219,5,10,3:2:0:0:
426,233,43403,1,2,3:2:0:0:
229,168,43587,1,2,3:2:0:0:
433,223,43771,6,0,P|424:152|415:72,1,147.249996068001,2|0,3:2|3:2,0:0:0:0:
290,4,44323,1,0,3:2:0:0:
297,178,44507,1,0,3:2:0:0:
195,44,44691,2,0,P|160:35|124:41,1,73.6249980340005,10|2,3:2|3:2,0:0:0:0:
295,211,45059,1,2,3:2:0:0:
345,78,45243,54,0,P|402:57|484:97,1,147.249996068001,2|0,3:2|3:2,0:0:0:0:
420,230,45795,2,0,P|412:187|402:145,1,73.6249980340005,0|0,3:2|3:2,0:0:0:0:
493,294,46163,2,0,P|468:317|411:314,1,73.6249980340005,8|0,3:2|3:2,0:0:0:0:
328,213,46532,1,2,3:2:0:0:
297,362,46716,1,0,3:2:0:0:
218,286,46900,54,0,B|162:263|162:263|64:288,1,155,2|10,3:2|3:2,0:0:0:0:
153,171,47452,1,2,3:2:0:0:
44,119,47636,2,0,P|52:163|55:195,1,77.5,0|2,3:2|3:2,0:0:0:0:
244,188,48004,2,0,P|247:149|255:111,1,77.5,8|0,3:2|3:2,0:0:0:0:
116,298,48372,5,6,3:2:0:0:
316,288,48556,1,0,3:2:0:0:
150,191,48740,1,8,3:2:0:0:
207,363,48924,1,0,3:2:0:0:
277,188,49108,6,0,P|320:178|364:192,1,77.5,0|0,3:2|3:2,0:0:0:0:
490,339,49476,2,0,P|447:349|403:335,1,77.5,8|0,3:2|3:2,0:0:0:0:
446,183,49844,53,14,3:2:0:0:
446,183,49936,1,0,3:2:0:0:
446,183,50029,2,0,L|446:282,1,77.5,2|2,3:2|3:2,0:0:0:0:
315,354,50397,1,14,3:2:0:0:
315,354,50489,1,0,3:2:0:0:
315,354,50581,2,0,L|315:255,1,77.5,0|2,3:2|3:2,0:0:0:0:
343,140,50949,5,12,3:2:0:0:
310,118,51041,1,0,3:2:0:0:
273,109,51133,1,0,3:2:0:0:
235,113,51225,1,0,3:2:0:0:
200,129,51317,38,0,B|162:106|123:129|123:129|95:183|34:166,1,170.500005203247,6|10,3:2|3:2,0:0:0:0:
140,265,51869,1,0,3:2:0:0:
81,344,52053,2,0,P|46:313|39:268,1,85.2500026016236,2|2,3:2|3:2,0:0:0:0:
195,180,52421,2,0,P|227:206|238:247,1,85.2500026016236,10|2,3:2|3:2,0:0:0:0:
324,337,52789,6,0,P|395:377|470:343,2,170.500005203247,0|10|2,3:2|3:2|3:2,0:0:0:0:
293,200,53709,1,0,3:2:0:0:
399,286,53894,2,0,P|411:237|401:196,1,85.2500026016236,10|0,3:2|3:2,0:0:0:0:
266,35,54262,2,0,P|254:75|260:117,1,85.2500026016236,2|0,3:2|3:2,0:0:0:0:
286,318,54630,5,8,3:2:0:0:
350,142,54814,1,0,3:2:0:0:
187,260,54998,2,0,P|183:216|171:168,1,85.2500026016236,0|0,3:2|3:2,0:0:0:0:
378,48,55366,2,0,P|368:89|364:131,1,85.2500026016236,10|0,3:2|3:2,0:0:0:0:
204,69,55734,54,0,P|126:46|51:111,1,170.500005203247,2|10,3:2|3:2,0:0:0:0:
25,218,56286,1,2,3:2:0:0:
134,174,56470,2,0,P|175:167|216:179,1,85.2500026016236,0|2,3:2|3:2,0:0:0:0:
343,312,56838,2,0,P|301:318|260:306,1,85.2500026016236,8|0,3:2|3:2,0:0:0:0:
259,71,57206,53,6,3:2:0:0:
307,229,57390,1,0,3:2:0:0:
385,78,57575,2,0,P|426:71|467:83,1,85.2500026016236,8|0,3:2|3:2,0:0:0:0:
440,256,57943,2,0,P|436:213|425:172,1,85.2500026016236,0|0,3:2|3:2,0:0:0:0:
301,28,58311,2,0,P|291:69|287:111,1,85.2500026016236,10|0,3:2|3:2,0:0:0:0:
229,273,58679,5,2,3:2:0:0:
167,118,58863,1,2,3:2:0:0:
233,296,59047,1,10,3:2:0:0:
286,111,59231,1,2,3:2:0:0:
149,160,59415,6,0,P|106:163|65:174,1,85.2500026016236,0|0,3:2|3:2,0:0:0:0:
299,216,59783,2,0,P|340:226|382:230,1,85.2500026016236,8|0,3:2|3:2,0:0:0:0:
129,353,60151,2,0,P|118:311|114:269,1,85.2500026016236,2|0,3:2|3:2,0:0:0:0:
313,132,60519,2,0,P|309:174|298:215,1,85.2500026016236,10|0,3:2|3:2,0:0:0:0:
198,69,60887,54,0,P|110:55|53:115,2,170.500005203247,2|10|10,3:2|3:2|3:2,0:0:0:0:
305,217,61808,1,2,3:2:0:0:
335,20,61992,1,14,3:2:0:0:
197,163,62176,1,2,3:2:0:0:
407,128,62360,5,12,3:2:0:0:
221,59,62544,1,2,3:2:0:0:
321,242,62728,1,12,3:2:0:0:
471,59,62912,37,0,3:2:0:0:
471,59,63004,1,0,3:2:0:0:
471,59,63096,2,0,P|463:131|455:236,1,170.500005203247,6|10,3:2|3:2,0:0:0:0:
453,360,63648,1,0,3:2:0:0:
360,285,63832,2,0,P|319:272|277:279,1,85.2500026016236,2|2,3:2|3:2,0:0:0:0:
128,344,64200,2,0,P|168:356|210:349,1,85.2500026016236,10|2,3:2|3:2,0:0:0:0:
148,228,64568,6,0,P|74:229|26:318,2,170.500005203247,0|10|2,3:2|3:2|3:2,0:0:0:0:
210,349,65489,1,0,3:2:0:0:
260,166,65673,2,0,P|249:207|245:249,1,85.2500026016236,10|0,3:2|3:2,0:0:0:0:
344,345,66041,5,2,3:2:0:0:
381,174,66225,1,0,3:2:0:0:
485,347,66409,2,0,P|481:304|469:263,1,85.2500026016236,8|0,3:2|3:2,0:0:0:0:
472,37,66777,1,2,3:2:0:0:
300,139,66961,1,2,3:2:0:0:
500,170,67145,1,10,3:2:0:0:
351,56,67329,54,0,P|271:39|211:106,1,170.500005203247,2|0,3:2|3:2,0:0:0:0:
286,223,67881,2,0,P|289:180|301:139,1,85.2500026016236,10|0,3:2|3:2,0:0:0:0:
78,59,68249,2,0,P|89:100|93:142,1,85.2500026016236,2|0,3:2|3:2,0:0:0:0:
88,340,68617,1,10,3:2:0:0:
189,192,68802,1,0,3:2:0:0:
257,322,68986,54,0,B|291:353|365:322|317:315|370:290|417:319,1,170.500005203247,6|8,3:2|3:2,0:0:0:0:
286,223,69538,1,0,3:2:0:0:
435,129,69722,2,0,P|423:170|419:212,1,85.2500026016236,0|0,3:2|3:2,0:0:0:0:
494,44,70090,2,0,P|453:31|411:38,1,85.2500026016236,10|0,3:2|3:2,0:0:0:0:
329,158,70458,6,0,P|287:164|247:151,1,85.2500026016236,2|0,3:2|3:2,0:0:0:0:
208,41,70826,2,0,P|249:34|289:47,1,85.2500026016236,10|0,3:2|3:2,0:0:0:0:
126,183,71194,2,0,P|111:99|86:10,2,170.500005203247,2|10|6,3:2|3:2|3:2,0:0:0:0:
59,285,72114,5,0,3:2:0:0:
168,362,72298,2,0,P|171:319|183:278,1,85.2500026016236,8|0,3:2|3:2,0:0:0:0:
126,183,72667,2,0,P|84:176|44:189,1,85.2500026016236,0|0,3:2|3:2,0:0:0:0:
268,329,73035,2,0,P|309:335|349:322,1,85.2500026016236,8|0,3:2|3:2,0:0:0:0:
415,127,73403,53,14,3:2:0:0:
301,242,73587,1,2,3:2:0:0:
496,227,73771,1,2,3:2:0:0:
338,49,73955,5,14,3:2:0:0:
400,245,74139,1,2,3:2:0:0:
501,63,74323,1,2,3:2:0:0:
336,142,74507,37,14,3:2:0:0:
293,137,74599,1,0,3:2:0:0:
251,133,74691,1,0,3:2:0:0:
208,128,74783,1,0,3:2:0:0:
166,123,74875,38,0,P|96:110|40:166,1,155,4|0,3:2|3:2,0:0:0:0:
51,327,75427,1,2,3:2:0:0:
121,225,75611,1,10,3:2:0:0:
173,328,75795,2,0,P|216:341|257:330,1,77.5,2|0,3:2|3:2,0:0:0:0:
436,238,76163,6,0,P|393:225|352:236,1,77.5,2|0,3:2|3:2,0:0:0:0:
356,342,76532,2,0,P|399:355|440:344,1,77.5,2|0,3:2|3:2,0:0:0:0:
361,231,76900,1,2,3:2:0:0:
258,363,77084,2,0,B|250:300|250:300|271:271|271:271|267:208,1,155,10|2,3:2|3:2,0:0:0:0:
314,130,77636,53,0,3:2:0:0:
314,130,77728,1,0,3:2:0:0:
314,130,77820,2,0,P|271:117|230:128,1,77.5,2|0,3:2|3:2,0:0:0:0:
71,187,78188,2,0,P|114:200|155:189,1,77.5,0|2,3:2|3:2,0:0:0:0:
239,123,78556,5,10,3:2:0:0:
271,228,78740,1,2,3:2:0:0:
365,66,78924,1,0,3:2:0:0:
361,204,79108,1,2,3:2:0:0:
417,135,79292,54,0,P|454:129|491:141,1,77.5,0|2,3:2|3:2,0:0:0:0:
486,277,79660,2,0,P|448:282|411:270,1,77.5,0|2,3:2|3:2,0:0:0:0:
313,129,80029,2,0,P|276:116|238:122,1,77.5,10|0,3:2|3:2,0:0:0:0:
84,324,80397,5,0,3:2:0:0:
122,327,80489,1,0,3:2:0:0:
161,330,80581,1,0,3:2:0:0:
200,333,80673,1,2,3:2:0:0:
234,337,80765,6,0,B|282:314|282:314|266:206,1,155,14|0,3:2|3:2,0:0:0:0:
252,43,81317,1,2,3:2:0:0:
160,186,81501,2,0,P|125:201|87:194,1,77.5,10|2,3:2|3:2,0:0:0:0:
33,36,81869,1,0,3:2:0:0:
131,103,82053,6,0,B|174:79|220:110|183:114|241:146|285:114,1,155,2|2,3:2|3:2,0:0:0:0:
386,36,82605,2,0,P|347:25|304:34,1,77.5,0|2,3:2|3:2,0:0:0:0:
461,114,82973,2,0,P|484:83|491:45,1,77.5,10|0,3:2|3:2,0:0:0:0:
283,213,83341,1,2,3:2:0:0:
460,258,83525,1,0,3:2:0:0:
367,123,83709,6,0,L|373:200,1,77.5,14|0,3:2|3:2,0:0:0:0:
376,243,83986,1,0,3:2:0:0:
376,243,84078,1,0,3:2:0:0:
195,347,84262,2,0,L|188:269,1,77.5,14|0,3:2|3:2,0:0:0:0:
186,236,84538,1,0,3:2:0:0:
186,236,84630,1,0,3:2:0:0:
66,125,84814,54,0,L|119:131,1,38.75,14|0,3:2|3:2,0:0:0:0:
278,46,84998,1,14,3:2:0:0:
256,192,85090,12,0,88127,0:0:0:0:
