osu file format v14

[General]
AudioFilename: duca.mp3
AudioLeadIn: 0
PreviewTime: 51225
Countdown: 0
SampleSet: Soft
StackLeniency: 0.7
Mode: 0
LetterboxInBreaks: 0
WidescreenStoryboard: 1

[Editor]
Bookmarks: 1248,7137,13027,18916,24806,30695,36585,42474,48364,49836,51309,54254,57198,60143,61616,62720,63088,66033,68978,71922,73395,74499,74867,80757,86646
DistanceSpacing: 1
BeatDivisor: 4
GridSize: 32
TimelineZoom: 3.999998

[Metadata]
Title:Shiawase no Otoshimono
TitleUnicode:幸せのオトシモノ
Artist:Duca
ArtistUnicode:Duca
Creator:Doro
Version:Normal
Source:your diary+H
Tags:CUBE Alchemist Entergram Inc female vocals vocalist theme Yua ゆあ デュッカ 中丸智絵 Chie Nakamaru ANZIE eroge vn visual novel video game op opening short ver jpop j-pop jp japanese pop supav share
BeatmapID:3923857
BeatmapSetID:1899762

[Difficulty]
HPDrainRate:3
CircleSize:3.5
OverallDifficulty:4
ApproachRate:5
SliderMultiplier:1.05
SliderTickRate:1

[Events]
//Background and Video events
0,0,"normal.jpg",0,0
//Break Periods
//Storyboard Layer 0 (Background)
//Storyboard Layer 1 (Fail)
//Storyboard Layer 2 (Pass)
//Storyboard Layer 3 (Foreground)
//Storyboard Layer 4 (Overlay)
//Storyboard Sound Samples

[TimingPoints]
1256,368.098159509203,4,2,1,45,1,0
1256,-125,4,2,1,45,0,0
7145,-117.647058823529,4,2,1,45,0,0
11930,-100,4,2,1,50,0,0
12298,-100,4,2,1,55,0,0
13035,-100,4,2,2,60,0,0
13403,-100,4,2,1,60,0,0
36593,-111.111111111111,4,2,1,55,0,0
46900,-111.111111111111,4,2,1,60,0,0
49844,-100,4,2,1,65,0,0
51317,-90.9090909090909,4,2,2,70,0,1
51501,-90.9090909090909,4,2,1,70,0,1
60151,-90.9090909090909,4,2,1,75,0,1
61624,-90.9090909090909,4,2,1,75,0,1
62728,-90.9090909090909,4,2,1,70,0,0
63096,-90.9090909090909,4,2,2,70,0,1
63280,-90.9090909090909,4,2,1,70,0,1
73403,-100,4,2,1,80,0,1
74875,-111.111111111111,4,2,2,60,0,0
75243,-111.111111111111,4,2,1,50,0,0
80765,-100,4,2,1,60,0,0
83709,-100,4,2,1,60,0,0
85182,-100,4,2,1,45,0,0
85550,-100,4,2,1,40,0,0
85918,-100,4,2,1,35,0,0
86286,-100,4,2,1,30,0,0
86654,-100,4,2,1,25,0,0
87022,-100,4,2,1,20,0,0
87390,-100,4,2,1,15,0,0
87759,-100,4,2,1,10,0,0
88127,-100,4,2,1,5,0,0

[Colours]
Combo1 : 218,218,218
Combo2 : 234,177,132
Combo3 : 249,212,170
Combo4 : 249,237,198
Combo5 : 192,192,191

[HitObjects]
108,338,1256,54,0,L|93:250,1,84,2|2,2:2|2:2,0:0:0:0:
146,189,1992,2,0,P|184:202|224:189,1,84,2|2,2:2|2:2,0:0:0:0:
274,123,2728,2,0,P|309:111|349:128,1,84,2|2,2:2|2:2,0:0:0:0:
380,158,3280,1,2,2:2:0:0:
424,229,3648,2,0,P|447:226|469:221,2,42,2|2|2,2:2|2:2|2:2,0:0:0:0:
392,256,4200,6,0,B|352:243|352:243|312:260,1,84,2|2,2:2|2:2,0:0:0:0:
244,212,4936,2,0,P|224:173|236:132,1,84,2|2,2:2|2:2,0:0:0:0:
314,109,5673,2,0,L|328:22,1,84,2|2,2:2|2:2,0:0:0:0:
366,9,6225,1,2,2:2:0:0:
442,87,6593,2,0,P|464:84|485:80,2,42,2|2|2,2:2|2:2|2:2,0:0:0:0:
396,113,7145,54,0,P|383:155|403:194,1,89.2500017023087,2|2,2:2|2:2,0:0:0:0:
371,277,7881,2,0,L|279:261,1,89.2500017023087,2|2,2:2|2:2,0:0:0:0:
244,181,8617,2,0,P|205:168|161:187,1,89.2500017023087,2|2,2:2|2:2,0:0:0:0:
139,225,9170,1,2,2:2:0:0:
199,316,9538,2,0,P|201:340|206:364,2,44.6250008511543,2|2|2,2:2|2:2|2:2,0:0:0:0:
230,284,10090,6,0,B|272:270|272:270|315:289,1,89.2500017023087,2|2,2:2|2:2,0:0:0:0:
397,259,10826,2,0,P|417:217|405:173,1,89.2500017023087,2|2,2:2|2:2,0:0:0:0:
319,165,11562,2,0,P|275:106|178:121,1,178.500003404617,2|2,2:2|2:2,0:0:0:0:
44,280,13035,6,0,L|147:297,1,105,6|10,3:2|3:2,0:0:0:0:
233,357,13771,2,0,P|283:352|312:310,1,105,2|10,3:2|3:2,0:0:0:0:
298,258,14323,2,0,P|290:208|327:167,1,105,2|0,3:2|3:2,0:0:0:0:
374,156,14875,1,10,3:2:0:0:
328,61,15243,2,0,L|225:44,1,105,2|10,3:2|3:2,0:0:0:0:
119,40,15979,6,0,P|69:28|26:55,2,105,2|8|0,3:2|3:2|3:2,0:0:0:0:
137,89,16900,2,0,P|133:115|131:141,1,52.5,2|10,3:2|3:2,0:0:0:0:
109,188,17268,2,0,L|126:291,1,105,2|0,3:2|3:2,0:0:0:0:
164,327,17820,1,8,3:2:0:0:
262,290,18188,2,0,P|312:283|351:316,1,105,0|8,3:2|3:2,0:0:0:0:
431,248,18924,6,0,P|440:197|409:155,1,105,0|10,3:2|3:2,0:0:0:0:
388,53,19660,2,0,L|285:70,1,105,2|10,3:2|3:2,0:0:0:0:
262,118,20213,2,0,P|212:125|173:92,1,105,2|0,3:2|3:2,0:0:0:0:
137,52,20765,1,10,3:2:0:0:
66,130,21133,2,0,B|43:180|43:180|59:228,1,105,2|10,3:2|3:2,0:0:0:0:
161,247,21869,54,0,P|204:220|254:231,1,105,2|8,3:2|3:2,0:0:0:0:
298,268,22421,1,2,3:2:0:0:
298,268,22605,2,0,P|292:319|324:359,1,105,2|8,3:2|3:2,0:0:0:0:
378,350,23157,1,2,3:2:0:0:
378,350,23341,1,2,3:2:0:0:
462,286,23709,1,10,3:2:0:0:
462,286,23894,2,0,L|445:183,1,105,2|2,3:2|3:2,0:0:0:0:
399,155,24446,1,8,3:2:0:0:
311,224,24814,54,0,L|208:207,1,105,0|10,3:2|3:2,0:0:0:0:
134,131,25550,2,0,P|138:81|180:52,1,105,2|10,3:2|3:2,0:0:0:0:
226,76,26102,2,0,P|276:84|317:47,1,105,2|0,3:2|3:2,0:0:0:0:
358,21,26654,1,10,3:2:0:0:
426,100,27022,2,0,B|447:146|447:146|431:197,1,105,2|10,3:2|3:2,0:0:0:0:
360,276,27759,6,0,P|310:286|270:254,1,105,2|8,3:2|3:2,0:0:0:0:
174,211,28495,2,0,P|144:217|108:223,2,52.5,0|2|10,3:2|3:2|3:2,0:0:0:0:
197,163,29047,2,0,L|214:60,1,105,2|0,3:2|3:2,0:0:0:0:
263,40,29599,1,8,3:2:0:0:
366,56,29967,2,0,P|405:24|455:34,1,105,2|10,3:2|3:2,0:0:0:0:
493,131,30703,6,0,L|476:234,1,105,2|10,3:2|3:2,0:0:0:0:
431,263,31256,2,0,P|381:256|341:288,1,105,2|0,3:2|3:2,0:0:0:0:
296,313,31808,1,10,3:2:0:0:
209,253,32176,2,0,B|186:206|186:206|202:155,1,105,2|8,3:2|3:2,0:0:0:0:
289,97,32912,2,0,B|337:119|337:119|386:103,1,105,2|10,3:2|3:2,0:0:0:0:
484,145,33648,54,0,P|504:191|483:238,1,105,2|8,3:2|3:2,0:0:0:0:
433,254,34200,2,0,L|330:271,1,105,2|0,3:2|3:2,0:0:0:0:
301,233,34752,1,8,3:2:0:0:
301,233,34936,2,0,L|198:216,1,105,0|0,3:2|3:2,0:0:0:0:
159,179,35489,1,8,3:2:0:0:
78,245,35857,2,0,P|72:272|70:299,1,52.5,2|0,3:2|3:2,0:0:0:0:
98,340,36225,1,10,3:2:0:0:
188,311,36593,54,0,P|230:324|279:304,1,94.499997116089,2|0,3:2|3:2,0:0:0:0:
346,243,37329,2,0,L|337:148,1,94.499997116089,10|2,3:2|3:2,0:0:0:0:
310,109,37881,2,0,B|263:123|263:123|221:103,1,94.499997116089,2|0,3:2|3:2,0:0:0:0:
177,87,38433,1,0,3:2:0:0:
130,169,38802,2,0,P|107:173|83:175,2,47.2499985580445,10|2|2,3:2|3:2|3:2,0:0:0:0:
188,242,39538,6,0,L|172:336,2,94.499997116089,2|2|10,3:2|3:2|3:2,0:0:0:0:
281,215,40642,1,2,3:2:0:0:
281,215,40826,2,0,P|299:173|280:130,1,94.499997116089,2|2,3:2|3:2,0:0:0:0:
259,94,41378,1,2,3:2:0:0:
167,118,41746,2,0,P|122:125|85:91,1,94.499997116089,10|2,3:2|3:2,0:0:0:0:
33,172,42482,6,0,B|13:215|13:215|28:264,1,94.499997116089,2|0,3:2|3:2,0:0:0:0:
89,331,43219,2,0,L|184:315,1,94.499997116089,10|2,3:2|3:2,0:0:0:0:
225,333,43771,2,0,P|255:318|269:258,1,94.499997116089,2|0,3:2|3:2,0:0:0:0:
259,216,44323,1,0,3:2:0:0:
307,134,44691,54,0,P|348:112|392:125,1,94.499997116089,10|2,3:2|3:2,0:0:0:0:
436,140,45243,2,0,B|455:181|455:181|441:227,1,94.499997116089,2|0,3:2|3:2,0:0:0:0:
418,270,45795,1,0,3:2:0:0:
325,288,46163,2,0,B|282:268|282:268|236:282,1,94.499997116089,8|2,3:2|3:2,0:0:0:0:
170,214,46900,2,0,P|149:172|161:128,1,94.499997116089,2|10,3:2|3:2,0:0:0:0:
185,87,47452,2,0,P|208:91|232:93,1,47.2499985580445,2|0,3:2|3:2,0:0:0:0:
272,68,47820,2,0,P|295:66|318:61,1,47.2499985580445,2|8,3:2|3:2,0:0:0:0:
372,138,48372,54,0,L|355:241,1,94.499997116089,6|8,3:2|3:2,0:0:0:0:
289,297,49108,2,0,P|243:310|200:289,1,94.499997116089,0|8,3:2|3:2,0:0:0:0:
98,278,49844,2,0,P|93:253|91:227,1,52.5,14|0,3:2|3:2,0:0:0:0:
123,185,50213,1,2,3:2:0:0:
123,185,50397,2,0,P|149:183|174:177,1,52.5,14|0,3:2|3:2,0:0:0:0:
222,209,50765,1,2,3:2:0:0:
222,209,50949,1,12,3:2:0:0:
322,165,51317,6,0,P|325:135|330:107,1,57.7500017623902,6|0,3:2|3:2,0:0:0:0:
300,59,51685,2,0,P|245:43|194:76,1,115.50000352478,10|2,3:2|3:2,0:0:0:0:
168,120,52237,2,0,P|138:116|109:110,1,57.7500017623902,2|10,3:2|3:2,0:0:0:0:
64,77,52605,1,2,3:2:0:0:
59,192,52973,1,0,3:2:0:0:
59,192,53157,2,0,L|39:307,2,115.50000352478,10|2|10,3:2|3:2|3:2,0:0:0:0:
170,161,54262,6,0,P|213:133|277:150,1,115.50000352478,2|8,3:2|3:2,0:0:0:0:
324,171,54814,2,0,P|318:145|316:114,1,57.7500017623902,0|0,3:2|3:2,0:0:0:0:
357,74,55182,1,0,3:2:0:0:
357,74,55366,1,10,3:2:0:0:
247,38,55734,2,0,P|202:23|144:60,1,115.50000352478,2|10,3:2|3:2,0:0:0:0:
121,107,56286,2,0,L|130:231,1,115.50000352478,2|2,3:2|3:2,0:0:0:0:
164,268,56838,1,8,3:2:0:0:
265,322,57206,54,0,B|320:342|320:342|373:323,1,115.50000352478,6|8,3:2|3:2,0:0:0:0:
405,274,57759,2,0,P|407:247|414:217,1,57.7500017623902,0|0,3:2|3:2,0:0:0:0:
397,166,58127,1,0,3:2:0:0:
397,166,58311,1,10,3:2:0:0:
319,80,58679,2,0,L|206:99,1,115.50000352478,2|10,3:2|3:2,0:0:0:0:
170,145,59231,2,0,P|151:198|187:249,1,115.50000352478,2|0,3:2|3:2,0:0:0:0:
225,280,59783,1,8,3:2:0:0:
318,211,60151,6,0,P|344:214|375:221,1,57.7500017623902,2|0,3:2|3:2,0:0:0:0:
413,178,60519,2,0,P|408:153|407:119,1,57.7500017623902,10|0,3:2|3:2,0:0:0:0:
382,68,60887,2,0,P|315:78|275:29,1,115.50000352478,2|10,3:2|3:2,0:0:0:0:
166,51,61624,2,0,P|168:78|174:108,1,57.7500017623902,14|2,3:2|3:2,0:0:0:0:
142,157,61992,1,14,3:2:0:0:
142,157,62176,2,0,P|125:216|156:259,1,115.50000352478,2|2,3:2|3:2,0:0:0:0:
201,289,62728,1,12,3:2:0:0:
271,180,63096,38,0,P|297:178|332:171,1,57.7500017623902,6|0,3:2|3:2,0:0:0:0:
372,134,63464,2,0,L|351:252,1,115.50000352478,10|2,3:2|3:2,0:0:0:0:
352,305,64016,2,0,P|325:307|290:314,1,57.7500017623902,2|10,3:2|3:2,0:0:0:0:
247,345,64384,1,2,3:2:0:0:
154,285,64752,1,0,3:2:0:0:
154,285,64936,2,0,P|104:270|41:304,2,115.50000352478,10|2|10,3:2|3:2|3:2,0:0:0:0:
259,237,66041,6,0,L|238:119,1,115.50000352478,2|8,3:2|3:2,0:0:0:0:
205,82,66593,1,0,3:2:0:0:
205,82,66777,2,0,P|208:55|214:26,2,57.7500017623902,2|2|10,3:2|3:2|3:2,0:0:0:0:
147,86,67329,2,0,P|96:90|66:143,1,115.50000352478,2|0,3:2|3:2,0:0:0:0:
45,195,67881,1,10,3:2:0:0:
128,275,68249,6,0,L|241:252,1,115.50000352478,2|10,3:2|3:2,0:0:0:0:
290,292,68802,1,0,3:2:0:0:
290,292,68986,2,0,B|341:270|341:270|403:290,1,115.50000352478,6|8,3:2|3:2,0:0:0:0:
453,272,69538,2,0,P|447:246|446:214,1,57.7500017623902,0|0,3:2|3:2,0:0:0:0:
468,164,69906,1,0,3:2:0:0:
468,164,70090,1,10,3:2:0:0:
361,120,70458,54,0,P|310:124|277:176,1,115.50000352478,2|10,3:2|3:2,0:0:0:0:
236,215,71010,1,0,3:2:0:0:
236,215,71194,2,0,P|209:217|177:224,1,57.7500017623902,2|0,3:2|3:2,0:0:0:0:
128,195,71562,1,10,3:2:0:0:
125,79,71930,6,0,P|180:61|233:92,1,115.50000352478,6|8,3:2|3:2,0:0:0:0:
343,73,72667,2,0,P|363:130|331:192,1,115.50000352478,0|8,3:2|3:2,0:0:0:0:
322,281,73403,54,0,P|347:275|373:273,1,52.5,14|2,3:2|3:2,0:0:0:0:
408,318,73771,1,2,3:2:0:0:
408,318,73955,2,0,P|433:323|459:325,1,52.5,14|2,3:2|3:2,0:0:0:0:
502,293,74323,1,2,3:2:0:0:
502,293,74507,2,0,P|507:268|509:242,1,52.5,14|0,3:2|3:2,0:0:0:0:
477,205,74875,22,0,L|460:107,1,94.499997116089,6|0,3:2|3:2,0:0:0:0:
421,27,75611,2,0,P|398:31|375:33,1,47.2499985580445,10|2,3:2|3:2,0:0:0:0:
286,68,76163,2,0,P|284:95|278:120,1,47.2499985580445,2|0,3:2|3:2,0:0:0:0:
235,132,76532,2,0,L|136:141,1,94.499997116089,2|2,3:2|3:2,0:0:0:0:
99,162,77084,2,0,P|73:208|87:250,1,94.499997116089,10|2,3:2|3:2,0:0:0:0:
169,284,77820,6,0,B|151:326|151:326|167:376,2,94.499997116089,2|0|10,3:2|3:2|3:2,0:0:0:0:
202,251,78740,2,0,P|224:255|247:257,1,47.2499985580445,2|0,3:2|3:2,0:0:0:0:
267,213,79108,2,0,P|307:199|357:226,1,94.499997116089,2|2,3:2|3:2,0:0:0:0:
401,306,79844,1,2,3:2:0:0:
401,306,80029,2,0,P|376:306|354:312,1,47.2499985580445,10|0,3:2|3:2,0:0:0:0:
321,345,80397,2,0,P|295:339|269:337,1,47.2499985580445,2|0,3:2|3:2,0:0:0:0:
230,308,80765,6,0,P|186:281|178:231,1,105,14|0,3:2|3:2,0:0:0:0:
208,190,81317,1,2,3:2:0:0:
208,190,81501,2,0,P|213:164|215:138,1,52.5,10|2,3:2|3:2,0:0:0:0:
288,62,82053,2,0,P|289:88|295:113,1,52.5,2|0,3:2|3:2,0:0:0:0:
347,111,82421,2,0,P|392:96|447:126,1,105,2|2,3:2|3:2,0:0:0:0:
454,170,82973,2,0,B|474:217|474:217|456:273,1,105,10|2,3:2|3:2,0:0:0:0:
365,318,83709,6,0,P|339:312|313:310,1,52.5,14|0,3:2|3:2,0:0:0:0:
267,336,84078,2,0,P|241:341|215:343,1,52.5,0|12,3:2|3:2,0:0:0:0:
176,316,84446,1,0,3:2:0:0:
176,316,84630,2,0,P|173:289|169:264,1,52.5,0|14,3:2|3:2,0:0:0:0:
183,213,84998,1,14,3:2:0:0:
256,192,85182,12,0,88127,0:0:0:0:
