osu file format v14

[General]
AudioFilename: duca.mp3
AudioLeadIn: 0
PreviewTime: 51225
Countdown: 0
SampleSet: Soft
StackLeniency: 0.7
Mode: 0
LetterboxInBreaks: 0
WidescreenStoryboard: 0

[Editor]
Bookmarks: 1248,7137,13027,18916,24806,30695,36585,42474,48364,48916,49836,51309,54254,57198,60143,61616,62720,63088,66033,68978,71922,73395,74867,80757,86646
DistanceSpacing: 1.4
BeatDivisor: 4
GridSize: 8
TimelineZoom: 3.199999

[Metadata]
Title:Shiawase no Otoshimono
TitleUnicode:幸せのオトシモノ
Artist:Duca
ArtistUnicode:Duca
Creator:Doro
Version:Love Diary
Source:your diary+H
Tags:CUBE Alchemist Entergram Inc female vocals vocalist theme Yua ゆあ デュッカ 中丸智絵 Chie Nakamaru ANZIE eroge vn visual novel video game op opening short ver jpop j-pop jp japanese pop supav share
BeatmapID:3922521
BeatmapSetID:1899762

[Difficulty]
HPDrainRate:5.2
CircleSize:3.8
OverallDifficulty:8.3
ApproachRate:8.8
SliderMultiplier:1.55
SliderTickRate:1

[Events]
//Background and Video events
0,0,"diary.jpg",0,0
//Break Periods
//Storyboard Layer 0 (Background)
//Storyboard Layer 1 (Fail)
//Storyboard Layer 2 (Pass)
//Storyboard Layer 3 (Foreground)
//Storyboard Layer 4 (Overlay)
//Storyboard Sound Samples

[TimingPoints]
1256,368.098159509203,4,2,1,45,1,0
1256,-133.333333333333,4,2,1,45,0,0
7145,-125,4,2,1,45,0,0
11930,-125,4,2,1,50,0,0
12298,-125,4,2,1,55,0,0
13035,-100,4,2,2,60,0,0
13403,-100,4,2,1,60,0,0
36593,-111.111111111111,4,2,1,55,0,0
46900,-99.9999999999999,4,2,1,60,0,0
49844,-99.9999999999999,4,2,1,65,0,0
51317,-90.9090909090909,4,2,2,70,0,1
51501,-90.9090909090909,4,2,1,70,0,1
60151,-90.9090909090909,4,2,1,75,0,1
61624,-90.9090909090909,4,2,1,75,0,1
62728,-90.9090909090909,4,2,1,70,0,0
63096,-90.9090909090909,4,2,2,70,0,1
63280,-90.9090909090909,4,2,1,70,0,1
73403,-90.9090909090909,4,2,1,80,0,1
74875,-125,4,2,2,60,0,0
75243,-125,4,2,1,50,0,0
80765,-100,4,2,1,60,0,0
83709,-100,4,2,1,60,0,0
85182,-100,4,2,1,45,0,0
85550,-100,4,2,1,40,0,0
85918,-100,4,2,1,35,0,0
86286,-100,4,2,1,30,0,0
86654,-100,4,2,1,25,0,0
87022,-100,4,2,1,20,0,0
87390,-100,4,2,1,15,0,0
87759,-100,4,2,1,10,0,0
88127,-100,4,2,1,5,0,0

[Colours]
Combo1 : 218,218,218
Combo2 : 234,177,132
Combo3 : 249,212,170
Combo4 : 249,237,198
Combo5 : 192,192,191

[HitObjects]
60,202,1256,54,0,B|99:193|99:193|132:213|132:213|170:207,1,116.250004434586,2|2,2:2|2:2,0:0:0:0:
307,82,1992,2,0,P|248:77|214:123,1,116.250004434586,2|2,2:2|2:2,0:0:0:0:
266,205,2728,6,0,P|294:198|325:194,2,58.1250022172929,2|2|2,2:2|2:2|2:2,0:0:0:0:
365,278,3280,2,0,P|305:283|248:295,1,116.250004434586,2|2,2:2|2:2,0:0:0:0:
185,230,3832,2,0,P|151:222|119:218,1,58.1250022172929,2|2,2:2|2:2,0:0:0:0:
200,82,4200,54,0,P|257:77|291:124,1,116.250004434586,2|2,2:2|2:2,0:0:0:0:
364,212,4936,2,0,B|357:171|357:171|379:135|379:135|373:97,1,116.250004434586,2|2,2:2|2:2,0:0:0:0:
271,192,5673,6,0,P|263:221|259:248,2,58.1250022172929,2|2|2,2:2|2:2|2:2,0:0:0:0:
173,324,6225,2,0,B|211:315|211:315|244:335|244:335|281:328,1,116.250004434586,2|2,2:2|2:2,0:0:0:0:
408,264,6777,2,0,P|377:255|348:264,1,58.1250022172929,2|2,2:2|2:2,0:0:0:0:
210,152,7145,54,0,P|240:109|306:116,1,124,2|2,2:2|2:2,0:0:0:0:
228,240,7697,1,0,2:2:0:0:
228,239,7881,2,0,P|197:230|161:225,1,62,2|0,2:2|2:2,0:0:0:0:
186,68,8249,2,0,P|193:100|198:134,1,62,2|0,2:2|2:2,0:0:0:0:
93,262,8617,6,0,P|83:229|93:198,2,62,2|2|2,2:2|2:2|2:2,0:0:0:0:
191,342,9170,2,0,B|147:333|147:333|112:354|112:354|74:347,1,124,2|2,2:2|2:2,0:0:0:0:
273,373,9722,2,0,P|281:340|273:309,1,62,2|2,2:2|2:2,0:0:0:0:
302,202,10090,54,0,P|242:192|202:239,1,124,2|2,2:2|2:2,0:0:0:0:
302,323,10642,1,2,2:2:0:0:
302,323,10826,2,0,P|335:314|372:308,1,62,2|0,2:2|2:2,0:0:0:0:
491,242,11194,2,0,P|452:232|414:228,1,62,2|0,2:2|2:2,0:0:0:0:
328,177,11562,6,0,P|330:194|334:210,3,31,2|0|0|0,2:2|2:2|2:2|2:2,0:0:0:0:
440,146,11930,2,0,P|442:130|446:113,3,31,2|0|0|0,2:2|2:2|2:2|2:2,0:0:0:0:
372,46,12298,53,2,2:2:0:0:
346,14,12390,1,2,2:2:0:0:
309,2,12482,1,2,2:2:0:0:
272,8,12575,1,2,0:0:0:0:
239,31,12667,2,0,P|243:51|246:73,3,31,2|0|0|0,2:2|2:2|2:2|2:2,0:0:0:0:
135,145,13035,22,0,B|187:134|187:134|231:161|231:161|284:153,1,155,6|10,3:2|3:2,0:0:0:0:
459,64,13587,1,2,3:2:0:0:
361,219,13771,2,0,P|352:259|346:301,1,77.5,2|0,3:2|3:2,0:0:0:0:
319,32,14139,1,10,3:2:0:0:
440,189,14323,6,0,P|392:128|316:138,1,155,2|0,3:2|3:2,0:0:0:0:
196,237,14875,2,0,P|234:228|273:223,1,77.5,10|0,3:2|3:2,0:0:0:0:
237,58,15243,2,0,P|231:99|221:141,1,77.5,2|0,3:2|3:2,0:0:0:0:
368,241,15611,1,10,3:2:0:0:
176,370,15795,5,0,3:2:0:0:
176,370,15887,1,0,3:2:0:0:
176,370,15979,2,0,B|168:321|168:321|196:277|196:277|186:224,1,155,2|8,3:2|3:2,0:0:0:0:
299,134,16532,2,0,P|290:171|286:210,1,77.5,0|0,3:2|3:2,0:0:0:0:
212,65,16900,1,2,3:2:0:0:
394,162,17084,1,10,3:2:0:0:
158,130,17268,54,0,P|127:67|169:-2,1,155,2|0,3:2|3:2,0:0:0:0:
246,280,17820,2,0,P|209:272|171:267,1,77.5,8|0,3:2|3:2,0:0:0:0:
26,211,18188,2,0,P|64:205|102:196,1,77.5,0|0,3:2|3:2,0:0:0:0:
226,370,18556,1,8,3:2:0:0:
78,286,18740,1,0,3:2:0:0:
223,182,18924,54,0,B|274:172|274:172|317:198|317:198|368:190,1,155,0|10,3:2|3:2,0:0:0:0:
512,84,19476,1,0,3:2:0:0:
453,282,19660,2,0,P|457:243|465:205,1,77.5,2|0,3:2|3:2,0:0:0:0:
295,58,20029,1,10,3:2:0:0:
381,181,20213,6,0,B|371:128|371:128|399:85|399:85|391:36,1,155,2|0,3:2|3:2,0:0:0:0:
216,257,20765,2,0,P|253:248|292:243,1,77.5,10|0,3:2|3:2,0:0:0:0:
457,169,21133,2,0,P|418:164|380:155,1,77.5,2|0,3:2|3:2,0:0:0:0:
394,289,21501,1,10,3:2:0:0:
269,86,21685,5,0,3:2:0:0:
269,86,21777,1,0,3:2:0:0:
269,86,21869,2,0,B|261:135|261:135|289:178|289:178|279:231,1,155,2|8,3:2|3:2,0:0:0:0:
132,263,22421,1,2,3:2:0:0:
44,233,22605,2,0,P|92:172|169:182,1,155,2|8,3:2|3:2,0:0:0:0:
326,296,23157,53,2,3:2:0:0:
261,350,23341,2,0,B|208:340|208:340|165:368|165:368|116:360,1,155,2|10,3:2|3:2,0:0:0:0:
0,249,23894,2,0,P|39:244|77:235,1,77.5,2|0,3:2|3:2,0:0:0:0:
205,272,24262,1,2,3:2:0:0:
168,122,24446,2,0,P|160:159|155:198,1,77.5,8|0,3:2|3:2,0:0:0:0:
332,335,24814,54,0,B|323:283|323:283|349:240|349:240|339:189,1,155,0|10,3:2|3:2,0:0:0:0:
251,110,25366,1,2,3:2:0:0:
424,33,25550,2,0,P|416:72|411:112,1,77.5,2|0,3:2|3:2,0:0:0:0:
293,0,25918,1,10,3:2:0:0:
374,206,26102,6,0,P|448:210|492:150,1,155,2|0,3:2|3:2,0:0:0:0:
258,152,26654,2,0,P|267:189|272:228,1,77.5,10|0,3:2|3:2,0:0:0:0:
368,377,27022,2,0,P|373:338|382:300,1,77.5,2|0,3:2|3:2,0:0:0:0:
412,126,27390,1,10,3:2:0:0:
258,222,27575,5,0,3:2:0:0:
258,222,27667,1,0,3:2:0:0:
258,222,27759,2,0,B|207:212|207:212|164:238|164:238|113:230,1,155,2|8,3:2|3:2,0:0:0:0:
32,155,28311,1,0,3:2:0:0:
164,61,28495,2,0,P|155:98|150:137,1,77.5,0|2,3:2|3:2,0:0:0:0:
39,273,28863,1,10,3:2:0:0:
249,285,29047,54,0,P|201:224|124:234,1,155,2|0,3:2|3:2,0:0:0:0:
228,374,29599,2,0,P|265:365|304:360,1,77.5,8|0,3:2|3:2,0:0:0:0:
378,175,29967,1,2,3:2:0:0:
223,277,30151,1,0,3:2:0:0:
390,382,30335,2,0,P|394:343|403:305,1,77.5,10|0,3:2|3:2,0:0:0:0:
256,150,30703,54,0,P|181:145|137:205,1,155,2|10,3:2|3:2,0:0:0:0:
238,262,31256,2,0,P|275:254|313:249,1,77.5,2|0,3:2|3:2,0:0:0:0:
377,85,31624,1,0,3:2:0:0:
464,199,31808,2,0,P|425:194|387:185,1,77.5,10|2,3:2|3:2,0:0:0:0:
254,248,32176,6,0,B|198:237|198:237|152:265|152:265|108:258,1,155,2|8,3:2|3:2,0:0:0:0:
11,177,32728,1,0,3:2:0:0:
138,101,32912,2,0,P|129:138|124:177,1,77.5,2|0,3:2|3:2,0:0:0:0:
36,338,33280,2,0,P|31:299|22:261,1,77.5,10|0,3:2|3:2,0:0:0:0:
204,205,33648,6,0,P|278:200|322:260,1,155,2|8,3:2|3:2,0:0:0:0:
225,307,34200,2,0,P|187:298|148:293,1,77.5,2|0,3:2|3:2,0:0:0:0:
40,118,34568,1,0,3:2:0:0:
197,213,34752,1,8,3:2:0:0:
49,350,34936,54,0,B|41:298|41:298|67:255|67:255|57:204,1,155,0|0,3:2|3:2,0:0:0:0:
192,63,35489,2,0,P|183:100|179:139,1,77.5,8|0,3:2|3:2,0:0:0:0:
0,70,35857,2,0,P|38:66|76:57,1,77.5,2|0,3:2|3:2,0:0:0:0:
183,266,36225,1,10,3:2:0:0:
300,150,36409,53,0,3:2:0:0:
300,150,36501,1,0,3:2:0:0:
300,150,36593,2,0,B|252:140|252:140|212:164|212:164|164:157,1,139.499995742798,2|0,3:2|3:2,0:0:0:0:
89,200,37145,1,0,3:2:0:0:
89,200,37329,2,0,P|84:166|77:132,2,69.749997871399,10|2|2,3:2|3:2|3:2,0:0:0:0:
0,97,37881,6,0,P|30:44|121:56,1,139.499995742798,2|0,3:2|3:2,0:0:0:0:
238,129,38433,2,0,P|203:121|169:116,1,69.749997871399,0|0,3:2|3:2,0:0:0:0:
305,20,38802,2,0,P|312:53|317:88,2,69.749997871399,10|2|2,3:2|3:2|3:2,0:0:0:0:
270,289,39538,6,0,B|277:242|277:242|253:203|253:203|262:157,2,139.499995742798,2|2|10,3:2|3:2|3:2,0:0:0:0:
225,356,40458,2,0,P|190:348|156:343,1,69.749997871399,0|2,3:2|3:2,0:0:0:0:
81,380,40826,2,0,P|65:315|116:272,1,139.499995742798,2|2,3:2|3:2,0:0:0:0:
214,180,41378,2,0,P|206:215|201:250,1,69.749997871399,2|0,3:2|3:2,0:0:0:0:
297,340,41746,2,0,P|292:306|286:272,2,69.749997871399,10|0|2,3:2|3:2|3:2,0:0:0:0:
57,186,42482,38,0,B|101:192|101:192|141:168|141:168|189:177,1,139.499995742798,2|0,3:2|3:2,0:0:0:0:
270,131,43035,1,0,3:2:0:0:
270,131,43219,2,0,P|275:165|282:199,2,69.749997871399,10|2|2,3:2|3:2|3:2,0:0:0:0:
365,130,43771,2,0,P|379:62|316:22,1,139.499995742798,2|0,3:2|3:2,0:0:0:0:
244,50,44323,1,0,3:2:0:0:
344,224,44691,6,0,P|340:258|333:292,2,69.749997871399,10|2|2,3:2|3:2|3:2,0:0:0:0:
253,114,45243,2,0,B|263:160|263:160|239:199|239:199|246:247,1,139.499995742798,2|0,3:2|3:2,0:0:0:0:
352,328,45795,2,0,B|304:319|304:319|264:343|264:343|220:337,2,139.499995742798,0|8|2,3:2|3:2|3:2,0:0:0:0:
250,155,46716,5,0,3:2:0:0:
120,290,46900,2,0,P|128:327|133:365,1,77.5,2|0,3:2|3:2,0:0:0:0:
155,126,47268,1,10,3:2:0:0:
260,261,47452,2,0,P|251:299|247:338,1,77.5,2|0,3:2|3:2,0:0:0:0:
75,107,47820,2,0,P|120:47|194:51,1,155,2|0,3:2|3:2,0:0:0:0:
422,238,48372,38,0,B|371:230|371:230|328:257|328:257|277:246,1,155,6|8,3:2|3:2,0:0:0:0:
115,353,48924,2,0,P|110:314|101:277,1,77.5,0|0,3:2|3:2,0:0:0:0:
206,110,49292,1,0,3:2:0:0:
266,332,49476,2,0,P|270:293|278:256,1,77.5,8|0,3:2|3:2,0:0:0:0:
42,13,49844,5,14,3:2:0:0:
94,259,50029,1,2,3:2:0:0:
248,42,50213,1,2,3:2:0:0:
275,309,50397,5,14,3:2:0:0:
119,111,50581,1,0,3:2:0:0:
76,368,50765,1,2,3:2:0:0:
34,84,50949,53,12,3:2:0:0:
58,40,51041,1,0,3:2:0:0:
101,22,51133,1,0,3:2:0:0:
148,22,51225,1,0,3:2:0:0:
187,55,51317,54,0,P|196:96|202:138,1,85.2500026016236,6|0,3:2|3:2,0:0:0:0:
450,227,51685,2,0,B|392:216|392:216|345:245|345:245|288:235,1,170.500005203247,10|2,3:2|3:2,0:0:0:0:
122,138,52237,1,2,3:2:0:0:
297,23,52421,1,10,3:2:0:0:
57,214,52605,6,0,P|22:143|70:66,1,170.500005203247,2|0,3:2|3:2,0:0:0:0:
217,272,53157,2,0,P|208:315|202:359,1,85.2500026016236,10|0,3:2|3:2,0:0:0:0:
320,102,53525,1,2,3:2:0:0:
114,211,53709,1,0,3:2:0:0:
313,315,53894,1,10,3:2:0:0:
98,39,54078,5,0,3:2:0:0:
98,39,54170,1,0,3:2:0:0:
98,39,54262,2,0,B|88:93|88:93|119:141|119:141|108:199,1,170.500005203247,2|8,3:2|3:2,0:0:0:0:
30,373,54814,2,0,P|24:327|15:283,1,85.2500026016236,0|0,3:2|3:2,0:0:0:0:
51,145,55182,1,0,3:2:0:0:
145,363,55366,2,0,P|151:317|160:273,1,85.2500026016236,10|0,3:2|3:2,0:0:0:0:
184,70,55734,54,0,P|92:71|52:145,1,170.500005203247,2|10,3:2|3:2,0:0:0:0:
272,228,56286,2,0,P|277:182|286:138,1,85.2500026016236,2|0,3:2|3:2,0:0:0:0:
190,44,56654,1,2,3:2:0:0:
384,176,56838,1,8,3:2:0:0:
166,290,57022,53,0,3:2:0:0:
166,290,57114,1,0,3:2:0:0:
166,290,57206,2,0,B|105:278|105:278|54:309|54:309|-2:299,1,170.500005203247,6|8,3:2|3:2,0:0:0:0:
249,127,57759,2,0,P|292:115|338:133,1,85.2500026016236,0|0,3:2|3:2,0:0:0:0:
335,305,58127,1,0,3:2:0:0:
150,169,58311,2,0,P|144:123|135:79,1,85.2500026016236,10|0,3:2|3:2,0:0:0:0:
133,288,58679,5,2,3:2:0:0:
270,145,58863,1,2,3:2:0:0:
318,334,59047,1,10,3:2:0:0:
358,114,59231,2,0,P|304:45|219:57,1,170.500005203247,2|0,3:2|3:2,0:0:0:0:
78,203,59783,2,0,P|122:197|166:188,1,85.2500026016236,8|0,3:2|3:2,0:0:0:0:
391,271,60151,6,0,P|348:265|307:257,1,85.2500026016236,2|0,3:2|3:2,0:0:0:0:
344,33,60519,2,0,P|360:72|373:112,1,85.2500026016236,10|0,3:2|3:2,0:0:0:0:
154,209,60887,2,0,P|179:174|208:143,1,85.2500026016236,2|0,3:2|3:2,0:0:0:0:
391,296,61256,2,0,P|348:290|307:282,1,85.2500026016236,10|0,3:2|3:2,0:0:0:0:
188,29,61624,53,14,3:2:0:0:
410,204,61808,1,2,3:2:0:0:
161,303,61992,5,14,3:2:0:0:
334,49,62176,1,2,3:2:0:0:
316,377,62360,53,12,3:2:0:0:
245,113,62544,1,2,3:2:0:0:
429,322,62728,2,0,P|425:341|421:365,2,42.6250013008118,12|0|0,3:2|3:2|3:2,0:0:0:0:
337,109,63096,54,0,P|333:67|323:26,1,85.2500026016236,6|0,3:2|3:2,0:0:0:0:
58,131,63464,2,0,P|138:120|189:184,1,170.500005203247,10|2,3:2|3:2,0:0:0:0:
5,359,64016,1,2,3:2:0:0:
100,209,64200,1,10,3:2:0:0:
173,355,64384,6,0,B|231:344|231:344|279:374|279:374|333:365,1,170.500005203247,2|0,3:2|3:2,0:0:0:0:
445,215,64936,2,0,P|404:203|364:217,1,85.2500026016236,10|0,3:2|3:2,0:0:0:0:
476,351,65305,1,2,3:2:0:0:
286,250,65489,1,0,3:2:0:0:
476,133,65673,1,10,3:2:0:0:
363,372,65857,5,0,3:2:0:0:
363,372,65949,1,0,3:2:0:0:
363,372,66041,2,0,B|352:314|352:314|382:266|382:266|373:212,1,170.500005203247,2|8,3:2|3:2,0:0:0:0:
286,35,66593,1,0,3:2:0:0:
211,257,66777,1,2,3:2:0:0:
445,109,66961,2,0,P|402:105|360:95,1,85.2500026016236,2|10,3:2|3:2,0:0:0:0:
69,148,67329,54,0,P|119:83|200:94,1,170.500005203247,2|0,3:2|3:2,0:0:0:0:
88,279,67881,2,0,P|47:270|4:265,1,85.2500026016236,10|0,3:2|3:2,0:0:0:0:
285,159,68249,1,2,3:2:0:0:
165,333,68433,1,0,3:2:0:0:
119,116,68617,1,10,3:2:0:0:
279,380,68802,53,0,3:2:0:0:
279,380,68894,1,0,3:2:0:0:
279,380,68986,2,0,P|314:309|265:230,1,170.500005203247,6|8,3:2|3:2,0:0:0:0:
159,287,69538,2,0,P|168:328|172:370,1,85.2500026016236,0|0,3:2|3:2,0:0:0:0:
197,182,69906,1,0,3:2:0:0:
64,278,70090,2,0,P|75:237|81:194,1,85.2500026016236,10|0,3:2|3:2,0:0:0:0:
178,58,70458,6,0,B|236:47|236:47|284:77|284:77|338:68,1,170.500005203247,2|10,3:2|3:2,0:0:0:0:
512,164,71010,1,0,3:2:0:0:
320,211,71194,1,2,3:2:0:0:
465,34,71378,1,0,3:2:0:0:
433,279,71562,2,0,P|429:236|420:195,1,85.2500026016236,10|0,3:2|3:2,0:0:0:0:
211,64,71930,6,0,P|130:53|80:118,1,170.500005203247,6|8,3:2|3:2,0:0:0:0:
118,332,72482,1,0,3:2:0:0:
168,144,72667,1,0,3:2:0:0:
265,307,72851,1,0,3:2:0:0:
350,132,73035,2,0,P|308:128|267:118,1,85.2500026016236,8|0,3:2|3:2,0:0:0:0:
193,377,73403,53,14,3:2:0:0:
154,115,73587,1,2,3:2:0:0:
353,293,73771,1,2,3:2:0:0:
321,36,73955,5,14,3:2:0:0:
182,276,74139,1,2,3:2:0:0:
145,0,74323,1,2,3:2:0:0:
338,313,74507,53,14,3:2:0:0:
378,294,74599,1,0,3:2:0:0:
401,256,74691,1,0,3:2:0:0:
400,212,74783,1,0,3:2:0:0:
371,176,74875,22,0,B|329:167|329:167|294:189|294:189|254:183,1,124,6|0,3:2|3:2,0:0:0:0:
179,43,75427,1,2,3:2:0:0:
179,43,75611,2,0,P|242:51|270:107,1,124,10|0,3:2|3:2,0:0:0:0:
253,263,76163,6,0,P|249:232|242:201,1,62,2|0,3:2|3:2,0:0:0:0:
346,205,76532,2,0,P|340:235|337:266,1,62,2|0,3:2|3:2,0:0:0:0:
171,150,76900,1,2,3:2:0:0:
171,150,77084,2,0,P|211:105|270:113,1,124,10|2,3:2|3:2,0:0:0:0:
431,163,77820,54,0,P|458:215|430:268,1,124,2|0,3:2|3:2,0:0:0:0:
330,351,78372,1,2,3:2:0:0:
330,351,78556,2,0,B|370:343|370:343|405:363|405:363|446:356,1,124,10|0,3:2|3:2,0:0:0:0:
248,230,79108,6,0,P|218:222|184:232,1,62,2|0,3:2|3:2,0:0:0:0:
259,356,79476,2,0,P|288:364|318:356,1,62,2|0,3:2|3:2,0:0:0:0:
160,323,79844,1,2,3:2:0:0:
160,323,80029,2,0,P|166:355|171:388,1,62,10|0,3:2|3:2,0:0:0:0:
404,119,80397,53,2,3:2:0:0:
369,99,80489,1,0,3:2:0:0:
331,99,80581,1,0,3:2:0:0:
297,112,80673,1,0,3:2:0:0:
271,143,80765,22,0,B|262:192|262:192|290:237|290:237|280:288,1,155,14|0,3:2|3:2,0:0:0:0:
109,233,81317,1,2,3:2:0:0:
201,377,81501,2,0,P|195:338|187:300,1,77.5,10|2,3:2|3:2,0:0:0:0:
252,125,81869,1,0,3:2:0:0:
453,269,82053,6,0,P|405:208|328:218,1,155,2|2,3:2|3:2,0:0:0:0:
215,313,82605,2,0,P|252:305|290:300,1,77.5,0|2,3:2|3:2,0:0:0:0:
345,179,82973,1,10,3:2:0:0:
405,345,83157,1,0,3:2:0:0:
237,199,83341,1,2,3:2:0:0:
237,199,83433,1,0,3:2:0:0:
237,199,83525,1,0,3:2:0:0:
444,109,83709,5,14,3:2:0:0:
311,313,83894,2,0,L|302:361,2,38.75,0|0|0,3:2|3:2|3:2,0:0:0:0:
306,44,84262,53,12,3:2:0:0:
445,263,84446,2,0,L|452:311,2,38.75,0|0|0,3:2|3:2|3:2,0:0:0:0:
405,0,84814,54,0,L|396:49,1,38.75,14|0,3:2|3:2,0:0:0:0:
314,299,84998,1,14,3:2:0:0:
256,192,85090,12,0,88127,0:0:0:0:
