osu file format v14

[General]
AudioFilename: audio.mp3
AudioLeadIn: 0
PreviewTime: 59396
Countdown: 0
SampleSet: Soft
StackLeniency: 0.5
Mode: 0
LetterboxInBreaks: 0
WidescreenStoryboard: 0

[Editor]
DistanceSpacing: 1.4
BeatDivisor: 4
GridSize: 4
TimelineZoom: 1.4

[Metadata]
Title:Shiawase no Otoshimono
TitleUnicode:幸せのオトシモノ
Artist:Duca
ArtistUnicode:Duca
Creator:Alexsander
Version:Insane
Source:your diary+H
Tags:ANZIE opening eroge Seto Kousuke victorfernando bossandy
BeatmapID:1611060
BeatmapSetID:766345

[Difficulty]
HPDrainRate:6
CircleSize:4.1
OverallDifficulty:8.2
ApproachRate:9
SliderMultiplier:1.7
SliderTickRate:1

[Events]
//Background and Video events
0,0,"diary.png",0,0
Video,9427,"video.avi"
//Break Periods
//Storyboard Layer 0 (Background)
//Storyboard Layer 1 (Fail)
//Storyboard Layer 2 (Pass)
//Storyboard Layer 3 (Foreground)
//Storyboard Sound Samples

[TimingPoints]
9427,368.098159509202,4,2,1,50,1,0
9427,-125,4,2,1,50,0,0
19733,-90.9090909090909,4,2,1,40,0,0
20469,-90.9090909090909,4,2,1,45,0,0
21206,-100,4,2,1,50,0,0
21482,-100,4,2,1,5,0,0
21574,-100,4,2,1,50,0,0
27003,-100,4,2,1,5,0,0
27095,-100,4,2,1,50,0,0
27371,-100,4,2,1,5,0,0
27463,-100,4,2,1,50,0,0
33261,-100,4,2,1,5,0,0
33353,-100,4,2,1,50,0,0
34733,-100,4,2,1,5,0,0
34825,-100,4,2,1,50,0,0
39150,-100,4,2,1,5,0,0
39242,-100,4,2,1,50,0,0
44764,-142.857142857143,4,2,1,50,0,0
55071,-111.111111111111,4,2,1,50,0,0
58015,-100,4,2,1,50,0,0
59488,-90.9090909090909,4,2,1,70,0,1
59764,-90.9090909090909,4,2,1,5,0,1
59856,-90.9090909090909,4,2,1,70,0,1
63813,-90.9090909090909,4,2,1,5,0,1
63905,-90.9090909090909,4,2,1,70,0,1
71543,-90.9090909090909,4,2,1,5,0,1
71635,-90.9090909090909,4,2,1,70,0,1
83046,-142.857142857143,4,2,1,50,0,0
85899,-142.857142857143,4,2,1,5,0,0
85991,-142.857142857143,4,2,1,50,0,0
88568,-142.857142857143,4,2,1,40,0,0
88936,-142.857142857143,4,2,1,50,0,0
96298,-142.857142857143,4,2,1,5,0,0

[Colours]
Combo1 : 210,61,68
Combo2 : 254,150,185
Combo3 : 196,153,107
Combo4 : 117,145,121
Combo5 : 237,170,68
Combo6 : 156,120,113
Combo7 : 190,123,144

[HitObjects]
60,124,9427,6,0,P|52:196|101:247,1,136,2|0,0:0|0:0,0:0:0:0:
296,137,10163,2,0,P|304:65|255:14,1,136,2|0,0:0|0:0,0:0:0:0:
226,92,10715,1,0,0:0:0:0:
263,208,10899,6,0,P|296:213|356:197,1,68,2|0,0:0|0:0,0:0:0:0:
408,155,11267,1,0,0:0:0:0:
453,248,11451,2,0,P|457:281|452:315,1,68,2|0,0:0|0:0,0:0:0:0:
389,364,11819,1,0,0:0:0:0:
377,283,12003,1,2,0:0:0:0:
453,248,12187,1,0,0:0:0:0:
389,364,12371,6,0,P|321:364|251:359,1,136,2|0,0:0|0:0,0:0:0:0:
79,209,13107,2,0,P|147:209|217:204,1,136,2|0,0:0|0:0,0:0:0:0:
295,157,13660,1,0,0:0:0:0:
358,74,13844,6,0,P|362:37|355:0,2,68,2|0|0,0:0|0:0|0:0,0:0:0:0:
265,44,14396,2,0,P|230:43|167:44,1,68,2|0,0:0|0:0,0:0:0:0:
118,32,14764,1,0,0:0:0:0:
84,105,14948,1,2,0:0:0:0:
137,165,15132,1,0,0:0:0:0:
247,142,15316,6,0,P|282:141|317:142,1,68,2|0,0:0|0:0,0:0:0:0:
348,266,15684,2,0,P|318:247|287:231,1,68,0|0,0:0|0:0,0:0:0:0:
146,266,16052,2,0,P|175:247|206:231,1,68,2|0,0:0|0:0,0:0:0:0:
247,142,16420,2,0,P|212:141|177:142,1,68,0|0,0:0|0:0,0:0:0:0:
79,199,16788,5,2,0:0:0:0:
79,83,16973,1,0,0:0:0:0:
179,141,17157,1,0,0:0:0:0:
5,114,17341,2,0,P|3:56|62:3,1,136,2|0,0:0|0:0,0:0:0:0:
142,23,17893,1,0,0:0:0:0:
79,83,18077,1,0,0:0:0:0:
184,109,18261,6,0,P|220:106|257:105,1,68,2|0,0:0|0:0,0:0:0:0:
356,155,18629,1,0,0:0:0:0:
228,187,18813,1,0,0:0:0:0:
374,147,18997,2,0,P|362:112|349:78,1,68,2|0,0:0|0:0,0:0:0:0:
263,38,19365,2,0,P|257:71|250:104,1,68,0|0,0:0|0:0,0:0:0:0:
373,228,19733,6,0,P|396:224|417:216,7,46.7500014266968,2|2|2|2|2|2|2|2,0:0|0:0|0:0|0:0|0:0|0:0|0:0|0:0,0:0:0:0:
448,205,20469,5,2,0:0:0:0:
467,178,20561,1,2,0:0:0:0:
478,147,20653,1,2,0:0:0:0:
480,115,20746,1,2,0:0:0:0:
474,83,20838,1,2,0:0:0:0:
459,54,20930,1,2,0:0:0:0:
437,30,21022,1,2,0:0:0:0:
409,12,21114,1,2,0:0:0:0:
376,7,21206,6,0,P|314:16|225:15,1,127.5,2|0,0:3|0:0,0:0:0:0:
235,27,21574,1,2,0:3:0:0:
321,110,21758,1,0,0:0:0:0:
202,191,21942,2,0,P|157:199|109:183,1,85,2|0,0:3|0:0,0:0:0:0:
228,114,22310,1,8,0:0:0:0:
214,276,22494,1,0,0:0:0:0:
45,208,22678,6,0,P|49:162|79:122,1,85,2|0,0:3|0:0,0:0:0:0:
228,114,23046,2,0,P|223:159|193:199,1,85,2|0,0:3|0:0,0:0:0:0:
203,33,23414,2,0,P|247:33|291:57,1,85,2|0,0:3|0:0,0:0:0:0:
282,209,23782,2,0,P|237:208|193:184,1,85,8|0,0:0|0:0,0:0:0:0:
283,50,24150,6,0,L|461:61,1,170,2|2,0:3|0:3,0:0:0:0:
366,214,24703,2,0,L|281:208,1,85,0|2,0:0|0:3,0:0:0:0:
118,224,25071,1,0,0:0:0:0:
206,147,25255,1,8,0:0:0:0:
201,298,25439,1,0,0:0:0:0:
34,210,25623,6,0,P|31:165|30:123,1,85,2|0,0:3|0:0,0:0:0:0:
116,31,25991,1,2,0:3:0:0:
153,151,26175,1,0,0:0:0:0:
30,125,26359,1,2,0:3:0:0:
189,73,26543,1,2,0:3:0:0:
149,236,26727,2,0,B|105:247|105:247|57:240|31:206,1,127.5,8|0,0:0|0:0,0:0:0:0:
149,236,27095,6,0,B|160:280|160:280|153:328|119:354,1,127.5,2|0,0:3|0:0,0:0:0:0:
120,369,27463,2,0,P|164:364|215:367,1,85,2|0,0:3|0:0,0:0:0:0:
343,302,27831,2,0,P|316:266|293:220,1,85,2|0,0:3|0:0,0:0:0:0:
353,115,28200,1,8,0:0:0:0:
382,229,28384,1,0,0:0:0:0:
378,30,28568,6,0,P|335:27|297:44,1,85,2|0,0:3|0:0,0:0:0:0:
432,164,28936,2,0,P|474:166|512:149,1,85,2|0,0:3|0:0,0:0:0:0:
283,150,29304,2,0,P|280:192|297:230,1,85,2|0,0:3|0:0,0:0:0:0:
447,244,29672,2,0,P|449:202|432:164,1,85,8|2,0:0|0:3,0:0:0:0:
297,43,30040,6,0,B|215:73|217:9|119:45,1,170,2|2,0:3|0:3,0:0:0:0:
41,112,30592,1,0,0:0:0:0:
132,228,30776,2,0,B|217:195|216:259|297:229,1,170,2|8,0:3|0:0,0:0:0:0:
263,139,31328,1,0,0:0:0:0:
177,293,31512,6,0,L|183:386,1,85,2|0,0:3|0:0,0:0:0:0:
273,329,31880,1,2,0:3:0:0:
132,228,32065,2,0,L|39:234,1,85,0|2,0:0|0:3,0:0:0:0:
41,112,32433,2,0,L|125:106,1,85,0|8,0:0|0:0,0:0:0:0:
205,43,32801,1,0,0:0:0:0:
315,145,32985,6,0,P|333:204|300:277,1,127.5,2|0,0:3|0:0,0:0:0:0:
302,277,33353,1,2,0:3:0:0:
201,203,33537,1,0,0:0:0:0:
277,78,33721,2,0,P|320:69|363:82,1,85,2|0,0:3|0:0,0:0:0:0:
439,173,34089,1,8,0:0:0:0:
315,145,34273,1,0,0:0:0:0:
502,119,34457,6,0,P|519:163|482:245,1,127.5,2|0,0:3|0:0,0:0:0:0:
478,248,34825,2,0,P|434:245|385:247,1,85,2|0,0:3|0:0,0:0:0:0:
236,185,35193,2,0,P|275:165|317:139,1,85,2|0,0:3|0:0,0:0:0:0:
438,29,35561,2,0,P|447:70|461:110,1,85,8|0,0:0|0:0,0:0:0:0:
435,318,35930,6,0,P|352:315|236:304,1,170,2|2,0:3|0:3,0:0:0:0:
147,231,36482,2,0,P|190:217|233:195,1,85,0|2,0:0|0:3,0:0:0:0:
85,167,36850,1,0,0:0:0:0:
129,307,37034,1,8,0:0:0:0:
225,199,37218,1,0,0:0:0:0:
46,248,37402,6,0,B|17:221|5:197|5:197|1:138|41:89,1,170,2|2,0:3|0:3,0:0:0:0:
118,18,37954,1,0,0:0:0:0:
164,141,38138,2,0,P|125:161|70:165,1,85,2|0,0:3|0:0,0:0:0:0:
232,207,38506,2,0,P|252:168|256:113,1,85,8|0,0:0|0:0,0:0:0:0:
322,294,38874,6,0,P|285:323|180:318,1,127.5,2|0,0:3|0:0,0:0:0:0:
189,319,39242,1,2,0:3:0:0:
312,211,39426,2,0,P|373:231|395:336,1,170,0|0,0:0|0:0,0:0:0:0:
322,294,39979,1,8,0:0:0:0:
459,211,40163,1,0,0:0:0:0:
276,146,40347,6,0,B|157:146|157:146|123:196,1,170,2|2,0:3|0:3,0:0:0:0:
210,250,40899,1,0,0:0:0:0:
276,146,41083,2,0,P|276:105|274:56,1,85,2|0,0:3|0:0,0:0:0:0:
457,126,41451,2,0,P|457:167|459:216,1,85,8|0,0:0|0:0,0:0:0:0:
273,43,41819,6,0,P|322:10|431:52,1,170,2|2,0:3|0:3,0:0:0:0:
350,102,42371,1,0,0:0:0:0:
257,141,42555,2,0,P|204:113|186:-1,1,170,2|8,0:3|0:0,0:0:0:0:
170,221,43107,6,0,P|252:222|345:218,1,170,4|8,0:0|0:0,0:0:0:0:
437,166,43660,1,2,0:3:0:0:
345,107,43844,1,0,0:0:0:0:
339,217,44028,2,0,P|338:261|339:303,1,85,8|0,0:0|0:0,0:0:0:0:
437,166,44396,2,0,P|436:122|436:80,1,85,8|8,0:0|0:0,0:0:0:0:
388,1,44764,6,0,B|347:28|347:28|262:16,1,118.999996368408,2|2,0:3|0:3,0:0:0:0:
277,18,45500,1,8,0:0:0:0:
231,104,45684,2,0,L|235:176,1,59.4999981842042,2|0,0:3|0:0,0:0:0:0:
257,271,46052,6,0,B|292:253|292:253|380:267,1,118.999996368408,2|2,0:3|0:3,0:0:0:0:
435,334,46604,1,0,0:0:0:0:
435,334,46973,1,8,0:0:0:0:
511,278,47157,1,0,0:0:0:0:
422,225,47341,2,0,L|342:212,1,59.4999981842042,2|0,0:3|0:0,0:0:0:0:
251,216,47709,6,0,P|267:184|282:140,1,59.4999981842042,2|0,0:3|0:0,0:0:0:0:
161,107,48077,2,0,P|180:136|211:171,1,59.4999981842042,2|0,0:3|0:0,0:0:0:0:
219,24,48445,2,0,P|165:4|91:36,1,118.999996368408,8|2,0:0|0:3,0:0:0:0:
36,123,48997,6,0,L|42:187,1,59.4999981842042,2|0,0:3|0:0,0:0:0:0:
9,264,49365,1,2,0:3:0:0:
116,216,49549,1,0,0:0:0:0:
116,216,49917,2,0,L|121:284,1,59.4999981842042,8|8,0:0|0:0,0:0:0:0:
203,237,50285,2,0,L|199:178,1,59.4999981842042,2|0,0:3|0:0,0:0:0:0:
288,322,50653,6,0,P|321:320|363:317,2,59.4999981842042,2|0|2,0:3|0:0|0:3,0:0:0:0:
288,322,51390,1,8,0:0:0:0:
203,237,51574,1,2,0:3:0:0:
318,206,51758,1,0,0:0:0:0:
214,319,51942,6,0,P|180:317|134:317,1,59.4999981842042,2|0,0:3|0:0,0:0:0:0:
63,295,52310,1,2,0:3:0:0:
114,218,52494,2,0,P|115:182|116:138,1,59.4999981842042,2|2,0:3|0:3,0:0:0:0:
200,73,52862,1,8,0:0:0:0:
84,43,53046,1,2,0:3:0:0:
115,158,53230,1,0,0:0:0:0:
225,5,53414,6,0,P|253:7|288:8,1,59.4999981842042,2|0,0:3|0:0,0:0:0:0:
365,55,53782,1,2,0:3:0:0:
313,133,53966,2,0,P|315:160|319:195,1,59.4999981842042,2|2,0:3|0:3,0:0:0:0:
318,288,54334,1,8,0:0:0:0:
400,240,54519,1,0,0:0:0:0:
318,192,54703,2,0,P|287:191|245:192,1,59.4999981842042,2|0,0:3|0:0,0:0:0:0:
134,202,55071,6,0,P|152:236|166:276,1,76.4999976654053,2|0,0:3|0:0,0:0:0:0:
165,356,55439,1,8,0:0:0:0:
262,303,55623,2,0,P|300:297|342:298,1,76.4999976654053,2|2,0:3|0:3,0:0:0:0:
427,327,55991,1,0,0:0:0:0:
412,207,56175,2,0,P|415:168|425:127,1,76.4999976654053,8|0,0:0|0:0,0:0:0:0:
330,38,56543,6,0,P|290:39|235:44,1,76.4999976654053,2|2,0:3|0:3,0:0:0:0:
159,108,56911,1,8,0:0:0:0:
249,176,57095,2,0,P|289:175|344:170,1,76.4999976654053,2|0,0:3|0:0,0:0:0:0:
137,110,57463,2,0,L|93:113,1,38.2499988327027,2|0,0:3|0:0,0:0:0:0:
2,167,57647,1,8,0:0:0:0:
93,249,57831,1,0,0:0:0:0:
98,9,58015,5,8,0:0:0:0:
249,176,58200,1,2,0:3:0:0:
2,167,58384,1,2,0:3:0:0:
255,29,58568,1,8,0:0:0:0:
255,29,58660,1,8,0:0:0:0:
255,29,58752,1,8,0:0:0:0:
254,264,58936,1,2,0:3:0:0:
254,264,59028,1,0,0:0:0:0:
254,264,59120,6,0,P|226:263|186:250,1,42.5,8|0,0:0|0:0,0:0:0:0:
344,186,59304,2,0,P|371:186|411:199,1,42.5,2|0,0:0|0:0,0:0:0:0:
281,344,59488,6,0,P|204:343|126:336,1,140.25000428009,4|0,0:0|0:0,0:0:0:0:
77,303,59856,2,0,P|103:260|101:209,1,93.5000028533936,8|0,0:0|0:0,0:0:0:0:
13,113,60224,1,2,0:3:0:0:
29,240,60408,1,2,0:3:0:0:
156,147,60592,1,8,0:0:0:0:
26,247,60776,1,2,0:3:0:0:
245,254,60960,6,0,P|293:247|333:209,1,93.5000028533936,0|2,0:0|0:3,0:0:0:0:
271,79,61328,2,0,P|253:121|260:167,1,93.5000028533936,8|0,0:0|0:0,0:0:0:0:
421,141,61696,2,0,L|325:132,1,93.5000028533936,2|2,0:3|0:3,0:0:0:0:
177,87,62065,2,0,L|273:78,1,93.5000028533936,8|0,0:0|0:0,0:0:0:0:
92,219,62433,6,0,P|44:223|-1:200,1,93.5000028533936,2|0,0:3|0:0,0:0:0:0:
66,114,62801,1,8,0:0:0:0:
162,278,62985,2,0,P|166:326|143:371,1,93.5000028533936,2|2,0:3|0:3,0:0:0:0:
92,219,63353,1,2,0:3:0:0:
92,219,63445,1,2,0:3:0:0:
92,219,63537,2,0,P|131:191|221:210,1,140.25000428009,8|0,0:0|0:0,0:0:0:0:
289,219,63905,6,0,L|288:123,1,93.5000028533936,2|0,0:3|0:0,0:0:0:0:
388,175,64273,1,8,0:0:0:0:
274,293,64457,2,0,L|178:294,1,93.5000028533936,2|0,0:3|0:0,0:0:0:0:
317,384,64825,2,0,L|410:383,1,93.5000028533936,2|8,0:3|0:0,0:0:0:0:
503,326,65193,1,0,0:0:0:0:
383,193,65377,6,0,P|374:139|413:85,1,93.5000028533936,2|0,0:3|0:0,0:0:0:0:
471,156,65746,1,8,0:0:0:0:
361,299,65930,2,0,P|307:308|253:269,1,93.5000028533936,2|2,0:3|0:3,0:0:0:0:
147,192,66298,2,0,P|174:184|199:184,1,46.7500014266968,2|2,0:3|0:3,0:0:0:0:
87,269,66482,2,0,P|53:226|59:155,1,93.5000028533936,8|2,0:0|0:3,0:0:0:0:
156,19,66850,5,2,0:3:0:0:
147,192,67034,1,2,0:3:0:0:
59,86,67218,1,8,0:0:0:0:
267,90,67402,1,2,0:3:0:0:
267,90,67494,1,2,0:3:0:0:
267,90,67586,1,2,0:3:0:0:
238,231,67770,1,2,0:3:0:0:
73,173,67954,2,0,P|52:126|65:75,1,93.5000028533936,8|0,0:0|0:0,0:0:0:0:
159,245,68322,5,2,0:3:0:0:
27,242,68506,1,0,0:0:0:0:
143,121,68690,5,8,0:0:0:0:
275,118,68874,1,0,0:0:0:0:
277,287,69058,5,2,0:3:0:0:
212,171,69242,1,2,0:3:0:0:
372,117,69426,5,8,0:0:0:0:
286,207,69610,1,2,0:3:0:0:
199,20,69795,5,2,0:3:0:0:
128,192,69979,1,8,0:0:0:0:
275,118,70163,1,8,0:0:0:0:
81,104,70347,1,2,0:3:0:0:
81,104,70439,1,2,0:3:0:0:
81,104,70531,1,2,0:3:0:0:
132,269,70715,1,2,0:3:0:0:
275,118,70899,2,0,L|298:27,1,93.5000028533936,8|2,0:0|0:3,0:0:0:0:
410,168,71267,6,0,L|374:304,1,140.25000428009,4|0,0:0|0:0,0:0:0:0:
321,369,71635,2,0,P|272:369|215:338,1,93.5000028533936,8|0,0:0|0:0,0:0:0:0:
173,227,72003,1,2,0:3:0:0:
289,295,72187,1,2,0:3:0:0:
152,382,72371,1,8,0:0:0:0:
295,292,72555,1,2,0:3:0:0:
88,257,72739,6,0,P|76:208|87:166,1,93.5000028533936,0|2,0:0|0:3,0:0:0:0:
242,109,73107,2,0,P|254:153|243:198,1,93.5000028533936,8|0,0:0|0:0,0:0:0:0:
86,167,73476,2,0,L|192:154,1,93.5000028533936,2|2,0:3|0:3,0:0:0:0:
335,121,73844,2,0,L|229:108,1,93.5000028533936,8|0,0:0|0:0,0:0:0:0:
411,270,74212,6,0,P|467:270|513:241,1,93.5000028533936,2|0,0:3|0:0,0:0:0:0:
423,104,74580,2,0,P|367:104|321:133,1,93.5000028533936,8|2,0:0|0:3,0:0:0:0:
283,277,74948,1,2,0:3:0:0:
391,190,75132,1,2,0:3:0:0:
259,151,75316,1,8,0:0:0:0:
379,308,75500,6,0,P|450:297|495:178,1,187.000005706787,2|2,0:3|0:3,0:0:0:0:
389,97,76052,2,0,P|391:143|392:190,1,93.5000028533936,8|0,0:0|0:0,0:0:0:0:
194,181,76420,2,0,P|238:158|285:163,1,93.5000028533936,2|2,0:3|0:3,0:0:0:0:
239,308,76788,2,0,P|194:329|147:324,1,93.5000028533936,8|0,0:0|0:0,0:0:0:0:
94,160,77157,6,0,P|184:159|288:162,1,187.000005706787,2|8,0:3|0:0,0:0:0:0:
370,215,77709,1,2,0:3:0:0:
472,141,77893,2,0,P|479:91|468:49,1,93.5000028533936,0|0,0:3|0:3,0:0:0:0:
343,14,78261,2,0,P|336:64|347:106,1,93.5000028533936,8|2,0:0|0:3,0:0:0:0:
456,263,78629,6,0,P|410:261|347:260,1,93.5000028533936,2|2,0:3|0:3,0:0:0:0:
234,224,78997,2,0,P|222:177|239:127,1,93.5000028533936,8|0,0:0|0:0,0:0:0:0:
362,260,79365,2,0,P|374:307|357:357,1,93.5000028533936,2|2,0:3|0:3,0:0:0:0:
170,301,79733,2,0,P|216:303|279:304,1,93.5000028533936,8|2,0:0|0:3,0:0:0:0:
302,181,80101,5,2,0:3:0:0:
105,181,80285,1,0,0:0:0:0:
342,105,80469,5,8,0:0:0:0:
145,105,80653,1,2,0:3:0:0:
384,31,80838,5,2,0:3:0:0:
187,31,81022,1,2,0:3:0:0:
302,181,81206,6,0,P|355:182|396:152,1,93.5000028533936,8|0,0:0|0:0,0:0:0:0:
187,31,81574,5,8,0:0:0:0:
222,217,81758,1,2,0:3:0:0:
330,108,81942,1,2,0:3:0:0:
80,113,82126,5,8,0:0:0:0:
339,110,82310,1,2,0:3:0:0:
245,289,82494,2,0,P|208:289|178:280,1,46.7500014266968,2|0,0:3|0:0,0:0:0:0:
98,237,82678,5,8,0:0:0:0:
70,201,82770,1,2,0:3:0:0:
63,156,82862,1,2,0:3:0:0:
80,113,82954,1,2,0:3:0:0:
111,79,83046,6,0,L|246:86,1,118.999996368408,4|2,0:0|0:3,0:0:0:0:
311,129,83598,1,2,0:3:0:0:
358,210,83782,2,0,L|353:269,1,59.4999981842042,8|2,0:0|0:3,0:0:0:0:
290,330,84150,1,0,0:0:0:0:
380,366,84334,6,0,L|439:361,1,59.4999981842042,2|0,0:3|0:0,0:0:0:0:
512,309,84703,1,2,0:3:0:0:
512,309,85071,1,2,0:3:0:0:
475,224,85255,2,0,P|472:189|472:156,1,59.4999981842042,8|0,0:0|0:0,0:0:0:0:
441,75,85623,2,0,B|407:91|407:91|331:82,1,89.2499972763062,2|0,0:3|0:0,0:0:0:0:
335,79,85991,5,2,0:3:0:0:
335,79,86359,2,0,L|339:146,1,59.4999981842042,0|2,0:0|0:3,0:0:0:0:
322,221,86727,1,8,0:0:0:0:
239,253,86911,2,0,L|168:247,1,59.4999981842042,2|0,0:3|0:0,0:0:0:0:
106,207,87279,6,0,P|105:176|104:145,1,59.4999981842042,2|0,0:3|0:0,0:0:0:0:
26,100,87647,2,0,P|27:69|28:38,1,59.4999981842042,2|0,0:3|0:0,0:0:0:0:
103,13,88015,1,2,0:3:0:0:
192,62,88200,2,0,P|232:66|266:63,1,59.4999981842042,8|0,0:0|0:0,0:0:0:0:
350,51,88568,1,2,0:0:0:0:
355,67,88660,1,2,0:0:0:0:
358,85,88752,1,2,0:0:0:0:
359,103,88844,1,2,0:0:0:0:
359,120,88936,6,0,P|355:187|385:249,1,118.999996368408,2|0,0:3|0:0,0:0:0:0:
433,296,89488,1,2,0:3:0:0:
351,341,89672,2,0,L|286:341,1,59.4999981842042,8|2,0:0|0:3,0:0:0:0:
214,314,90040,1,0,0:0:0:0:
151,245,90224,6,0,L|151:177,1,59.4999981842042,2|0,0:3|0:0,0:0:0:0:
232,147,90592,2,0,L|232:79,1,59.4999981842042,2|0,0:3|0:0,0:0:0:0:
193,16,90960,1,2,0:3:0:0:
96,61,91144,2,0,P|62:63|33:56,1,59.4999981842042,8|2,0:0|0:3,0:0:0:0:
10,144,91512,2,0,P|12:178|5:207,1,59.4999981842042,2|0,0:3|0:0,0:0:0:0:
72,281,91880,6,0,L|159:277,1,59.4999981842042,8|2,0:0|0:3,0:0:0:0:
131,278,92157,1,2,0:3:0:0:
131,278,92249,1,2,0:3:0:0:
253,260,92433,2,0,L|249:173,1,59.4999981842042,8|2,0:0|0:3,0:0:0:0:
250,200,92709,1,2,0:3:0:0:
250,200,92801,1,2,0:3:0:0:
259,104,92985,1,8,0:0:0:0:
358,216,93169,5,4,0:0:0:0:
256,192,93261,12,0,96298,0:0:0:0:
