osu file format v14

[General]
AudioFilename: audio.mp3
AudioLeadIn: 0
PreviewTime: 49465
Countdown: 0
SampleSet: Soft
StackLeniency: 0.7
Mode: 3
LetterboxInBreaks: 0
SpecialStyle: 0
WidescreenStoryboard: 0

[Editor]
DistanceSpacing: 1
BeatDivisor: 4
GridSize: 4
TimelineZoom: 2.4

[Metadata]
Title:Rocket*Ride
TitleUnicode:ロケット☆ライド
Artist:Duca
ArtistUnicode:Duca
Creator:Yukari_Sama
Version:MX
Source:あの晴れわたる空より高く
Tags:atian540 eroge visual novel galgame opening op mao chuablesoft SHO キセノンP KisenonP Ano Harewataru Sora yori Takaku でゅっか japanese pop jpop video game
BeatmapID:1422260
BeatmapSetID:657533

[Difficulty]
HPDrainRate:8
CircleSize:4
OverallDifficulty:8
ApproachRate:5
SliderMultiplier:1.4
SliderTickRate:1

[Events]
//Background and Video events
0,0,"BG.jpg",0,0
//Break Periods
//Storyboard Layer 0 (Background)
//Storyboard Layer 1 (Fail)
//Storyboard Layer 2 (Pass)
//Storyboard Layer 3 (Foreground)
//Storyboard Layer 4 (Overlay)
//Storyboard Sound Samples
Sample,9259,0,"LR_NBell_E6.wav",25
Sample,9568,0,"LR_NBell_D6.wav",25
Sample,9877,0,"LR_NBell_C6.wav",25

[TimingPoints]
754,309.278350515464,4,2,1,40,1,0
10186,-100,4,2,1,60,0,0
50238,-100,4,2,1,60,0,1
77455,-100,4,2,1,60,0,0

[HitObjects]
448,192,754,128,0,908:0:0:0:25:LR_NBell_F5.wav
192,192,908,1,0,0:0:0:0:
448,192,1063,128,0,1217:0:0:0:25:LR_NBell_F5.wav
64,192,1217,1,0,0:0:0:0:
320,192,1372,128,0,1527:0:0:0:25:LR_NBell_F5.wav
192,192,1527,128,0,1681:0:0:0:25:LR_NBell_D#5.wav
320,192,1681,128,0,1836:0:0:0:25:LR_NBell_F5.wav
64,192,1836,128,0,2145:0:0:0:25:LR_NBell_F#5.wav
448,192,1991,1,0,0:0:0:0:
320,192,2145,1,0,0:0:0:0:
192,192,2300,128,0,2455:0:0:0:25:LR_NBell_F#5.wav
448,192,2455,1,0,0:0:0:0:
320,192,2609,128,0,2764:0:0:0:25:LR_NBell_F#5.wav
64,192,2764,128,0,2918:0:0:0:25:LR_NBell_F5.wav
448,192,2918,128,0,3073:0:0:0:25:LR_NBell_F#5.wav
192,192,3073,128,0,3382:0:0:0:25:LR_NBell_G#5.wav
320,192,3228,1,0,0:0:0:0:
448,192,3382,1,0,0:0:0:0:
320,192,3537,128,0,3692:0:0:0:25:LR_NBell_G#5.wav
64,192,3692,1,0,0:0:0:0:
320,192,3846,128,0,4001:0:0:0:25:LR_NBell_G#5.wav
192,192,4001,1,0,0:0:0:0:
320,192,4156,128,0,4310:0:0:0:25:LR_NBell_F#5.wav
448,192,4310,128,0,4465:0:0:0:25:LR_NBell_G#5.wav
64,192,4465,128,0,4619:0:0:0:25:LR_NBell_F#5.wav
192,192,4619,128,0,4774:0:0:0:25:LR_NBell_F5.wav
320,192,4774,1,0,0:0:0:0:
64,192,4929,128,0,5238:0:0:0:25:LR_NBell_F5.wav
448,192,5083,1,0,0:0:0:0:
320,192,5238,1,0,0:0:0:0:
192,192,5393,1,0,0:0:0:0:
64,192,5547,1,0,0:0:0:0:
192,192,5702,128,0,5857:0:0:0:25:LR_NBell_F5.wav
448,192,5857,1,0,0:0:0:0:
192,192,6011,128,0,6166:0:0:0:25:LR_NBell_F5.wav
320,192,6166,1,0,0:0:0:0:
64,192,6321,128,0,6475:0:0:0:25:LR_NBell_F5.wav
320,192,6475,128,0,6630:0:0:0:25:LR_NBell_D#5.wav
448,192,6630,128,0,6784:0:0:0:25:LR_NBell_F5.wav
192,192,6784,128,0,7094:0:0:0:25:LR_NBell_F#5.wav
448,192,6939,1,0,0:0:0:0:
64,192,7094,1,0,0:0:0:0:
448,192,7248,128,0,7403:0:0:0:25:LR_NBell_F#5.wav
192,192,7403,1,0,0:0:0:0:
320,192,7558,128,0,7712:0:0:0:25:LR_NBell_F#5.wav
448,192,7712,128,0,7867:0:0:0:25:LR_NBell_F5.wav
64,192,7867,128,0,8022:0:0:0:25:LR_NBell_F#5.wav
192,192,8022,128,0,8331:0:0:0:25:LR_NBell_G#5.wav
320,192,8176,128,0,8331:0:0:0:25:LR_NBell_B6.wav
64,192,8331,128,0,8485:0:0:0:25:LR_NBell_A#6.wav
192,192,8485,128,0,8640:0:0:0:25:LR_NBell_G#5.wav
320,192,8485,128,0,8640:0:0:0:25:LR_NBell_A6.wav
448,192,8640,128,0,8795:0:0:0:25:LR_NBell_G#6.wav
64,192,8795,128,0,8949:0:0:0:25:LR_NBell_G#5.wav
192,192,8795,128,0,8949:0:0:0:25:LR_NBell_G6.wav
320,192,8949,128,0,9104:0:0:0:25:LR_NBell_F#6.wav
64,192,9104,128,0,9259:0:0:0:25:LR_NBell_F#5.wav
448,192,9104,128,0,9259:0:0:0:25:LR_NBell_F6.wav
192,192,9259,128,0,9413:0:0:0:25:LR_NBell_G#5.wav
320,192,9413,128,0,9568:0:0:0:25:LR_NBell_F#5.wav
448,192,9413,128,0,10186:0:0:0:25:LR_NBell_D#6.wav
64,192,9568,128,0,9723:0:0:0:25:LR_NBell_F5.wav
192,192,9723,128,0,9877:0:0:0:25:LR_NBell_C#6.wav
64,192,9877,128,0,10032:0:0:0:25:LR_NBell_F5.wav
320,192,10032,128,0,10186:0:0:0:25:LR_NBell_B5.wav
64,192,10186,1,8,0:0:0:0:
192,192,10186,1,0,0:0:0:0:
64,192,10341,1,8,0:0:0:0:
192,192,10341,1,0,0:0:0:0:
320,192,10496,1,8,0:0:0:0:
448,192,10496,1,0,0:0:0:0:
64,192,10650,1,2,0:0:0:0:
320,192,10650,1,4,0:0:0:0:
448,192,10650,1,0,0:0:0:0:
192,192,10650,1,0,0:0:0:0:
64,192,10960,1,8,0:0:0:0:
192,192,10960,1,0,0:0:0:0:
448,192,10960,1,0,0:0:0:0:
320,192,11114,1,2,0:0:0:0:
64,192,11269,1,8,0:0:0:0:
320,192,11269,1,0,0:0:0:0:
448,192,11269,1,0,0:0:0:0:
192,192,11424,1,2,0:0:0:0:
64,192,11578,1,8,0:0:0:0:
192,192,11578,1,0,0:0:0:0:
320,192,11578,1,0,0:0:0:0:
448,192,11733,1,2,0:0:0:0:
192,192,11888,1,8,0:0:0:0:
320,192,11888,1,0,0:0:0:0:
448,192,11888,1,0,0:0:0:0:
64,192,12042,1,2,0:0:0:0:
192,192,12119,1,2,0:0:0:0:
64,192,12197,1,8,0:0:0:0:
320,192,12197,1,0,0:0:0:0:
448,192,12197,1,0,0:0:0:0:
192,192,12351,1,2,0:0:0:0:
64,192,12506,1,8,0:0:0:0:
192,192,12506,1,0,0:0:0:0:
320,192,12506,1,0,0:0:0:0:
448,192,12583,1,2,0:0:0:0:
320,192,12661,1,2,0:0:0:0:
192,192,12738,1,2,0:0:0:0:
64,192,12815,1,8,0:0:0:0:
320,192,12815,1,0,0:0:0:0:
448,192,12815,1,0,0:0:0:0:
192,192,12970,1,2,0:0:0:0:
64,192,13125,1,8,0:0:0:0:
192,192,13125,1,0,0:0:0:0:
448,192,13125,1,0,0:0:0:0:
320,192,13279,1,2,0:0:0:0:
192,192,13357,1,2,0:0:0:0:
64,192,13434,1,8,0:0:0:0:
320,192,13434,1,0,0:0:0:0:
448,192,13434,1,0,0:0:0:0:
192,192,13589,1,2,0:0:0:0:
192,192,13743,1,8,0:0:0:0:
320,192,13743,1,0,0:0:0:0:
448,192,13743,1,0,0:0:0:0:
64,192,13898,1,2,0:0:0:0:
64,192,14052,1,8,0:0:0:0:
192,192,14052,1,0,0:0:0:0:
448,192,14052,1,0,0:0:0:0:
320,192,14207,1,2,0:0:0:0:
64,192,14362,1,8,0:0:0:0:
192,192,14362,1,0,0:0:0:0:
320,192,14362,1,0,0:0:0:0:
448,192,14516,1,2,0:0:0:0:
64,192,14671,1,8,0:0:0:0:
320,192,14671,1,0,0:0:0:0:
448,192,14671,1,0,0:0:0:0:
192,192,14826,1,2,0:0:0:0:
64,192,14980,1,8,0:0:0:0:
192,192,14980,1,0,0:0:0:0:
448,192,14980,1,0,0:0:0:0:
320,192,15058,1,2,0:0:0:0:
448,192,15135,1,2,0:0:0:0:
192,192,15212,1,2,0:0:0:0:
64,192,15290,1,8,0:0:0:0:
320,192,15290,1,0,0:0:0:0:
448,192,15290,1,0,0:0:0:0:
192,192,15444,1,2,0:0:0:0:
64,192,15599,1,4,0:0:0:0:
192,192,15599,1,8,0:0:0:0:
320,192,15599,1,0,0:0:0:0:
448,192,15599,1,0,0:0:0:0:
64,192,15908,1,8,0:0:0:0:
320,192,15908,1,0,0:0:0:0:
448,192,15908,1,0,0:0:0:0:
192,192,16063,1,2,0:0:0:0:
64,192,16217,1,8,0:0:0:0:
192,192,16217,1,0,0:0:0:0:
448,192,16217,1,0,0:0:0:0:
320,192,16372,1,2,0:0:0:0:
192,192,16527,1,8,0:0:0:0:
320,192,16527,1,0,0:0:0:0:
448,192,16527,1,0,0:0:0:0:
64,192,16681,1,2,0:0:0:0:
64,192,16836,1,8,0:0:0:0:
192,192,16836,1,0,0:0:0:0:
320,192,16836,1,0,0:0:0:0:
448,192,16991,1,2,0:0:0:0:
320,192,17068,1,2,0:0:0:0:
64,192,17145,1,8,0:0:0:0:
192,192,17145,1,0,0:0:0:0:
448,192,17145,1,0,0:0:0:0:
320,192,17300,1,2,0:0:0:0:
192,192,17377,1,2,0:0:0:0:
448,192,17455,1,2,0:0:0:0:
320,192,17532,1,2,0:0:0:0:
64,192,17609,1,8,0:0:0:0:
192,192,17609,1,0,0:0:0:0:
320,192,17686,1,8,0:0:0:0:
448,192,17686,1,0,0:0:0:0:
64,192,17764,1,2,0:0:0:0:
192,192,17841,1,2,0:0:0:0:
320,192,17918,1,2,0:0:0:0:
448,192,17996,1,2,0:0:0:0:
64,192,18073,128,2,18537:0:0:0:0:
192,192,18073,1,4,0:0:0:0:
320,192,18228,128,0,18382:0:0:0:0:
192,192,18382,128,0,18537:0:0:0:0:
448,192,18537,128,0,19001:0:0:0:0:
192,192,18692,128,0,18846:0:0:0:0:
320,192,18846,128,0,19001:0:0:0:0:
64,192,19001,128,0,19465:0:0:0:0:
320,192,19156,128,0,19310:0:0:0:0:
192,192,19310,128,0,19465:0:0:0:0:
448,192,19465,128,0,19929:0:0:0:0:
192,192,19619,128,0,19774:0:0:0:0:
320,192,19774,128,0,19929:0:0:0:0:
64,192,19929,1,8,0:0:0:0:
192,192,19929,1,0,0:0:0:0:
448,192,20006,1,8,0:0:0:0:
64,192,20083,1,2,0:0:0:0:
320,192,20083,1,0,0:0:0:0:
192,192,20161,1,2,0:0:0:0:
320,192,20238,1,8,0:0:0:0:
448,192,20238,1,0,0:0:0:0:
64,192,20393,1,8,0:0:0:0:
192,192,20393,1,0,0:0:0:0:
320,192,20470,1,8,0:0:0:0:
64,192,20547,1,2,0:0:0:0:
192,192,20547,1,4,0:0:0:0:
448,192,20547,1,0,0:0:0:0:
320,192,20702,1,0,0:0:0:0:
64,192,20857,1,8,0:0:0:0:
192,192,20857,1,0,0:0:0:0:
320,192,20857,1,0,0:0:0:0:
448,192,21011,1,0,0:0:0:0:
320,192,21166,1,2,0:0:0:0:
448,192,21166,1,0,0:0:0:0:
64,192,21321,1,2,0:0:0:0:
192,192,21321,1,0,0:0:0:0:
64,192,21475,1,8,0:0:0:0:
320,192,21475,1,0,0:0:0:0:
448,192,21475,1,0,0:0:0:0:
192,192,21630,1,0,0:0:0:0:
64,192,21784,1,2,0:0:0:0:
192,192,21784,1,0,0:0:0:0:
320,192,21939,1,0,0:0:0:0:
192,192,22094,1,8,0:0:0:0:
320,192,22094,1,0,0:0:0:0:
448,192,22094,1,0,0:0:0:0:
64,192,22248,1,8,0:0:0:0:
192,192,22248,1,0,0:0:0:0:
448,192,22248,1,0,0:0:0:0:
64,192,22403,1,2,0:0:0:0:
320,192,22403,1,0,0:0:0:0:
192,192,22558,1,2,0:0:0:0:
448,192,22558,128,0,22712:0:0:0:0:
64,192,22712,1,8,0:0:0:0:
192,192,22712,1,0,0:0:0:0:
320,192,22712,128,0,22867:0:0:0:0:
64,192,22867,128,2,23022:0:0:0:0:
448,192,22867,1,0,0:0:0:0:
192,192,23022,128,2,23176:0:0:0:0:
320,192,23022,1,0,0:0:0:0:
448,192,23176,1,0,0:0:0:0:
64,192,23331,1,8,0:0:0:0:
320,192,23331,1,0,0:0:0:0:
448,192,23331,1,0,0:0:0:0:
192,192,23485,1,0,0:0:0:0:
192,192,23640,1,2,0:0:0:0:
448,192,23640,1,0,0:0:0:0:
64,192,23795,1,2,0:0:0:0:
320,192,23795,1,0,0:0:0:0:
64,192,23949,1,8,0:0:0:0:
192,192,23949,1,0,0:0:0:0:
448,192,23949,1,0,0:0:0:0:
320,192,24104,1,0,0:0:0:0:
320,192,24259,1,2,0:0:0:0:
448,192,24259,1,0,0:0:0:0:
192,192,24413,1,0,0:0:0:0:
64,192,24568,1,8,0:0:0:0:
192,192,24568,1,0,0:0:0:0:
448,192,24568,1,0,0:0:0:0:
64,192,24723,1,8,0:0:0:0:
320,192,24723,1,0,0:0:0:0:
448,192,24723,1,0,0:0:0:0:
192,192,24877,1,2,0:0:0:0:
320,192,24877,1,0,0:0:0:0:
64,192,25032,128,2,25186:0:0:0:0:
448,192,25032,1,0,0:0:0:0:
192,192,25186,1,8,0:0:0:0:
320,192,25186,1,0,0:0:0:0:
448,192,25186,128,0,25341:0:0:0:0:
64,192,25341,1,2,0:0:0:0:
192,192,25341,128,0,25496:0:0:0:0:
64,192,25496,1,2,0:0:0:0:
320,192,25496,128,4,25650:0:0:0:0:
448,192,25496,1,0,0:0:0:0:
192,192,25650,1,0,0:0:0:0:
192,192,25805,1,8,0:0:0:0:
320,192,25805,1,0,0:0:0:0:
448,192,25805,1,0,0:0:0:0:
64,192,25960,1,0,0:0:0:0:
64,192,26114,1,2,0:0:0:0:
448,192,26114,1,0,0:0:0:0:
192,192,26269,1,2,0:0:0:0:
320,192,26269,1,0,0:0:0:0:
64,192,26424,1,8,0:0:0:0:
320,192,26424,1,0,0:0:0:0:
448,192,26424,1,0,0:0:0:0:
192,192,26578,1,0,0:0:0:0:
64,192,26733,1,2,0:0:0:0:
192,192,26733,1,0,0:0:0:0:
448,192,26888,1,0,0:0:0:0:
192,192,27042,1,8,0:0:0:0:
320,192,27042,1,0,0:0:0:0:
448,192,27042,1,0,0:0:0:0:
64,192,27197,1,8,0:0:0:0:
192,192,27197,1,0,0:0:0:0:
320,192,27197,1,0,0:0:0:0:
64,192,27351,1,2,0:0:0:0:
448,192,27351,1,0,0:0:0:0:
192,192,27506,1,2,0:0:0:0:
320,192,27506,128,0,27661:0:0:0:0:
64,192,27661,1,8,0:0:0:0:
192,192,27661,1,0,0:0:0:0:
448,192,27661,128,0,27815:0:0:0:0:
64,192,27815,128,2,27970:0:0:0:0:
320,192,27815,1,0,0:0:0:0:
192,192,27970,128,2,28125:0:0:0:0:
448,192,27970,1,0,0:0:0:0:
320,192,28125,1,0,0:0:0:0:
64,192,28279,1,8,0:0:0:0:
192,192,28279,1,0,0:0:0:0:
448,192,28279,1,0,0:0:0:0:
64,192,28434,1,8,0:0:0:0:
320,192,28434,1,0,0:0:0:0:
448,192,28434,1,0,0:0:0:0:
64,192,28589,1,2,0:0:0:0:
192,192,28589,1,0,0:0:0:0:
320,192,28743,1,2,0:0:0:0:
448,192,28743,1,0,0:0:0:0:
64,192,28898,1,8,0:0:0:0:
192,192,28898,1,0,0:0:0:0:
448,192,28898,1,0,0:0:0:0:
192,192,29052,1,0,0:0:0:0:
64,192,29207,128,2,29516:0:0:0:0:
320,192,29207,128,4,29362:0:0:0:0:
448,192,29207,1,0,0:0:0:0:
192,192,29362,128,2,29516:0:0:0:0:
320,192,29516,128,8,29671:0:0:0:0:
448,192,29516,1,0,0:0:0:0:
64,192,29671,128,2,29980:0:0:0:0:
192,192,29671,1,4,0:0:0:0:
448,192,29671,128,0,29980:0:0:0:0:
192,192,29980,128,2,30135:0:0:0:0:
64,192,30135,1,8,0:0:0:0:
320,192,30135,128,4,30290:0:0:0:0:
448,192,30135,128,0,30444:0:0:0:0:
64,192,30290,128,2,30444:0:0:0:0:
192,192,30444,1,4,0:0:0:0:
320,192,30444,1,2,0:0:0:0:
192,192,30599,1,0,0:0:0:0:
64,192,30754,1,8,0:0:0:0:
320,192,30754,1,0,0:0:0:0:
448,192,30754,1,0,0:0:0:0:
192,192,30908,1,0,0:0:0:0:
64,192,31063,1,2,0:0:0:0:
320,192,31063,1,0,0:0:0:0:
192,192,31217,1,2,0:0:0:0:
448,192,31217,1,0,0:0:0:0:
64,192,31372,1,8,0:0:0:0:
320,192,31372,1,0,0:0:0:0:
448,192,31372,1,0,0:0:0:0:
192,192,31527,1,0,0:0:0:0:
64,192,31681,1,2,0:0:0:0:
192,192,31681,1,0,0:0:0:0:
448,192,31836,1,0,0:0:0:0:
64,192,31991,1,8,0:0:0:0:
320,192,31991,1,0,0:0:0:0:
448,192,31991,1,0,0:0:0:0:
64,192,32145,1,8,0:0:0:0:
192,192,32145,1,0,0:0:0:0:
320,192,32145,1,0,0:0:0:0:
192,192,32300,1,2,0:0:0:0:
448,192,32300,1,0,0:0:0:0:
64,192,32455,1,2,0:0:0:0:
320,192,32455,128,0,32609:0:0:0:0:
64,192,32609,1,8,0:0:0:0:
192,192,32609,128,0,32764:0:0:0:0:
448,192,32609,1,0,0:0:0:0:
320,192,32764,1,2,0:0:0:0:
448,192,32764,128,0,32918:0:0:0:0:
64,192,32918,128,2,33073:0:0:0:0:
192,192,32918,1,0,0:0:0:0:
448,192,33073,1,0,0:0:0:0:
64,192,33228,1,8,0:0:0:0:
192,192,33228,1,0,0:0:0:0:
448,192,33228,1,0,0:0:0:0:
320,192,33382,1,0,0:0:0:0:
320,192,33537,1,2,0:0:0:0:
448,192,33537,1,0,0:0:0:0:
64,192,33692,1,2,0:0:0:0:
192,192,33692,1,0,0:0:0:0:
64,192,33846,1,8,0:0:0:0:
320,192,33846,1,0,0:0:0:0:
448,192,33846,1,0,0:0:0:0:
192,192,34001,1,0,0:0:0:0:
192,192,34156,1,2,0:0:0:0:
448,192,34156,1,0,0:0:0:0:
320,192,34310,1,0,0:0:0:0:
64,192,34465,1,8,0:0:0:0:
320,192,34465,1,0,0:0:0:0:
448,192,34465,1,0,0:0:0:0:
64,192,34619,1,8,0:0:0:0:
192,192,34619,1,0,0:0:0:0:
448,192,34619,1,0,0:0:0:0:
192,192,34774,1,2,0:0:0:0:
320,192,34774,1,0,0:0:0:0:
64,192,34929,128,2,35083:0:0:0:0:
448,192,34929,1,0,0:0:0:0:
192,192,35083,1,8,0:0:0:0:
320,192,35083,128,0,35238:0:0:0:0:
448,192,35083,1,0,0:0:0:0:
64,192,35238,1,2,0:0:0:0:
192,192,35238,128,0,35393:0:0:0:0:
64,192,35393,1,2,0:0:0:0:
320,192,35393,1,4,0:0:0:0:
448,192,35393,128,0,35547:0:0:0:0:
192,192,35547,1,0,0:0:0:0:
192,192,35702,1,8,0:0:0:0:
320,192,35702,1,0,0:0:0:0:
448,192,35702,1,0,0:0:0:0:
64,192,35857,1,0,0:0:0:0:
64,192,36011,1,2,0:0:0:0:
192,192,36011,1,0,0:0:0:0:
320,192,36166,1,2,0:0:0:0:
448,192,36166,1,0,0:0:0:0:
64,192,36321,1,8,0:0:0:0:
192,192,36321,1,0,0:0:0:0:
448,192,36321,1,0,0:0:0:0:
320,192,36475,1,0,0:0:0:0:
320,192,36630,1,2,0:0:0:0:
448,192,36630,1,0,0:0:0:0:
192,192,36784,1,0,0:0:0:0:
64,192,36939,1,8,0:0:0:0:
192,192,36939,1,0,0:0:0:0:
448,192,36939,1,0,0:0:0:0:
64,192,37094,1,8,0:0:0:0:
320,192,37094,1,0,0:0:0:0:
448,192,37094,1,0,0:0:0:0:
192,192,37248,1,2,0:0:0:0:
320,192,37248,1,0,0:0:0:0:
64,192,37403,1,2,0:0:0:0:
448,192,37403,128,0,37558:0:0:0:0:
64,192,37558,1,8,0:0:0:0:
192,192,37558,128,0,37712:0:0:0:0:
320,192,37558,1,0,0:0:0:0:
320,192,37712,128,2,37867:0:0:0:0:
448,192,37712,1,0,0:0:0:0:
64,192,37867,128,2,38022:0:0:0:0:
192,192,37867,1,0,0:0:0:0:
320,192,38022,1,0,0:0:0:0:
64,192,38176,1,8,0:0:0:0:
320,192,38176,1,0,0:0:0:0:
448,192,38176,1,0,0:0:0:0:
64,192,38331,1,8,0:0:0:0:
192,192,38331,1,0,0:0:0:0:
448,192,38331,1,0,0:0:0:0:
320,192,38485,1,2,0:0:0:0:
448,192,38485,1,0,0:0:0:0:
64,192,38640,1,2,0:0:0:0:
192,192,38640,1,0,0:0:0:0:
64,192,38795,1,8,0:0:0:0:
320,192,38795,1,0,0:0:0:0:
448,192,38795,1,0,0:0:0:0:
320,192,38949,1,0,0:0:0:0:
64,192,39104,1,2,0:0:0:0:
192,192,39104,128,4,39259:0:0:0:0:
448,192,39104,128,0,39413:0:0:0:0:
320,192,39259,128,2,39413:0:0:0:0:
64,192,39413,128,8,39568:0:0:0:0:
192,192,39413,1,0,0:0:0:0:
192,192,39568,1,2,0:0:0:0:
320,192,39568,128,4,39877:0:0:0:0:
448,192,39568,128,0,39877:0:0:0:0:
64,192,39877,1,2,0:0:0:50:
192,192,39877,1,0,0:0:0:0:
320,192,40032,1,2,0:0:0:50:
448,192,40032,1,0,0:0:0:0:
192,192,40109,1,2,0:0:0:50:
64,192,40186,1,2,0:0:0:50:
448,192,40186,1,0,0:0:0:0:
320,192,40264,1,2,0:0:0:50:
64,192,40341,1,4,0:0:0:0:
192,192,40341,1,2,0:0:0:50:
448,192,40341,1,0,0:0:0:0:
320,192,40496,1,0,0:0:0:0:
64,192,40650,128,8,40805:0:0:0:0:
192,192,40650,1,0,0:0:0:0:
448,192,40650,1,0,0:0:0:0:
320,192,40805,1,0,0:0:0:0:
64,192,40960,1,2,0:0:0:0:
448,192,40960,1,0,0:0:0:0:
192,192,41114,1,2,0:0:0:0:
320,192,41114,128,0,41269:0:0:0:0:
64,192,41269,1,8,0:0:0:0:
192,192,41269,1,0,0:0:0:0:
448,192,41269,1,0,0:0:0:0:
320,192,41424,1,0,0:0:0:0:
64,192,41578,1,2,0:0:0:0:
448,192,41578,128,0,41733:0:0:0:0:
192,192,41733,1,2,0:0:0:0:
320,192,41733,1,0,0:0:0:0:
64,192,41888,1,8,0:0:0:0:
320,192,41888,1,0,0:0:0:0:
448,192,41888,1,0,0:0:0:0:
192,192,42042,128,0,42197:0:0:0:0:
64,192,42197,1,2,0:0:0:0:
448,192,42197,1,0,0:0:0:0:
192,192,42351,1,2,0:0:0:0:
320,192,42351,1,0,0:0:0:0:
64,192,42506,128,8,42661:0:0:0:0:
192,192,42506,1,0,0:0:0:0:
448,192,42506,1,0,0:0:0:0:
320,192,42661,1,0,0:0:0:0:
64,192,42815,1,2,0:0:0:0:
192,192,42815,1,0,0:0:0:0:
320,192,42970,1,0,0:0:0:0:
64,192,43125,1,8,0:0:0:0:
192,192,43125,128,0,43279:0:0:0:0:
448,192,43125,1,0,0:0:0:0:
320,192,43279,1,0,0:0:0:0:
64,192,43434,1,2,0:0:0:0:
192,192,43434,1,0,0:0:0:0:
320,192,43589,1,2,0:0:0:0:
448,192,43589,128,0,43743:0:0:0:0:
64,192,43743,1,8,0:0:0:0:
192,192,43743,1,0,0:0:0:0:
320,192,43743,1,0,0:0:0:0:
448,192,43898,1,0,0:0:0:0:
64,192,44052,128,2,44207:0:0:0:0:
320,192,44052,1,0,0:0:0:0:
192,192,44207,1,2,0:0:0:0:
448,192,44207,1,0,0:0:0:0:
64,192,44362,1,8,0:0:0:0:
320,192,44362,1,0,0:0:0:0:
448,192,44362,1,0,0:0:0:0:
192,192,44516,128,0,44671:0:0:0:0:
320,192,44671,1,2,0:0:0:0:
448,192,44671,1,0,0:0:0:0:
64,192,44748,1,2,0:0:0:0:
192,192,44826,1,2,0:0:0:0:
448,192,44826,1,0,0:0:0:0:
320,192,44903,1,2,0:0:0:0:
64,192,44980,1,8,0:0:0:0:
448,192,44980,128,0,45290:0:0:0:0:
192,192,45135,1,0,0:0:0:0:
64,192,45290,1,2,0:0:0:0:
192,192,45290,1,4,0:0:0:0:
320,192,45290,1,0,0:0:0:0:
320,192,45444,1,0,0:0:0:0:
192,192,45599,128,8,45754:0:0:0:0:
64,192,45599,1,0,0:0:0:0:
448,192,45599,1,0,0:0:0:0:
320,192,45754,1,0,0:0:0:0:
64,192,45908,1,2,0:0:0:0:
192,192,45908,1,0,0:0:0:0:
320,192,46063,128,2,46217:0:0:0:0:
448,192,46063,1,0,0:0:0:0:
64,192,46217,1,8,0:0:0:0:
192,192,46217,1,0,0:0:0:0:
448,192,46217,1,0,0:0:0:0:
320,192,46372,1,0,0:0:0:0:
64,192,46527,128,2,46681:0:0:0:0:
192,192,46527,1,0,0:0:0:0:
448,192,46681,1,2,0:0:0:0:
320,192,46681,1,0,0:0:0:0:
64,192,46836,1,8,0:0:0:0:
320,192,46836,1,0,0:0:0:0:
192,192,46836,1,0,0:0:0:0:
448,192,46991,128,0,47145:0:0:0:0:
320,192,47145,1,2,0:0:0:0:
192,192,47145,1,0,0:0:0:0:
64,192,47300,1,2,0:0:0:0:
448,192,47300,1,0,0:0:0:0:
64,192,47455,1,8,0:0:0:0:
320,192,47455,128,0,47764:0:0:0:0:
192,192,47455,1,0,0:0:0:0:
64,192,47764,128,2,48228:0:0:0:0:
192,192,47764,1,4,0:0:0:0:
448,192,47764,128,0,48846:0:0:0:0:
320,192,48228,1,2,0:0:0:0:
64,192,48382,1,8,0:0:0:0:
192,192,48382,1,0,0:0:0:0:
64,192,48537,1,8,0:0:0:0:
192,192,48537,1,0,0:0:0:0:
320,192,48692,1,2,0:0:0:0:
192,192,48846,1,8,0:0:0:0:
320,192,48846,1,0,0:0:0:0:
64,192,49001,1,8,0:0:0:0:
192,192,49001,1,4,0:0:0:0:
448,192,49001,1,0,0:0:0:0:
64,192,49156,1,8,0:0:0:0:
320,192,49156,1,4,0:0:0:0:
448,192,49156,1,0,0:0:0:0:
192,192,49310,1,2,0:0:0:0:
320,192,49310,1,0,0:0:0:0:
64,192,49465,1,8,0:0:0:0:
192,192,49465,1,4,0:0:0:0:
448,192,49465,1,0,0:0:0:0:
320,192,49465,1,0,0:0:0:0:
64,192,50238,1,2,0:0:0:0:
320,192,50238,1,4,0:0:0:0:
448,192,50238,1,0,0:0:0:0:
192,192,50238,1,0,0:0:0:0:
320,192,50393,1,2,0:0:0:0:
64,192,50547,1,8,0:0:0:0:
192,192,50547,1,0,0:0:0:0:
448,192,50547,1,0,0:0:0:0:
192,192,50702,1,2,0:0:0:0:
320,192,50857,1,2,0:0:0:0:
448,192,50857,1,0,0:0:0:0:
448,192,51011,1,2,0:0:0:0:
64,192,51166,1,8,0:0:0:0:
192,192,51166,1,0,0:0:0:0:
320,192,51166,1,0,0:0:0:0:
64,192,51321,1,2,0:0:0:0:
192,192,51475,1,2,0:0:0:0:
448,192,51475,1,0,0:0:0:0:
192,192,51630,1,2,0:0:0:0:
64,192,51784,1,8,0:0:0:0:
320,192,51784,1,0,0:0:0:0:
448,192,51784,1,0,0:0:0:0:
448,192,51939,1,2,0:0:0:0:
64,192,52094,1,2,0:0:0:0:
320,192,52094,1,0,0:0:0:0:
64,192,52248,1,2,0:0:0:0:
192,192,52403,1,8,0:0:0:0:
320,192,52403,1,0,0:0:0:0:
448,192,52403,1,0,0:0:0:0:
448,192,52558,1,2,0:0:0:0:
192,192,52712,1,2,0:0:0:0:
320,192,52712,1,0,0:0:0:0:
192,192,52867,1,2,0:0:0:0:
64,192,53022,1,8,0:0:0:0:
320,192,53022,1,0,0:0:0:0:
448,192,53022,1,0,0:0:0:0:
320,192,53176,1,2,0:0:0:0:
192,192,53331,1,2,0:0:0:0:
448,192,53331,1,0,0:0:0:0:
192,192,53485,1,2,0:0:0:0:
64,192,53640,1,8,0:0:0:0:
320,192,53640,1,0,0:0:0:0:
448,192,53640,1,0,0:0:0:0:
64,192,53795,1,2,0:0:0:0:
192,192,53949,1,2,0:0:0:0:
320,192,53949,1,0,0:0:0:0:
320,192,54104,1,2,0:0:0:0:
64,192,54259,1,8,0:0:0:0:
192,192,54259,1,0,0:0:0:0:
448,192,54259,1,0,0:0:0:0:
448,192,54413,1,2,0:0:0:0:
192,192,54568,1,2,0:0:0:0:
320,192,54568,1,0,0:0:0:0:
192,192,54723,1,2,0:0:0:0:
64,192,54877,1,8,0:0:0:0:
320,192,54877,1,0,0:0:0:0:
448,192,54877,1,0,0:0:0:0:
192,192,55032,1,2,0:0:0:0:
64,192,55186,1,2,0:0:0:0:
192,192,55186,1,4,0:0:0:0:
320,192,55186,1,0,0:0:0:0:
448,192,55186,1,0,0:0:0:0:
448,192,55341,1,2,0:0:0:0:
64,192,55496,1,8,0:0:0:0:
192,192,55496,1,0,0:0:0:0:
320,192,55496,1,0,0:0:0:0:
192,192,55650,1,2,0:0:0:0:
64,192,55805,1,2,0:0:0:0:
320,192,55805,1,0,0:0:0:0:
320,192,55960,1,2,0:0:0:0:
64,192,56114,1,8,0:0:0:0:
192,192,56114,1,0,0:0:0:0:
448,192,56114,1,0,0:0:0:0:
64,192,56269,1,2,0:0:0:0:
192,192,56424,1,2,0:0:0:0:
320,192,56424,1,0,0:0:0:0:
320,192,56578,1,2,0:0:0:0:
64,192,56733,1,8,0:0:0:0:
192,192,56733,1,0,0:0:0:0:
448,192,56733,1,0,0:0:0:0:
64,192,56888,1,2,0:0:0:0:
192,192,57042,1,2,0:0:0:0:
448,192,57042,1,0,0:0:0:0:
448,192,57197,1,2,0:0:0:0:
64,192,57351,1,8,0:0:0:0:
192,192,57351,1,0,0:0:0:0:
320,192,57351,1,0,0:0:0:0:
64,192,57506,1,2,0:0:0:0:
320,192,57661,1,2,0:0:0:0:
448,192,57661,1,0,0:0:0:0:
320,192,57815,1,2,0:0:0:0:
64,192,57970,1,8,0:0:0:0:
192,192,57970,1,0,0:0:0:0:
448,192,57970,1,0,0:0:0:0:
192,192,58125,1,2,0:0:0:0:
64,192,58279,1,2,0:0:0:0:
448,192,58279,1,0,0:0:0:0:
448,192,58434,1,2,0:0:0:0:
64,192,58589,1,8,0:0:0:0:
192,192,58589,1,0,0:0:0:0:
320,192,58589,1,0,0:0:0:0:
64,192,58743,1,2,0:0:0:0:
192,192,58898,1,2,0:0:0:0:
448,192,58898,1,0,0:0:0:0:
192,192,59052,1,2,0:0:0:0:
64,192,59207,1,8,0:0:0:0:
320,192,59207,1,0,0:0:0:0:
448,192,59207,1,0,0:0:0:0:
192,192,59362,1,2,0:0:0:0:
320,192,59362,1,0,0:0:0:0:
64,192,59439,1,2,0:0:0:0:
320,192,59516,1,2,0:0:0:0:
448,192,59516,1,0,0:0:0:0:
192,192,59594,1,2,0:0:0:0:
64,192,59671,1,2,0:0:0:0:
448,192,59671,1,0,0:0:0:0:
320,192,59748,1,2,0:0:0:0:
64,192,59826,128,8,60058:0:0:0:0:
192,192,59826,1,0,0:0:0:0:
448,192,59826,128,0,60058:0:0:0:0:
64,192,60135,1,2,0:0:0:0:
192,192,60135,1,4,0:0:0:0:
320,192,60135,1,0,0:0:0:0:
448,192,60135,1,0,0:0:0:0:
192,192,60290,1,2,0:0:0:0:
64,192,60444,1,8,0:0:0:0:
320,192,60444,1,0,0:0:0:0:
448,192,60444,1,0,0:0:0:0:
320,192,60599,1,2,0:0:0:0:
64,192,60754,1,2,0:0:0:0:
192,192,60754,1,0,0:0:0:0:
64,192,60908,1,2,0:0:0:0:
192,192,61063,1,8,0:0:0:0:
320,192,61063,1,0,0:0:0:0:
448,192,61063,1,0,0:0:0:0:
448,192,61217,1,2,0:0:0:0:
192,192,61372,1,2,0:0:0:0:
320,192,61372,1,0,0:0:0:0:
192,192,61527,1,2,0:0:0:0:
64,192,61681,1,8,0:0:0:0:
320,192,61681,1,0,0:0:0:0:
448,192,61681,1,0,0:0:0:0:
64,192,61836,1,2,0:0:0:0:
192,192,61991,1,2,0:0:0:0:
448,192,61991,1,0,0:0:0:0:
448,192,62145,1,2,0:0:0:0:
64,192,62300,1,8,0:0:0:0:
192,192,62300,1,0,0:0:0:0:
320,192,62300,1,0,0:0:0:0:
192,192,62455,1,2,0:0:0:0:
64,192,62609,1,2,0:0:0:0:
448,192,62609,1,0,0:0:0:0:
64,192,62764,1,2,0:0:0:0:
192,192,62918,1,8,0:0:0:0:
320,192,62918,1,0,0:0:0:0:
448,192,62918,1,0,0:0:0:0:
320,192,63073,1,2,0:0:0:0:
64,192,63228,1,2,0:0:0:0:
192,192,63228,1,0,0:0:0:0:
192,192,63382,1,2,0:0:0:0:
64,192,63537,1,8,0:0:0:0:
320,192,63537,1,0,0:0:0:0:
448,192,63537,1,0,0:0:0:0:
448,192,63692,1,2,0:0:0:0:
64,192,63846,1,2,0:0:0:0:
320,192,63846,1,0,0:0:0:0:
64,192,64001,1,2,0:0:0:0:
192,192,64156,1,8,0:0:0:0:
320,192,64156,1,0,0:0:0:0:
448,192,64156,1,0,0:0:0:0:
320,192,64310,1,2,0:0:0:0:
192,192,64465,1,2,0:0:0:0:
448,192,64465,1,0,0:0:0:0:
192,192,64619,1,2,0:0:0:0:
64,192,64774,1,8,0:0:0:0:
320,192,64774,1,0,0:0:0:0:
448,192,64774,1,0,0:0:0:0:
192,192,64929,1,2,0:0:0:0:
64,192,65083,1,2,0:0:0:0:
192,192,65083,1,4,0:0:0:0:
320,192,65083,1,0,0:0:0:0:
448,192,65083,1,0,0:0:0:0:
64,192,65238,1,2,0:0:0:0:
192,192,65393,1,8,0:0:0:0:
320,192,65393,1,0,0:0:0:0:
448,192,65393,1,0,0:0:0:0:
320,192,65547,1,2,0:0:0:0:
64,192,65702,1,2,0:0:0:0:
448,192,65702,1,0,0:0:0:0:
448,192,65857,1,2,0:0:0:0:
64,192,66011,1,8,0:0:0:0:
192,192,66011,1,0,0:0:0:0:
320,192,66011,1,0,0:0:0:0:
192,192,66166,1,2,0:0:0:0:
320,192,66321,1,2,0:0:0:0:
448,192,66321,1,0,0:0:0:0:
320,192,66475,1,2,0:0:0:0:
64,192,66630,1,8,0:0:0:0:
192,192,66630,1,0,0:0:0:0:
448,192,66630,1,0,0:0:0:0:
192,192,66784,1,2,0:0:0:0:
64,192,66939,1,2,0:0:0:0:
320,192,66939,1,0,0:0:0:0:
64,192,67094,1,2,0:0:0:0:
192,192,67248,1,8,0:0:0:0:
320,192,67248,1,0,0:0:0:0:
448,192,67248,1,0,0:0:0:0:
320,192,67403,1,2,0:0:0:0:
64,192,67558,1,2,0:0:0:0:
192,192,67558,1,0,0:0:0:0:
192,192,67712,1,2,0:0:0:0:
64,192,67867,1,8,0:0:0:0:
320,192,67867,1,0,0:0:0:0:
448,192,67867,1,0,0:0:0:0:
320,192,68022,1,2,0:0:0:0:
64,192,68176,1,2,0:0:0:0:
448,192,68176,1,0,0:0:0:0:
448,192,68331,1,2,0:0:0:0:
64,192,68485,1,8,0:0:0:0:
192,192,68485,1,0,0:0:0:0:
320,192,68485,1,0,0:0:0:0:
64,192,68640,1,2,0:0:0:0:
192,192,68795,1,2,0:0:0:0:
448,192,68795,1,0,0:0:0:0:
320,192,68872,1,2,0:0:0:0:
64,192,68949,1,8,0:0:0:0:
192,192,68949,1,0,0:0:0:0:
320,192,69027,1,8,0:0:0:0:
64,192,69104,1,8,0:0:0:0:
448,192,69104,1,0,0:0:0:0:
192,192,69181,1,8,0:0:0:0:
320,192,69259,1,2,0:0:0:0:
448,192,69259,1,0,0:0:0:0:
192,192,69336,1,2,0:0:0:0:
64,192,69413,1,2,0:0:0:0:
320,192,69413,1,0,0:0:0:0:
448,192,69491,1,2,0:0:0:0:
64,192,69568,1,2,0:0:0:0:
192,192,69568,1,0,0:0:0:0:
320,192,69645,1,2,0:0:0:0:
64,192,69723,128,8,69955:0:0:0:0:
192,192,69723,1,4,0:0:0:0:
448,192,69723,128,0,69955:0:0:0:0:
64,192,70032,1,2,0:0:0:0:
192,192,70032,1,4,0:0:0:0:
320,192,70032,1,0,0:0:0:0:
448,192,70032,1,0,0:0:0:0:
320,192,70186,1,2,0:0:0:0:
64,192,70341,1,8,0:0:0:0:
192,192,70341,1,0,0:0:0:0:
448,192,70341,1,0,0:0:0:0:
192,192,70496,1,2,0:0:0:0:
64,192,70650,1,2,0:0:0:0:
320,192,70650,1,0,0:0:0:0:
320,192,70805,1,2,0:0:0:0:
64,192,70960,1,8,0:0:0:0:
192,192,70960,1,0,0:0:0:0:
448,192,70960,1,0,0:0:0:0:
320,192,71114,1,2,0:0:0:0:
64,192,71269,1,4,0:0:0:0:
192,192,71269,1,2,0:0:0:0:
320,192,71269,1,0,0:0:0:0:
448,192,71269,1,0,0:0:0:0:
192,192,71424,1,2,0:0:0:0:
64,192,71578,1,8,0:0:0:0:
320,192,71578,1,0,0:0:0:0:
448,192,71578,1,0,0:0:0:0:
64,192,71733,1,2,0:0:0:0:
192,192,71888,1,2,0:0:0:0:
320,192,71888,1,0,0:0:0:0:
192,192,72042,1,2,0:0:0:0:
64,192,72197,1,8,0:0:0:0:
320,192,72197,1,0,0:0:0:0:
448,192,72197,1,0,0:0:0:0:
192,192,72351,1,2,0:0:0:0:
64,192,72506,1,4,0:0:0:0:
192,192,72506,1,2,0:0:0:0:
320,192,72506,1,0,0:0:0:0:
448,192,72506,1,0,0:0:0:0:
320,192,72661,1,2,0:0:0:0:
64,192,72815,1,8,0:0:0:0:
192,192,72815,1,0,0:0:0:0:
448,192,72815,1,0,0:0:0:0:
64,192,72970,1,2,0:0:0:0:
192,192,73125,1,2,0:0:0:0:
448,192,73125,1,0,0:0:0:0:
192,192,73279,1,2,0:0:0:0:
64,192,73434,1,8,0:0:0:0:
320,192,73434,1,0,0:0:0:0:
448,192,73434,1,0,0:0:0:0:
448,192,73589,1,2,0:0:0:0:
64,192,73743,1,2,0:0:0:0:
320,192,73743,1,0,0:0:0:0:
64,192,73898,1,2,0:0:0:0:
192,192,74052,1,8,0:0:0:0:
320,192,74052,1,0,0:0:0:0:
448,192,74052,1,0,0:0:0:0:
448,192,74207,1,2,0:0:0:0:
64,192,74362,1,2,0:0:0:0:
320,192,74362,1,0,0:0:0:0:
192,192,74439,1,2,0:0:0:0:
320,192,74516,1,2,0:0:0:0:
448,192,74516,1,0,0:0:0:0:
64,192,74594,1,2,0:0:0:0:
192,192,74671,1,2,0:0:0:0:
448,192,74671,1,0,0:0:0:0:
320,192,74748,1,2,0:0:0:0:
64,192,74826,1,2,0:0:0:0:
192,192,74826,1,0,0:0:0:0:
320,192,74903,1,2,0:0:0:0:
64,192,74980,128,2,76140:0:0:0:0:
192,192,74980,128,4,76140:0:0:0:0:
448,192,74980,1,0,0:0:0:0:
320,192,76217,128,2,76836:0:0:0:0:
448,192,76217,128,4,76836:0:0:0:0:
64,192,76217,1,0,0:0:0:0:
192,192,76217,1,0,0:0:0:0:
64,192,76836,1,8,0:0:0:0:
192,192,76836,1,0,0:0:0:0:
64,192,76991,1,8,0:0:0:0:
192,192,76991,1,0,0:0:0:0:
320,192,77145,1,8,0:0:0:0:
448,192,77145,1,0,0:0:0:0:
64,192,77223,1,8,0:0:0:0:
192,192,77223,1,0,0:0:0:0:
320,192,77300,1,8,0:0:0:0:
448,192,77300,1,0,0:0:0:0:
192,192,77377,1,8,0:0:0:0:
64,192,77455,1,2,0:0:0:0:
320,192,77455,1,4,0:0:0:0:
448,192,77455,1,0,0:0:0:0:
64,192,77764,1,8,0:0:0:0:
320,192,77764,1,0,0:0:0:0:
448,192,77764,1,0,0:0:0:0:
192,192,77918,1,2,0:0:0:0:
64,192,78073,1,8,0:0:0:0:
192,192,78073,1,0,0:0:0:0:
448,192,78073,1,0,0:0:0:0:
320,192,78228,1,2,0:0:0:0:
192,192,78382,1,8,0:0:0:0:
320,192,78382,1,0,0:0:0:0:
448,192,78382,1,0,0:0:0:0:
64,192,78537,1,2,0:0:0:0:
64,192,78692,1,8,0:0:0:0:
192,192,78692,1,0,0:0:0:0:
320,192,78692,1,0,0:0:0:0:
448,192,78846,1,2,0:0:0:0:
320,192,78924,1,2,0:0:0:0:
64,192,79001,1,8,0:0:0:0:
192,192,79001,1,0,0:0:0:0:
448,192,79001,1,0,0:0:0:0:
320,192,79156,1,2,0:0:0:0:
192,192,79310,1,8,0:0:0:0:
320,192,79310,1,0,0:0:0:0:
448,192,79310,1,0,0:0:0:0:
64,192,79388,1,2,0:0:0:0:
192,192,79465,1,2,0:0:0:0:
320,192,79542,1,2,0:0:0:0:
64,192,79619,1,8,0:0:0:0:
192,192,79619,1,0,0:0:0:0:
448,192,79619,1,0,0:0:0:0:
320,192,79774,1,2,0:0:0:0:
64,192,79929,1,8,0:0:0:0:
192,192,79929,1,0,0:0:0:0:
320,192,79929,1,0,0:0:0:0:
448,192,80083,1,2,0:0:0:0:
320,192,80161,1,2,0:0:0:0:
64,192,80238,1,8,0:0:0:0:
192,192,80238,1,0,0:0:0:0:
448,192,80238,1,0,0:0:0:0:
320,192,80393,1,2,0:0:0:0:
64,192,80547,1,8,0:0:0:0:
192,192,80547,1,0,0:0:0:0:
320,192,80547,1,0,0:0:0:0:
448,192,80702,1,2,0:0:0:0:
64,192,80857,1,8,0:0:0:0:
320,192,80857,1,0,0:0:0:0:
448,192,80857,1,0,0:0:0:0:
192,192,81011,1,2,0:0:0:0:
192,192,81166,1,8,0:0:0:0:
320,192,81166,1,0,0:0:0:0:
448,192,81166,1,0,0:0:0:0:
64,192,81321,1,2,0:0:0:0:
64,192,81475,1,8,0:0:0:0:
192,192,81475,1,0,0:0:0:0:
448,192,81475,1,0,0:0:0:0:
320,192,81630,1,2,0:0:0:0:
64,192,81784,1,8,0:0:0:0:
320,192,81784,1,0,0:0:0:0:
448,192,81784,1,0,0:0:0:0:
192,192,81862,1,2,0:0:0:0:
64,192,81939,1,2,0:0:0:0:
320,192,82016,1,2,0:0:0:0:
64,192,82094,1,8,0:0:0:0:
192,192,82094,1,0,0:0:0:0:
448,192,82094,1,0,0:0:0:0:
320,192,82248,1,2,0:0:0:0:
64,192,82403,1,4,0:0:0:0:
192,192,82403,1,8,0:0:0:0:
320,192,82403,1,0,0:0:0:0:
448,192,82403,1,0,0:0:0:0:
64,192,82712,1,8,0:0:0:0:
192,192,82712,1,0,0:0:0:0:
448,192,82712,1,0,0:0:0:0:
320,192,82867,1,2,0:0:0:0:
64,192,83022,1,8,0:0:0:0:
320,192,83022,1,0,0:0:0:0:
448,192,83022,1,0,0:0:0:0:
192,192,83176,1,2,0:0:0:0:
64,192,83331,1,8,0:0:0:0:
192,192,83331,1,0,0:0:0:0:
320,192,83331,1,0,0:0:0:0:
448,192,83485,1,2,0:0:0:0:
192,192,83640,1,8,0:0:0:0:
320,192,83640,1,0,0:0:0:0:
448,192,83640,1,0,0:0:0:0:
64,192,83795,1,2,0:0:0:0:
192,192,83872,1,2,0:0:0:0:
64,192,83949,1,8,0:0:0:0:
320,192,83949,1,0,0:0:0:0:
448,192,83949,1,0,0:0:0:0:
192,192,84104,1,2,0:0:0:0:
64,192,84259,1,8,0:0:0:0:
192,192,84259,1,0,0:0:0:0:
448,192,84259,1,0,0:0:0:0:
320,192,84413,1,2,0:0:0:0:
64,192,84568,1,8,0:0:0:0:
192,192,84568,1,0,0:0:0:0:
320,192,84568,1,0,0:0:0:0:
448,192,84723,1,2,0:0:0:0:
64,192,84877,1,8,0:0:0:0:
192,192,84877,1,0,0:0:0:0:
448,192,84877,1,0,0:0:0:0:
320,192,85032,1,2,0:0:0:0:
192,192,85109,1,2,0:0:0:0:
64,192,85186,1,8,0:0:0:0:
320,192,85186,1,0,0:0:0:0:
448,192,85186,1,0,0:0:0:0:
192,192,85341,1,2,0:0:0:0:
64,192,85418,1,2,0:0:0:0:
448,192,85496,1,2,0:0:0:0:
320,192,85573,1,2,0:0:0:0:
64,192,85650,1,8,0:0:0:0:
192,192,85650,1,0,0:0:0:0:
320,192,85728,1,8,0:0:0:0:
448,192,85728,1,0,0:0:0:0:
192,192,85805,1,2,0:0:0:0:
64,192,85882,1,2,0:0:0:0:
320,192,85960,1,2,0:0:0:0:
192,192,86037,1,2,0:0:0:0:
64,192,86114,1,8,0:0:0:0:
320,192,86114,1,4,0:0:0:0:
448,192,86114,1,0,0:0:0:0:
64,192,86269,1,8,0:0:0:0:
192,192,86269,1,4,0:0:0:0:
448,192,86269,1,0,0:0:0:0:
64,192,86578,128,8,87351:0:0:0:0:
192,192,86578,1,4,0:0:0:0:
320,192,86578,1,0,0:0:0:0:
448,192,86578,128,0,87351:0:0:0:0:
