osu file format v14

[General]
AudioFilename: audio.mp3
AudioLeadIn: 0
PreviewTime: 61406
Countdown: 0
SampleSet: Soft
StackLeniency: 0.4
Mode: 0
LetterboxInBreaks: 0
WidescreenStoryboard: 1

[Editor]
DistanceSpacing: 1
BeatDivisor: 4
GridSize: 4
TimelineZoom: 1

[Metadata]
Title:Precious (Short Ver.)
TitleUnicode:Precious (Short Ver.)
Artist:Duca
ArtistUnicode:Duca
Creator:Riana
Version:Normal
Source:俺の姿が、透明に!? 不可視の薬と数奇な運命
Tags:ore no sugata ga toumei ni fukashi kusuri invisible to suuki na unmei 俺不可視 orefukashi orefuka japanese video game eroge visual novel vn galge galgame ending ed
BeatmapID:2388266
BeatmapSetID:1136769

[Difficulty]
HPDrainRate:4
CircleSize:3
OverallDifficulty:4
ApproachRate:5
SliderMultiplier:1.2
SliderTickRate:1

[Events]
//Background and Video events
0,0,"bg.jpg",0,0
//Break Periods
//Storyboard Layer 0 (Background)
//Storyboard Layer 1 (Fail)
//Storyboard Layer 2 (Pass)
//Storyboard Layer 3 (Foreground)
//Storyboard Layer 4 (Overlay)
//Storyboard Sound Samples

[TimingPoints]
386,377.358490566038,4,2,90,40,1,0
1329,-111.111111111111,4,2,1,40,0,0
5480,-105.263157894737,4,2,1,50,0,0
6235,-105.263157894737,4,2,1,40,0,0
8687,-100,4,2,1,60,0,0
21518,-111.111111111111,4,2,1,40,0,0
45669,-105.263157894737,4,2,1,55,0,0
53027,-105.263157894737,4,2,1,55,0,0
54725,-100,4,2,1,60,0,0
56235,-95.2380952380952,4,2,1,60,0,0
60574,-111.111111111111,4,2,1,60,0,0
62084,-90.9090909090909,4,2,1,70,0,1
87744,-111.111111111111,4,2,1,50,0,0
88687,-100,4,2,1,60,0,0
103027,-100,4,2,1,5,0,0

[Colours]
Combo1 : 244,234,255
Combo2 : 255,255,170
Combo3 : 166,255,255

[HitObjects]
53,276,1329,6,0,L|177:288,1,107.999996704102,2|0,2:2|2:0,0:0:0:0:
201,321,1895,6,0,P|208:269|310:205,1,161.999995056152,2|2,2:2|2:2,0:0:0:0:
390,245,2838,1,2,2:2:0:0:
390,245,3216,2,0,L|368:66,1,161.999995056152,0|0,2:0|2:0,0:0:0:0:
329,48,3970,1,2,2:2:0:0:
247,119,4348,2,0,P|158:135|99:93,1,161.999995056152,2|2,2:2|2:2,0:0:0:0:
17,246,5480,5,2,2:2:0:0:
92,331,5857,1,0,2:0:0:0:
186,266,6235,2,0,P|263:253|310:279,1,113.999996955872,2|0,2:2|2:0,0:0:0:0:
331,309,6801,1,2,2:2:0:0:
418,93,7933,6,0,L|285:71,1,113.999996955872,0|8,3:0|2:2,0:0:0:0:
188,98,8687,2,0,L|170:15,2,60,2|2|2,3:2|3:2|3:2,0:0:0:0:
153,147,9253,6,0,P|88:138|28:184,1,120,6|0,3:2|2:0,0:0:0:0:
25,222,9819,1,10,2:2:0:0:
25,222,10008,1,2,2:2:0:0:
110,306,10386,2,0,L|119:380,2,60,2|10|2,3:2|2:2|3:2,0:0:0:0:
211,242,11140,2,0,P|252:243|326:311,1,120,0|0,3:0|2:0,0:0:0:0:
361,324,11706,2,0,L|382:187,1,120,2|10,3:2|2:2,0:0:0:0:
412,158,12272,1,2,2:2:0:0:
412,158,12461,5,0,3:0:0:0:
368,46,12838,1,10,2:2:0:0:
313,20,13027,2,0,L|179:38,2,120,2|2|2,3:2|3:2|3:2,0:0:0:0:
252,123,14159,1,2,3:2:0:0:
252,123,14348,2,0,P|243:164|252:200,1,60,10|2,2:2|3:2,0:0:0:0:
287,223,14725,2,0,L|151:247,1,120,2|10,3:2|2:2,0:0:0:0:
71,314,15480,5,4,3:2:0:0:
20,211,15857,2,0,L|33:142,1,60,10|2,2:2|2:2,0:0:0:0:
80,116,16235,2,0,L|71:46,2,60,0|2|10,3:0|3:2|2:2,0:0:0:0:
137,133,16801,1,6,3:2:0:0:
216,43,17178,1,2,3:2:0:0:
333,67,17555,1,6,3:2:0:0:
377,182,17933,1,2,3:2:0:0:
377,182,18121,2,0,L|389:258,1,60,8|0,2:2|3:0,0:0:0:0:
437,273,18499,6,0,P|380:276|323:332,1,120,6|10,3:2|2:2,0:0:0:0:
320,373,19065,1,2,3:2:0:0:
204,340,19442,1,2,3:2:0:0:
184,221,19819,2,0,P|209:135|248:103,1,120,2|0,3:2|3:2,0:0:0:0:
252,62,20386,1,8,2:2:0:0:
252,62,20574,2,0,P|338:40|386:58,1,120,2|0,3:2|3:0,0:0:0:0:
420,75,21140,2,0,L|433:4,2,60,0|8|14,3:0|2:2|2:2,0:0:0:0:
356,162,21895,5,10,2:2:0:0:
356,162,22084,2,0,L|343:325,1,161.999995056153,2|8,2:2|2:2,0:0:0:0:
237,300,23027,1,10,2:2:0:0:
146,355,23404,1,10,2:2:0:0:
146,355,23593,2,0,L|113:188,1,161.999995056153,2|8,2:2|2:2,0:0:0:0:
59,103,24536,6,0,P|103:137|204:109,1,161.999995056153,10|2,2:2|2:2,0:0:0:0:
257,21,25480,1,0,2:0:0:0:
302,50,25669,2,0,L|417:31,2,107.999996704102,10|8|8,2:2|2:2|2:2,0:0:0:0:
302,158,26801,1,10,2:2:0:0:
381,231,27178,1,10,2:2:0:0:
338,330,27555,6,0,L|167:310,1,161.999995056153,10|2,2:2|2:2,0:0:0:0:
123,217,28499,1,2,2:2:0:0:
181,126,28876,1,2,3:2:0:0:
136,33,29253,1,2,3:2:0:0:
136,33,29442,2,0,P|210:27|285:135,1,215.999993408203,10|10,2:2|2:0,0:0:0:0:
229,225,30574,5,10,2:2:0:0:
287,315,30952,2,0,P|345:289|406:296,1,107.999996704102,10|10,2:2|2:2,0:0:0:0:
475,353,31706,1,8,2:2:0:0:
502,306,31895,2,0,L|465:135,1,161.999995056153,0|10,2:0|2:2,0:0:0:0:
420,121,32650,1,2,3:2:0:0:
317,156,33027,2,0,L|304:231,1,53.9999983520508,2|10,2:2|2:2,0:0:0:0:
291,316,33593,5,12,2:2:0:0:
210,244,33970,2,0,P|153:244|104:283,1,107.999996704102,10|10,2:2|2:2,0:0:0:0:
37,349,34725,1,10,2:2:0:0:
37,349,34914,2,0,L|18:185,1,161.999995056152,2|10,2:2|2:2,0:0:0:0:
54,147,35669,1,2,2:2:0:0:
234,27,36423,5,2,3:2:0:0:
234,27,36612,2,0,P|287:54|301:165,1,161.999995056152,10|2,2:2|2:2,0:0:0:0:
369,237,37555,1,2,2:2:0:0:
315,331,37933,2,0,L|131:355,1,161.999995056152,2|10,3:2|2:2,0:0:0:0:
106,255,38876,1,10,2:2:0:0:
164,164,39253,1,10,2:2:0:0:
273,168,39631,6,0,P|270:76|292:49,2,107.999996704102,10|10|8,2:2|2:2|2:2,0:0:0:0:
371,213,40763,1,10,2:2:0:0:
417,185,40952,2,0,L|441:61,1,107.999996704102,2|2,3:2|3:2,0:0:0:0:
449,26,41518,1,10,2:2:0:0:
233,20,42272,1,10,2:0:0:0:
143,80,42650,5,8,2:2:0:0:
169,126,42838,2,0,L|152:244,1,107.999996704102,2|2,2:2|3:2,0:0:0:0:
216,321,43593,1,2,3:2:0:0:
323,310,43970,1,6,3:2:0:0:
364,210,44348,1,2,3:2:0:0:
364,210,44536,1,10,2:2:0:0:
300,122,44914,1,2,3:2:0:0:
193,141,45291,2,0,L|123:136,1,53.9999983520508,10|10,2:2|2:2,0:0:0:0:
88,110,45669,6,0,L|103:233,1,113.999996955872,6|2,3:2|2:2,0:0:0:0:
8,296,46423,2,0,P|49:296|119:360,1,113.999996955872,10|2,2:2|3:2,0:0:0:0:
120,384,46989,1,10,2:2:0:0:
213,317,47367,1,10,2:2:0:0:
262,288,47555,2,0,L|391:301,1,113.999996955872,2|10,3:2|2:0,0:0:0:0:
469,235,48310,1,2,3:2:0:0:
469,235,48499,6,0,P|410:158|420:74,1,170.999995433807,2|2,2:2|2:2,0:0:0:0:
448,42,49253,1,2,3:2:0:0:
338,8,49631,2,0,L|259:-2,2,56.9999984779358,2|2|10,2:2|3:2|2:2,0:0:0:0:
262,93,50386,1,8,2:2:0:0:
185,177,50763,2,0,P|127:115|77:113,1,113.999996955872,2|10,2:2|2:2,0:0:0:0:
49,126,51329,1,2,3:2:0:0:
49,126,51518,2,0,L|41:52,1,56.9999984779358,2|4,2:2|3:2,0:0:0:0:
201,15,52272,6,0,P|234:22|285:102,1,113.999996955872,2|2,3:2|2:2,0:0:0:0:
263,137,52838,1,2,3:2:0:0:
263,137,53027,2,0,L|278:254,1,113.999996955872,10|8,2:2|2:2,0:0:0:0:
243,363,53782,1,2,2:2:0:0:
243,363,53970,2,0,P|203:314|131:307,1,113.999996955872,10|10,2:0|2:2,0:0:0:0:
103,319,54536,5,2,3:2:0:0:
103,319,54725,2,0,L|92:185,1,120,4|10,3:2|2:2,0:0:0:0:
128,151,55291,1,2,2:2:0:0:
223,223,55669,1,2,3:2:0:0:
277,116,56046,2,0,P|365:84|388:47,1,120,2|0,2:2|2:0,0:0:0:0:
397,9,56612,1,10,2:2:0:0:
397,9,56801,1,2,2:2:0:0:
474,108,57178,2,0,L|493:36,2,62.9999980773926,2|10|2,3:2|2:2|2:2,0:0:0:0:
497,166,57744,6,0,P|451:159|368:220,1,125.999996154785,4|10,3:2|2:2,0:0:0:0:
363,254,58310,1,2,2:2:0:0:
287,354,58687,2,0,L|137:328,1,125.999996154785,2|14,3:2|2:2,0:0:0:0:
81,245,59442,1,2,3:2:0:0:
81,245,59631,2,0,L|74:159,1,62.9999980773926,2|0,3:2|2:0,0:0:0:0:
113,131,60008,1,2,3:2:0:0:
228,183,60386,5,2,3:2:0:0:
282,176,60574,2,0,P|334:109|297:29,1,161.999995056152,14|0,2:2|2:0,0:0:0:0:
419,51,61518,2,0,L|439:-13,2,53.9999983520508,2|8|2,3:2|2:2|3:2,0:0:0:0:
455,106,62084,6,0,P|477:160|433:235,1,132.00000402832,6|0,3:2|3:0,0:0:0:0:
396,264,62650,1,10,2:2:0:0:
396,264,62838,2,0,P|374:318|418:393,1,132.00000402832,2|2,2:2|3:2,0:0:0:0:
278,336,63593,2,0,P|191:307|139:335,1,132.00000402832,2|0,3:2|3:0,0:0:0:0:
109,366,64159,1,10,0:2:0:0:
109,366,64348,2,0,L|96:215,1,132.00000402832,2|2,2:2|3:2,0:0:0:0:
133,178,64914,1,10,2:2:0:0:
264,179,65291,6,0,P|295:111|254:45,1,132.00000402832,2|10,3:2|2:2,0:0:0:0:
213,36,65857,1,2,0:2:0:0:
408,2,66423,1,10,2:2:0:0:
446,55,66612,2,0,L|419:213,1,132.00000402832,2|0,3:2|3:0,0:0:0:0:
382,236,67178,1,10,2:2:0:0:
382,236,67367,1,2,3:2:0:0:
275,311,67744,1,2,3:2:0:0:
275,311,67933,2,0,P|223:279|191:277,1,66.0000020141602,10|2,2:2|2:2,0:0:0:0:
157,302,68310,6,0,L|147:148,1,132.00000402832,6|10,3:2|2:2,0:0:0:0:
136,105,68876,1,2,2:0:0:0:
309,7,69442,1,10,2:2:0:0:
374,17,69631,2,0,P|411:94|386:139,1,132.00000402832,2|0,3:2|3:0,0:0:0:0:
348,176,70197,1,10,2:2:0:0:
348,176,70386,1,2,3:2:0:0:
432,277,70763,1,2,3:2:0:0:
301,297,71140,5,2,0:0:0:0:
255,343,71329,2,0,L|113:317,1,132.00000402832,6|8,3:2|2:2,0:0:0:0:
63,329,71895,1,2,3:2:0:0:
63,329,72084,2,0,P|91:212|73:190,1,132.00000402832,2|10,3:2|2:2,0:0:0:0:
54,157,72650,1,6,3:2:0:0:
203,27,73216,1,8,2:2:0:0:
308,105,73593,2,0,L|325:21,2,66.0000020141602,2|2|10,3:2|3:2|2:2,0:0:0:0:
281,165,74159,6,0,P|231:196|150:165,1,132.00000402832,2|0,2:2|2:0,0:0:0:0:
118,139,74725,1,10,2:2:0:0:
118,139,74913,2,0,P|61:126|-5:183,1,132.00000402832,2|2,2:2|3:2,0:0:0:0:
35,295,75668,2,0,P|121:265|173:293,1,132.00000402832,2|0,3:2|3:0,0:0:0:0:
205,330,76234,1,10,2:2:0:0:
205,330,76423,2,0,L|354:303,1,132.00000402832,2|2,2:2|3:2,0:0:0:0:
395,331,76989,1,10,2:2:0:0:
423,201,77367,6,0,P|459:135|424:66,1,132.00000402832,2|10,3:2|2:2,0:0:0:0:
384,54,77932,1,2,3:2:0:0:
190,75,78498,1,10,2:2:0:0:
190,75,78687,2,0,L|163:233,1,132.00000402832,2|0,3:2|3:0,0:0:0:0:
214,259,79253,1,10,2:2:0:0:
214,259,79442,1,2,3:2:0:0:
334,322,79819,5,2,3:2:0:0:
334,322,80008,2,0,L|424:306,1,66.0000020141602,10|2,2:2|2:2,0:0:0:0:
454,346,80386,1,4,3:2:0:0:
510,231,80763,1,10,2:2:0:0:
510,231,80952,2,0,P|509:151|463:120,1,132.00000402832,2|2,2:2|3:2,0:0:0:0:
410,119,81518,1,8,2:2:0:0:
410,119,81706,1,2,3:2:0:0:
295,53,82084,5,2,3:2:0:0:
295,53,82272,2,0,P|219:45|156:93,1,132.00000402832,10|0,2:0|3:0,0:0:0:0:
138,128,82838,2,0,L|122:223,1,66.0000020141602,2|10,3:2|2:2,0:0:0:0:
84,244,83216,1,2,2:2:0:0:
84,244,83404,1,2,3:2:0:0:
181,347,83782,1,8,2:2:0:0:
181,347,83970,2,0,L|327:337,1,132.00000402832,2|2,2:2|3:2,0:0:0:0:
381,359,84536,5,8,2:2:0:0:
381,359,84725,2,0,P|340:274|363:223,1,132.00000402832,2|2,3:2|3:2,0:0:0:0:
405,126,85480,2,0,L|243:110,1,132.00000402832,2|2,2:2|3:2,0:0:0:0:
226,66,86046,1,10,2:2:0:0:
106,116,86423,6,0,L|94:181,1,66.0000020141602,6|0,3:2|3:0,0:0:0:0:
49,229,86800,1,10,2:2:0:0:
49,229,86989,2,0,L|60:294,1,66.0000020141602,6|0,3:2|3:0,0:0:0:0:
40,357,87367,2,0,P|82:316|179:320,1,132.00000402832,2|6,3:2|3:2,0:0:0:0:
324,98,88687,2,0,L|342:15,2,60,2|2|2,3:2|3:2|3:2,0:0:0:0:
359,147,89253,6,0,P|423:138|483:184,1,120,6|0,3:2|2:0,0:0:0:0:
494,225,89819,1,10,2:2:0:0:
494,225,90008,1,2,2:2:0:0:
402,306,90386,2,0,L|393:380,2,60,2|10|2,3:2|2:2|3:2,0:0:0:0:
301,242,91140,2,0,P|260:243|186:311,1,120,0|0,3:0|2:0,0:0:0:0:
151,324,91706,2,0,L|130:187,1,120,2|10,3:2|2:2,0:0:0:0:
176,164,92272,1,2,2:2:0:0:
176,164,92461,5,2,3:2:0:0:
292,137,92838,1,10,2:2:0:0:
344,167,93027,2,0,L|476:147,2,120,2|2|2,3:2|3:2|3:2,0:0:0:0:
269,260,94159,1,2,3:2:0:0:
269,260,94348,2,0,P|228:269|192:260,1,60,10|2,2:2|3:2,0:0:0:0:
169,225,94725,2,0,L|145:361,1,120,2|10,3:2|2:2,0:0:0:0:
42,286,95480,6,0,L|30:206,1,60,4|0,3:2|2:0,0:0:0:0:
0,183,95857,1,10,2:2:0:0:
0,183,96046,2,0,L|12:103,1,60,2|8,2:2|0:0,0:0:0:0:
42,80,96423,2,0,P|92:97|163:63,1,120,2|6,3:2|3:2,0:0:0:0:
249,3,97178,1,2,3:2:0:0:
362,41,97555,1,6,3:2:0:0:
386,158,97933,1,2,3:2:0:0:
386,158,98121,2,0,L|398:234,1,60,8|2,2:2|2:2,0:0:0:0:
447,247,98499,6,0,P|390:250|333:306,1,120,6|10,3:2|2:2,0:0:0:0:
321,344,99065,1,2,3:2:0:0:
203,368,99442,1,2,3:2:0:0:
124,277,99819,2,0,P|132:224|146:201,1,60,6|0,3:2|0:0,0:0:0:0:
190,194,100197,1,10,2:2:0:0:
190,194,100386,2,0,P|239:174|266:175,1,60,10|0,2:2|3:0,0:0:0:0:
300,199,100763,2,0,L|283:59,1,120,10|0,2:2|3:0,0:0:0:0:
321,31,101329,1,6,3:2:0:0:
256,192,101518,12,0,103027,2:0:0:0:
