osu file format v14

[General]
AudioFilename: audio.mp3
AudioLeadIn: 0
PreviewTime: 51907
Countdown: 0
SampleSet: Soft
StackLeniency: 0.5
Mode: 0
LetterboxInBreaks: 0
WidescreenStoryboard: 1

[Editor]
DistanceSpacing: 1.1
BeatDivisor: 4
GridSize: 16
TimelineZoom: 2.6

[Metadata]
Title:Passion
TitleUnicode:Passion
Artist:Duca
ArtistUnicode:Duca
Creator:Dored
Version:gary00737's Hard.
Source:コドモノアソビ
Tags:Kodomo no Asobi Galgame Eroge Opening Short Version Lump of Sugar Ametrin gary00737 [Kamiya] Yugu Suzuki_1112 Fushimi Rio imoutosan
BeatmapID:1552454
BeatmapSetID:720081

[Difficulty]
HPDrainRate:5
CircleSize:3
OverallDifficulty:6
ApproachRate:8
SliderMultiplier:1.45
SliderTickRate:1

[Events]
//Background and Video events
0,0,"Hard.jpg",0,0
//Break Periods
//Storyboard Layer 0 (Background)
//Storyboard Layer 1 (Fail)
//Storyboard Layer 2 (Pass)
//Storyboard Layer 3 (Foreground)
//Storyboard Sound Samples

[TimingPoints]
664,324.324324324324,4,2,2,45,1,0
5853,-100,4,2,2,55,0,0
10718,-111.111111111111,4,2,1,65,0,0
11042,-100,4,2,1,60,0,0
31799,-125,4,2,1,65,0,0
51096,-125,4,2,1,75,0,0
51420,-100,4,2,1,75,0,0
52150,-100,4,2,1,5,0,0
52231,-83.3333333333333,4,2,1,75,0,0
52474,-83.3333333333333,4,2,1,5,0,0
52555,-83.3333333333333,4,2,1,75,0,1
57663,-83.3333333333333,4,2,1,5,0,1
57745,-83.3333333333333,4,2,1,75,0,1
65447,-83.3333333333333,4,2,1,5,0,1
65528,-83.3333333333333,4,2,1,75,0,1
66826,-83.3333333333333,4,2,1,70,0,0
67718,-83.3333333333333,4,2,1,5,0,0
67799,-83.3333333333333,4,2,1,70,0,0
68042,-83.3333333333333,4,2,1,5,0,0
68123,-83.3333333333333,4,2,1,75,0,1
73231,-83.3333333333333,4,2,1,5,0,1
73312,-83.3333333333333,4,2,1,75,0,1
81015,-83.3333333333333,4,2,1,5,0,1
81096,-83.3333333333333,4,2,1,75,0,1
82474,-83.3333333333333,4,2,1,5,0,1
82555,-83.3333333333333,4,2,1,75,0,1
82799,-83.3333333333333,4,2,1,5,0,1
82880,-83.3333333333333,4,2,1,75,0,1
83691,-100,4,2,1,65,0,0
86528,-100,4,2,1,5,0,0
86609,-100,4,2,1,65,0,0
86853,-100,4,2,1,5,0,0
86934,-100,4,2,1,65,0,0
91393,-100,4,2,1,5,0,0
91474,-100,4,2,1,65,0,0
91718,-100,4,2,1,5,0,0
91799,-100,4,2,1,65,0,0
92042,-100,4,2,1,5,0,0
92123,-100,4,2,1,65,0,0
94069,-100,4,2,2,70,0,0
95204,-125,4,2,2,70,0,0

[Colours]
Combo1 : 128,128,255
Combo2 : 255,255,128
Combo3 : 255,128,255
Combo4 : 192,192,192

[HitObjects]
361,110,5853,6,0,P|355:73|347:30,2,72.5,2|2|2,0:0|0:0|0:0,0:0:0:0:
433,169,6339,2,0,P|476:219|470:304,1,145,2|2,0:0|0:0,0:0:0:0:
401,355,6826,2,0,P|344:349|314:347,1,72.5,2|2,0:0|0:0,0:0:0:0:
221,193,7312,1,2,0:0:0:0:
399,253,7636,2,0,P|479:242|520:180,2,145,2|2|0,0:0|0:0|0:0,0:0:0:0:
326,193,8447,6,0,P|331:156|340:113,2,72.5,2|2|2,0:0|0:0|0:0,0:0:0:0:
269,268,8934,2,0,P|182:256|96:246,1,145,2|2,0:0|0:0,0:0:0:0:
98,351,9420,2,0,P|133:346|169:341,1,72.5,2|2,0:0|0:0,0:0:0:0:
225,160,9907,1,2,0:0:0:0:
98,21,10231,2,0,P|168:42|235:69,1,145,2|2,0:0|0:0,0:0:0:0:
314,122,10718,6,0,P|369:124|416:91,1,97.8749970130921,8|2,0:0|0:0,0:0:0:0:
438,60,11042,6,0,P|426:163|420:233,1,145,4|8,0:0|0:0,0:0:0:0:
419,298,11528,2,0,P|349:326|269:287,1,145,0|2,0:0|0:0,0:0:0:0:
232,225,12015,1,8,0:0:0:0:
232,225,12177,2,0,P|164:203|99:231,2,145,2|0|0,0:0|0:0|0:0,0:0:0:0:
286,304,12988,2,0,P|274:357|268:386,2,72.5,0|2|8,0:0|0:0|0:0,0:0:0:0:
375,138,13636,6,0,P|367:102|359:67,2,72.5,2|0|8,0:0|0:0|0:0,0:0:0:0:
444,202,14123,2,0,P|478:269|435:351,1,145,0|2,0:0|0:0,0:0:0:0:
373,375,14609,1,8,0:0:0:0:
373,375,14772,2,0,P|280:368|220:364,2,145,2|2|0,0:0|0:0|0:0,0:0:0:0:
456,331,15582,2,0,L|446:249,1,72.5,0|2,0:0|0:0,0:0:0:0:
434,165,15907,1,8,0:0:0:0:
276,61,16231,6,0,P|223:101|145:85,1,145,4|8,0:0|0:0,0:0:0:0:
78,25,16718,2,0,B|51:68|51:68|66:191,1,145,0|2,0:0|0:0,0:0:0:0:
77,254,17204,1,8,0:0:0:0:
146,317,17366,2,0,B|189:344|189:344|312:329,2,145,2|0|0,0:0|0:0|0:0,0:0:0:0:
77,254,18177,2,0,L|67:172,1,72.5,0|2,0:0|0:0,0:0:0:0:
52,89,18501,1,8,0:0:0:0:
217,180,18826,6,0,L|208:251,2,72.5,2|0|8,0:0|0:0|0:0,0:0:0:0:
263,98,19312,2,0,P|323:65|402:78,1,145,0|2,0:0|0:0,0:0:0:0:
456,148,19799,1,8,0:0:0:0:
422,235,19961,2,0,P|362:268|283:255,2,145,2|2|0,0:0|0:0|0:0,0:0:0:0:
456,148,20772,1,0,0:0:0:0:
396,75,20934,1,2,0:0:0:0:
362,163,21096,2,0,L|310:151,3,36.25,8|2|2|2,0:0|0:0|0:0|0:0,0:0:0:0:
282,138,21420,6,0,B|268:166|234:186|203:190|203:190|149:148,1,145,6|8,0:0|0:0,0:0:0:0:
84,115,21907,2,0,P|51:144|-4:148,1,72.5,0|0,0:0|0:0,0:0:0:0:
25,245,22231,2,0,P|66:259|97:304,1,72.5,2|8,0:0|0:0,0:0:0:0:
167,231,22555,2,0,P|165:163|235:108,1,145,2|0,0:0|0:0,0:0:0:0:
308,138,23042,2,0,P|360:152|400:143,1,72.5,8|0,0:0|0:0,0:0:0:0:
466,118,23366,2,0,L|456:202,1,72.5,0|2,0:0|0:0,0:0:0:0:
445,283,23691,1,8,0:0:0:0:
257,268,24015,6,0,L|248:196,2,72.5,2|0|8,0:0|0:0|0:0,0:0:0:0:
290,356,24501,2,0,B|210:340|210:404|130:372,1,145,0|2,0:0|0:0,0:0:0:0:
75,321,24988,1,8,0:0:0:0:
55,228,25150,2,0,B|69:256|103:276|134:280|134:280|188:238,1,145,2|2,0:0|0:0,0:0:0:0:
248,196,25636,2,0,L|341:206,1,72.5,8|0,0:0|0:0,0:0:0:0:
396,147,25961,2,0,L|387:75,2,72.5,0|2|8,0:0|0:0|0:0,0:0:0:0:
502,302,26609,6,0,P|429:303|391:373,1,145,4|8,0:0|0:0,0:0:0:0:
320,295,27096,2,0,B|306:267|272:247|241:243|241:243|203:271,1,145,0|2,0:0|0:0,0:0:0:0:
132,332,27582,1,8,0:0:0:0:
42,302,27745,2,0,P|22:227|66:161,1,145,2|0,0:0|0:0,0:0:0:0:
144,150,28231,2,0,L|222:166,1,72.5,8|0,0:0|0:0,0:0:0:0:
298,209,28555,2,0,L|369:194,1,72.5,0|2,0:0|0:0,0:0:0:0:
460,170,28880,1,8,0:0:0:0:
339,24,29204,6,0,L|267:38,1,72.5,2|0,0:0|0:0,0:0:0:0:
177,62,29528,1,8,0:0:0:0:
177,62,29691,2,0,B|163:90|129:110|98:114|98:114|60:85,1,145,0|2,0:0|0:0,0:0:0:0:
1,11,30177,1,8,0:0:0:0:
60,85,30339,2,0,B|72:138|72:138|49:255,1,145,2|2,0:0|0:0,0:0:0:0:
11,311,30826,2,0,L|91:305,1,72.5,8|0,0:0|0:0,0:0:0:0:
176,296,31150,1,0,0:0:0:0:
256,345,31312,1,2,0:0:0:0:
336,296,31474,2,0,P|356:298|378:304,3,36.25,8|2|2|2,0:0|0:0|0:0|0:0,0:0:0:0:
409,324,31799,6,0,P|403:265|436:212,1,116,4|8,0:0|0:0,0:0:0:0:
499,165,32285,1,0,0:0:0:0:
499,165,32609,1,2,0:0:0:0:
447,97,32772,1,8,0:0:0:0:
379,149,32934,2,0,B|347:166|347:166|306:160|282:123,1,116,2|2,0:0|0:0,0:0:0:0:
229,54,33420,1,8,0:0:0:0:
178,124,33582,2,0,B|154:160|113:166|113:166|81:149,1,116,0|2,0:0|0:0,0:0:0:0:
13,97,34069,1,8,0:0:0:0:
3,293,34393,6,0,P|48:270|113:273,1,116,2|8,0:0|0:0,0:0:0:0:
176,332,34880,2,0,P|221:355|286:352,1,116,0|2,0:0|0:0,0:0:0:0:
354,300,35366,1,8,0:0:0:0:
354,300,35528,2,0,B|364:258|364:258|348:159,1,116,2|2,0:0|0:0,0:0:0:0:
333,100,36015,1,8,0:0:0:0:
162,66,36339,2,0,L|177:2,2,58,2|2|8,0:0|0:0|0:0,0:0:0:0:
76,218,36988,6,0,P|49:271|67:335,1,116,4|8,0:0|0:0,0:0:0:0:
131,372,37474,2,0,B|159:369|185:353|185:353|215:367|254:367,1,116,0|2,0:0|0:0,0:0:0:0:
313,320,37961,1,8,0:0:0:0:
313,320,38123,2,0,P|323:264|296:213,1,116,2|2,0:0|0:0,0:0:0:0:
231,156,38609,1,8,0:0:0:0:
296,213,38772,2,0,B|348:225|348:225|430:205,1,116,0|2,0:0|0:0,0:0:0:0:
493,188,39258,2,0,L|484:267,1,58,8|0,0:0|0:0,0:0:0:0:
431,125,39582,6,0,L|418:9,1,116,2|8,0:0|0:0,0:0:0:0:
331,20,40069,2,0,L|343:135,1,116,0|2,0:0|0:0,0:0:0:0:
355,221,40555,1,8,0:0:0:0:
278,263,40718,2,0,L|163:251,1,116,2|2,0:0|0:0,0:0:0:0:
152,338,41205,2,0,L|268:351,1,116,8|2,0:0|0:0,0:0:0:0:
349,316,41691,1,2,0:0:0:0:
419,367,41853,1,8,0:0:0:0:
500,332,42015,5,2,0:0:0:0:
500,332,42097,1,2,0:0:0:0:
500,332,42177,2,0,L|487:208,1,116,4|8,0:0|0:0,0:0:0:0:
481,129,42663,1,0,0:0:0:0:
481,129,42988,1,2,0:0:0:0:
403,91,43150,1,8,0:0:0:0:
332,140,43312,2,0,L|217:128,1,116,2|2,0:0|0:0,0:0:0:0:
135,161,43799,1,8,0:0:0:0:
206,215,43961,2,0,L|322:228,1,116,0|2,0:0|0:0,0:0:0:0:
407,238,44447,1,8,0:0:0:0:
263,336,44772,6,0,P|200:350|147:336,1,116,2|8,0:0|0:0,0:0:0:0:
89,276,45258,2,0,P|74:212|88:156,1,116,0|2,0:0|0:0,0:0:0:0:
136,93,45745,1,8,0:0:0:0:
219,120,45907,2,0,L|337:107,1,116,2|2,0:0|0:0,0:0:0:0:
420,95,46393,1,8,0:0:0:0:
493,252,46718,2,0,L|510:180,2,58,2|2|8,0:0|0:0|0:0,0:0:0:0:
366,369,47366,6,0,B|324:385|324:385|254:371,1,116,4|8,0:0|0:0,0:0:0:0:
195,306,47853,2,0,B|211:264|211:264|197:194,1,116,0|2,0:0|0:0,0:0:0:0:
173,110,48339,1,8,0:0:0:0:
102,59,48501,2,0,B|86:101|86:101|99:170,1,116,2|2,0:0|0:0,0:0:0:0:
124,255,48987,1,8,0:0:0:0:
195,306,49150,2,0,B|237:322|237:322|306:308,1,116,0|2,0:0|0:0,0:0:0:0:
390,286,49636,1,8,0:0:0:0:
479,136,49961,5,4,0:0:0:0:
479,136,50285,5,8,0:0:0:0:
414,77,50447,1,2,0:0:0:0:
414,77,50528,1,2,0:0:0:0:
414,77,50609,1,2,0:0:0:0:
338,121,50772,1,2,0:0:0:0:
273,63,50934,1,2,0:0:0:0:
198,107,51096,1,6,0:0:0:0:
198,107,51420,5,2,0:0:0:0:
92,70,51582,2,0,P|102:114|108:167,1,72.5,6|2,0:0|0:0,0:0:0:0:
74,230,51907,2,0,B|66:274|66:274|89:346,1,108.75,2|2,0:0|0:0,0:0:0:0:
99,369,52231,6,0,B|165:338|165:399|251:363,1,130.499996017456,2|2,0:0|0:0,0:0:0:0:
275,344,52555,6,0,B|300:320|309:283|300:248|300:248|338:265|394:250,1,173.999994689942,4|8,0:0|0:0,0:0:0:0:
458,221,53042,2,0,P|472:180|472:137,1,86.9999973449708,2|2,0:0|0:0,0:0:0:0:
417,59,53366,2,0,P|376:44|333:44,1,86.9999973449708,2|8,0:0|0:0,0:0:0:0:
250,94,53691,2,0,B|218:94|170:62|170:62|122:94|74:94,1,173.999994689942,2|2,0:0|0:0,0:0:0:0:
1,56,54177,2,0,P|5:100|11:165,1,86.9999973449708,8|0,0:0|0:0,0:0:0:0:
82,204,54501,1,2,0:0:0:0:
82,204,54663,2,0,P|132:196|188:169,2,86.9999973449708,2|8|0,0:0|0:0|0:0,0:0:0:0:
62,298,55150,6,0,P|150:283|249:236,1,173.999994689942,2|8,0:0|0:0,0:0:0:0:
363,115,55799,2,0,P|358:68|354:27,2,86.9999973449708,2|2|8,0:0|0:0|0:0,0:0:0:0:
456,136,56285,2,0,P|508:211|479:313,1,173.999994689942,2|2,0:0|0:0,0:0:0:0:
423,350,56772,2,0,B|343:318|343:382|247:350,1,173.999994689942,8|2,0:0|0:0,0:0:0:0:
191,280,57258,1,2,0:0:0:0:
177,186,57420,2,0,P|117:223|97:283,1,130.499996017456,8|0,0:0|0:0,0:0:0:0:
97,277,57745,6,0,P|93:172|88:92,1,173.999994689942,4|8,0:0|0:0,0:0:0:0:
162,43,58231,2,0,P|202:69|256:71,1,86.9999973449708,2|2,0:0|0:0,0:0:0:0:
252,168,58555,2,0,P|209:189|180:235,1,86.9999973449708,2|8,0:0|0:0,0:0:0:0:
186,316,58880,2,0,B|206:360|252:368|252:368|308:348|324:301,1,173.999994689942,2|2,0:0|0:0,0:0:0:0:
329,220,59366,2,0,P|373:235|424:231,1,86.9999973449708,8|0,0:0|0:0,0:0:0:0:
496,185,59691,1,2,0:0:0:0:
496,185,59853,2,0,L|507:84,2,86.9999973449708,2|8|0,0:0|0:0|0:0,0:0:0:0:
496,281,60339,6,0,P|413:260|331:308,1,173.999994689942,2|8,0:0|0:0,0:0:0:0:
338,299,60988,2,0,L|353:200,2,86.9999973449708,2|2|8,0:0|0:0|0:0,0:0:0:0:
262,359,61474,2,0,B|243:323|243:323|153:303|153:303|104:338,1,173.999994689942,2|2,0:0|0:0,0:0:0:0:
40,383,61961,2,0,P|89:317|63:218,1,173.999994689942,8|2,0:0|0:0,0:0:0:0:
3,165,62447,1,2,0:0:0:0:
25,71,62609,1,8,0:0:0:0:
118,43,62772,5,2,0:0:0:0:
118,43,62853,1,2,0:0:0:0:
118,43,62934,2,0,P|171:93|275:52,1,173.999994689942,4|8,0:0|0:0,0:0:0:0:
356,35,63420,2,0,L|343:134,2,86.9999973449708,0|2|2,0:0|0:0|0:0,0:0:0:0:
460,8,63907,1,8,0:0:0:0:
460,8,64069,6,0,L|433:208,1,173.999994689942,4|2,0:0|0:0,0:0:0:0:
440,276,64555,2,0,B|377:262|377:262|327:268|327:268|233:248,1,173.999994689942,8|2,0:0|0:0,0:0:0:0:
217,175,65042,1,2,0:0:0:0:
269,256,65204,2,0,P|268:332|213:370,1,130.499996017456,8|0,0:0|0:0,0:0:0:0:
231,365,65528,6,0,B|189:316|189:316|151:304|103:321|78:364,1,173.999994689942,4|8,0:0|0:0,0:0:0:0:
98,242,66015,2,0,L|111:143,2,86.9999973449708,2|2|2,0:0|0:0|0:0,0:0:0:0:
2,277,66502,1,8,0:0:0:0:
2,277,66664,6,0,L|29:77,1,173.999994689942,4|2,0:0|0:0,0:0:0:0:
104,36,67150,2,0,B|142:64|215:54,1,86.9999973449708,12|2,0:0|0:0,0:0:0:0:
293,18,67474,2,0,P|267:85|303:164,1,130.499996017456,2|2,0:0|0:0,0:0:0:0:
315,173,67799,2,0,P|341:240|305:319,1,130.499996017456,2|2,0:0|0:0,0:0:0:0:
293,329,68123,6,0,B|204:297|204:373|109:333,1,173.999994689942,4|8,0:0|0:0,0:0:0:0:
58,270,68609,2,0,P|44:229|44:185,1,86.9999973449708,2|2,0:0|0:0,0:0:0:0:
99,108,68933,2,0,P|139:93|182:92,1,86.9999973449708,2|8,0:0|0:0,0:0:0:0:
260,150,69258,2,0,P|356:164|421:94,1,173.999994689942,2|2,0:0|0:0,0:0:0:0:
498,54,69744,2,0,P|494:97|490:140,1,86.9999973449708,8|0,0:0|0:0,0:0:0:0:
460,231,70068,1,2,0:0:0:0:
460,231,70230,2,0,P|410:223|354:196,2,86.9999973449708,2|8|0,0:0|0:0|0:0,0:0:0:0:
480,325,70717,6,0,P|392:310|293:263,1,173.999994689942,2|8,0:0|0:0,0:0:0:0:
240,99,71366,2,0,L|260:2,2,86.9999973449708,2|2|8,0:0|0:0|0:0,0:0:0:0:
218,192,71853,2,0,P|143:145|51:169,1,173.999994689942,2|2,0:0|0:0,0:0:0:0:
40,266,72339,2,0,P|115:313|207:289,1,173.999994689942,8|2,0:0|0:0,0:0:0:0:
278,250,72825,1,2,0:0:0:0:
373,245,72987,2,0,P|433:281|453:341,1,130.499996017456,8|0,0:0|0:0,0:0:0:0:
452,336,73312,6,0,P|456:231|461:151,1,173.999994689942,4|8,0:0|0:0,0:0:0:0:
504,76,73799,2,0,P|444:67|401:86,1,86.9999973449708,2|2,0:0|0:0,0:0:0:0:
348,138,74123,2,0,P|306:148|263:139,1,86.9999973449708,2|8,0:0|0:0,0:0:0:0:
209,61,74447,2,0,P|123:36|37:78,1,173.999994689942,2|2,0:0|0:0,0:0:0:0:
8,154,74934,2,0,L|21:243,1,86.9999973449708,8|0,0:0|0:0,0:0:0:0:
110,271,75258,1,2,0:0:0:0:
110,271,75420,2,0,P|160:263|216:236,2,86.9999973449708,2|8|0,0:0|0:0|0:0,0:0:0:0:
90,365,75907,6,0,P|178:350|277:303,1,173.999994689942,2|8,0:0|0:0,0:0:0:0:
332,141,76555,2,0,L|347:42,2,86.9999973449708,2|2|8,0:0|0:0|0:0,0:0:0:0:
318,236,77042,2,0,B|392:236|418:177|418:177|444:206|486:217,1,173.999994689942,2|2,0:0|0:0,0:0:0:0:
478,107,77528,2,0,P|396:87|332:141,1,173.999994689942,8|2,0:0|0:0,0:0:0:0:
318,236,78015,1,2,0:0:0:0:
241,176,78177,1,8,0:0:0:0:
160,230,78339,5,2,0:0:0:0:
160,230,78420,1,2,0:0:0:0:
160,230,78501,2,0,P|69:263|8:192,1,173.999994689942,4|8,0:0|0:0,0:0:0:0:
7,123,78987,2,0,L|18:36,2,86.9999973449708,0|2|2,0:0|0:0|0:0,0:0:0:0:
91,180,79474,1,8,0:0:0:0:
91,180,79636,2,0,L|114:0,1,173.999994689942,4|2,0:0|0:0,0:0:0:0:
199,49,80122,2,0,B|262:63|262:63|312:57|312:57|369:69,1,173.999994689942,8|2,0:0|0:0,0:0:0:0:
316,149,80609,1,2,0:0:0:0:
316,149,80772,2,0,B|258:157|258:157|182:138,1,130.499996017456,8|0,0:0|0:0,0:0:0:0:
188,139,81096,6,0,P|225:215|197:295,1,173.999994689942,4|8,0:0|0:0,0:0:0:0:
131,364,81582,1,2,0:0:0:0:
131,364,81663,1,2,0:0:0:0:
131,364,81745,2,0,L|29:351,1,86.9999973449708,2|2,0:0|0:0,0:0:0:0:
3,266,82069,1,8,0:0:0:0:
30,174,82231,6,0,P|75:134|158:125,1,130.499996017456,4|0,0:0|0:0,0:0:0:0:
188,139,82555,2,0,B|230:159|230:159|333:134,1,130.499996017456,4|0,0:0|0:0,0:0:0:0:
358,127,82880,1,2,0:0:0:0:
449,100,83042,2,0,L|441:152,3,43.4999986724854,2|2|2|2,0:0|0:0|0:0|0:0,0:0:0:0:
418,184,83366,2,0,L|426:236,3,43.4999986724854,2|2|2|0,0:0|0:0|0:0|0:0,0:0:0:0:
438,281,83691,6,0,P|366:247|287:268,1,145,4|8,0:0|0:0,0:0:0:0:
130,331,84339,2,0,L|123:258,2,72.5,2|2|8,0:0|0:0|0:0,0:0:0:0:
48,378,84826,2,0,L|32:215,1,145,2|2,0:0|0:0,0:0:0:0:
25,139,85312,1,8,0:0:0:0:
184,38,85636,2,0,P|230:54|287:57,1,72.5,2|2,0:0|0:0,0:0:0:0:
346,40,85961,1,8,0:0:0:0:
346,40,86285,6,0,P|361:98|370:172,1,108.75,2|0,0:0|0:0,0:0:0:0:
408,169,86609,2,0,P|387:236|382:292,1,108.75,8|2,0:0|0:0,0:0:0:0:
383,321,86934,1,2,0:0:0:0:
306,375,87096,1,2,0:0:0:0:
230,318,87258,1,8,0:0:0:0:
230,318,87420,6,0,B|180:345|180:345|82:323,1,145,2|2,0:0|0:0,0:0:0:0:
1,303,87907,2,0,B|-18:216|-18:216|8:166,1,145,8|2,0:0|0:0,0:0:0:0:
100,2,88555,1,8,0:0:0:0:
264,94,88880,6,0,L|423:74,1,145,4|8,0:0|0:0,0:0:0:0:
466,254,89528,2,0,P|473:198|481:171,2,72.5,2|2|8,0:0|0:0|0:0,0:0:0:0:
499,342,90015,2,0,P|434:301|360:314,1,145,2|2,0:0|0:0,0:0:0:0:
293,364,90501,2,0,L|189:356,1,72.5,8|0,0:0|0:0,0:0:0:0:
126,353,90826,1,2,0:0:0:0:
126,353,90988,1,2,0:0:0:0:
74,274,91150,2,0,P|112:225|103:152,1,108.75,8|0,0:0|0:0,0:0:0:0:
87,141,91474,6,0,P|150:147|200:114,1,108.75,2|0,0:0|0:0,0:0:0:0:
214,86,91799,2,0,P|262:63|315:71,1,108.75,8|2,0:0|0:0,0:0:0:0:
348,105,92123,1,2,0:0:0:0:
342,198,92285,1,2,0:0:0:0:
336,291,92447,1,8,0:0:0:0:
336,291,92609,6,0,B|294:267|294:267|184:279,1,145,2|2,0:0|0:0,0:0:0:0:
126,339,93096,2,0,L|35:328,1,72.5,8|2,0:0|0:0,0:0:0:0:
7,326,93339,1,2,0:0:0:0:
7,326,93420,2,0,P|27:269|31:237,1,72.5,2|2,0:0|0:0,0:0:0:0:
100,195,93745,2,0,P|80:138|76:106,1,72.5,2|2,0:0|0:0,0:0:0:0:
81,32,94069,5,6,3:2:0:0:
210,79,94231,1,6,3:2:0:0:
347,207,94555,5,6,3:2:0:0:
476,160,94717,1,6,3:2:0:0:
339,32,95042,5,6,3:2:0:0:
210,79,95204,2,0,L|86:71,1,116,6|2,3:2|0:0,0:0:0:0:
24,283,95853,2,0,L|148:275,1,116,2|2,0:0|0:0,0:0:0:0:
