osu file format v14

[General]
AudioFilename: audio.mp3
AudioLeadIn: 0
PreviewTime: 51907
Countdown: 0
SampleSet: Soft
StackLeniency: 0.5
Mode: 0
LetterboxInBreaks: 0
WidescreenStoryboard: 1

[Editor]
DistanceSpacing: 1
BeatDivisor: 4
GridSize: 4
TimelineZoom: 3.799999

[Metadata]
Title:Passion
TitleUnicode:Passion
Artist:Duca
ArtistUnicode:Duca
Creator:Dored
Version:Kamiya's Insane.
Source:コドモノアソビ
Tags:Kodomo no Asobi Galgame Eroge Opening Short Version Lump of Sugar Ametrin gary00737 [Kamiya] Yugu Suzuki_1112 Fushimi Rio imoutosan
BeatmapID:1552978
BeatmapSetID:720081

[Difficulty]
HPDrainRate:5.8
CircleSize:4
OverallDifficulty:7.5
ApproachRate:9
SliderMultiplier:1.6
SliderTickRate:1

[Events]
//Background and Video events
0,0,"Insane2.jpg",0,0
//Break Periods
//Storyboard Layer 0 (Background)
//Storyboard Layer 1 (Fail)
//Storyboard Layer 2 (Pass)
//Storyboard Layer 3 (Foreground)
//Storyboard Sound Samples

[TimingPoints]
664,324.324324324324,4,2,2,45,1,0
664,-125,4,2,2,45,0,0
5853,-117.647058823529,4,2,2,55,0,0
10393,-100,4,2,1,65,0,0
11042,-111.111111111111,4,2,1,60,0,0
31799,-111.111111111111,4,2,1,65,0,0
51096,-111.111111111111,4,2,1,75,0,0
51745,-111.111111111111,4,2,1,65,0,0
51826,-111.111111111111,4,2,1,66,0,0
51907,-111.111111111111,4,2,1,67,0,0
51988,-111.111111111111,4,2,1,68,0,0
52069,-111.111111111111,4,2,1,69,0,0
52150,-111.111111111111,4,2,1,70,0,0
52231,-111.111111111111,4,2,1,71,0,0
52312,-111.111111111111,4,2,1,72,0,0
52393,-111.111111111111,4,2,1,73,0,0
52474,-111.111111111111,4,2,1,74,0,0
52555,-100,4,2,1,75,0,1
66826,-100,4,2,1,70,0,0
68123,-100,4,2,1,75,0,1
83691,-100,4,2,1,65,0,0
94069,-100,4,2,2,70,0,0
95285,-100,4,2,1,55,0,0
95691,-100,4,2,1,50,0,0
96015,-100,4,2,1,45,0,0
96339,-100,4,2,1,40,0,0
96663,-100,4,2,1,35,0,0
96988,-100,4,2,1,30,0,0
97312,-100,4,2,1,25,0,0
97636,-100,4,2,1,20,0,0
97961,-100,4,2,1,15,0,0

[Colours]
Combo1 : 128,128,255
Combo2 : 255,255,128
Combo3 : 255,128,255
Combo4 : 192,192,192

[HitObjects]
152,120,664,6,0,P|208:100|280:136,1,128,2|0,0:0|0:0,0:0:0:0:
300,300,1312,1,0,0:0:0:0:
224,256,1474,1,0,0:0:0:0:
224,344,1636,1,0,0:0:0:0:
144,296,1799,6,0,L|4:296,1,128,2|0,0:0|0:0,0:0:0:0:
16,208,2285,2,0,L|88:208,1,64,0|0,0:0|0:0,0:0:0:0:
128,132,2609,1,0,0:0:0:0:
128,132,2772,2,0,L|208:132,1,64,0|0,0:0|0:0,0:0:0:0:
280,132,3096,1,0,0:0:0:0:
352,184,3258,6,0,P|368:116|320:56,1,128,2|0,0:0|0:0,0:0:0:0:
268,220,3907,1,0,0:0:0:0:
180,220,4069,1,0,0:0:0:0:
224,296,4231,1,0,0:0:0:0:
312,296,4393,6,0,L|448:296,1,128,2|0,0:0|0:0,0:0:0:0:
484,216,4880,1,0,0:0:0:0:
396,216,5042,1,0,0:0:0:0:
440,140,5204,2,0,L|352:140,1,64,0|0,0:0|0:0,0:0:0:0:
288,140,5528,1,0,0:0:0:0:
88,76,5853,5,2,0:0:0:0:
80,104,6015,1,2,0:0:0:0:
84,136,6177,1,2,0:0:0:0:
100,164,6339,1,2,0:0:0:0:
232,208,6663,5,2,0:0:0:0:
240,240,6826,1,2,0:0:0:0:
232,272,6988,1,2,0:0:0:0:
56,348,7312,5,2,0:0:0:0:
132,176,7636,1,2,0:0:0:0:
316,220,7961,1,2,0:0:0:0:
436,356,8447,5,2,0:0:0:0:
448,324,8609,1,2,0:0:0:0:
448,292,8772,1,2,0:0:0:0:
440,260,8934,1,2,0:0:0:0:
316,220,9258,5,2,0:0:0:0:
308,188,9420,1,2,0:0:0:0:
312,156,9582,1,2,0:0:0:0:
500,192,9907,1,2,0:0:0:0:
352,308,10231,1,2,0:0:0:0:
196,216,10393,5,2,0:0:0:0:
196,216,10474,1,2,0:0:0:0:
196,216,10555,1,2,0:0:0:0:
196,216,10636,1,2,0:0:0:0:
200,188,10718,5,8,0:0:0:0:
200,164,10799,1,2,0:0:0:0:
196,140,10880,1,2,0:0:0:0:
184,116,10961,1,2,0:0:0:0:
168,96,11042,6,0,P|104:72|32:100,1,143.999995605469,4|8,0:0|0:0,0:0:0:0:
60,208,11528,1,0,0:0:0:0:
144,292,11691,2,0,P|168:256|172:208,1,71.9999978027344,0|2,0:0|0:0,0:0:0:0:
32,304,12015,1,8,0:0:0:0:
200,344,12177,6,0,P|236:296|244:188,1,143.999995605469,2|0,0:0|0:0,0:0:0:0:
232,96,12663,1,8,0:0:0:0:
144,172,12826,1,0,0:0:0:0:
145,2,12988,2,0,P|134:36|136:72,1,71.9999978027344,0|2,0:0|0:0,0:0:0:0:
135,71,13312,1,8,0:0:0:0:
476,148,13636,6,0,P|412:180|336:152,1,143.999995605469,2|8,0:0|0:0,0:0:0:0:
388,52,14123,1,0,0:0:0:0:
276,84,14285,2,0,L|216:132,1,71.9999978027344,0|2,0:0|0:0,0:0:0:0:
264,236,14609,1,8,0:0:0:0:
256,4,14772,6,0,L|128:104,1,143.999995605469,2|2,0:0|0:0,0:0:0:0:
48,156,15258,1,8,0:0:0:0:
152,204,15420,1,0,0:0:0:0:
142,92,15582,1,0,0:0:0:0:
56,264,15745,1,2,0:0:0:0:
164,312,15907,2,0,L|244:260,1,71.9999978027344,8|0,0:0|0:0,0:0:0:0:
248,188,16231,6,0,L|204:40,1,143.999995605469,4|8,0:0|0:0,0:0:0:0:
88,52,16718,1,0,0:0:0:0:
48,160,16880,2,0,L|68:232,1,71.9999978027344,0|2,0:0|0:0,0:0:0:0:
116,332,17204,1,8,0:0:0:0:
216,272,17366,6,0,P|272:248|352:280,1,143.999995605469,2|0,0:0|0:0,0:0:0:0:
436,348,17853,1,8,0:0:0:0:
444,232,18015,1,0,0:0:0:0:
294,321,18177,2,0,P|327:301|354:253,1,71.9999978027344,0|2,0:0|0:0,0:0:0:0:
346,274,18501,1,8,0:0:0:0:
388,8,18826,6,0,P|364:84|404:152,1,143.999995605469,2|8,0:0|0:0,0:0:0:0:
488,84,19312,1,0,0:0:0:0:
364,72,19474,2,0,L|280:64,1,71.9999978027344,0|2,0:0|0:0,0:0:0:0:
172,48,19799,1,8,0:0:0:0:
256,208,19961,6,0,L|224:136,1,71.9999978027344,2|0,0:0|0:0,0:0:0:0:
121,282,20285,2,0,L|136:212,1,71.9999978027344,2|8,0:0|0:0,0:0:0:0:
226,142,20609,1,0,0:0:0:0:
336,184,20772,1,0,0:0:0:0:
336,184,20934,2,0,L|320:276,1,71.9999978027344,2|8,0:0|0:0,0:0:0:0:
372,360,21258,2,0,L|408:340,1,35.9999989013672,2|2,0:0|0:0,0:0:0:0:
480,360,21420,6,0,P|476:316|392:264,1,143.999995605469,6|8,0:0|0:0,0:0:0:0:
300,324,21907,1,0,0:0:0:0:
212,248,22069,2,0,L|229:162,1,71.9999978027344,0|2,0:0|0:0,0:0:0:0:
300,324,22393,1,8,0:0:0:0:
128,268,22555,6,0,L|164:104,1,143.999995605469,2|0,0:0|0:0,0:0:0:0:
244,48,23042,1,8,0:0:0:0:
300,148,23204,1,0,0:0:0:0:
438,52,23366,2,0,P|402:48|368:56,1,71.9999978027344,0|2,0:0|0:0,0:0:0:0:
300,148,23691,1,8,0:0:0:0:
128,268,24015,6,0,P|176:288|256:244,1,143.999995605469,2|8,0:0|0:0,0:0:0:0:
300,148,24501,1,0,0:0:0:0:
208,80,24663,2,0,P|192:112|188:152,1,71.9999978027344,0|2,0:0|0:0,0:0:0:0:
253,248,24988,1,8,0:0:0:0:
152,24,25150,6,0,P|120:80|116:180,1,143.999995605469,2|2,0:0|0:0,0:0:0:0:
128,268,25636,1,8,0:0:0:0:
220,200,25799,1,0,0:0:0:0:
111,158,25961,2,0,P|70:153|38:157,1,71.9999978027344,0|2,0:0|0:0,0:0:0:0:
20,256,26285,2,0,L|44:328,1,71.9999978027344,8|0,0:0|0:0,0:0:0:0:
136,344,26609,6,0,L|288:288,1,143.999995605469,4|8,0:0|0:0,0:0:0:0:
376,248,27096,1,0,0:0:0:0:
288,172,27258,2,0,L|196:208,1,71.9999978027344,0|2,0:0|0:0,0:0:0:0:
376,248,27582,1,8,0:0:0:0:
296,88,27745,6,0,L|132:152,1,143.999995605469,2|0,0:0|0:0,0:0:0:0:
56,184,28231,1,8,0:0:0:0:
152,248,28393,1,0,0:0:0:0:
88,345,28555,2,0,P|60:323|44:292,1,71.9999978027344,0|2,0:0|0:0,0:0:0:0:
56,184,28880,1,8,0:0:0:0:
272,108,29204,6,0,P|304:152|276:256,1,143.999995605469,2|8,0:0|0:0,0:0:0:0:
228,332,29691,1,0,0:0:0:0:
152,248,29853,2,0,P|164:212|188:184,1,71.9999978027344,0|2,0:0|0:0,0:0:0:0:
228,332,30177,1,8,0:0:0:0:
144,120,30339,6,0,P|96:172|72:264,1,143.999995605469,2|2,0:0|0:0,0:0:0:0:
136,336,30826,1,8,0:0:0:0:
248,248,30988,1,0,0:0:0:0:
73,240,31150,1,0,0:0:0:0:
288,352,31312,1,2,0:0:0:0:
156,92,31474,5,8,0:0:0:0:
140,112,31555,1,2,0:0:0:0:
132,136,31636,1,2,0:0:0:0:
132,160,31718,1,2,0:0:0:0:
137,184,31799,6,0,P|165:232|257:244,1,143.999995605469,4|8,0:0|0:0,0:0:0:0:
292,148,32285,2,0,P|244:136|212:152,1,71.9999978027344,0|0,0:0|0:0,0:0:0:0:
340,240,32609,2,0,P|376:216|388:180,1,71.9999978027344,2|8,0:0|0:0,0:0:0:0:
480,44,32934,6,0,P|416:44|372:112,1,143.999995605469,2|2,0:0|0:0,0:0:0:0:
386,190,33420,1,8,0:0:0:0:
452,268,33582,2,0,P|480:232|480:192,1,71.9999978027344,0|0,0:0|0:0,0:0:0:0:
452,116,33907,1,2,0:0:0:0:
386,190,34069,1,8,0:0:0:0:
296,144,34231,1,0,0:0:0:0:
220,84,34393,6,0,P|195:151|228:216,1,143.999995605469,2|8,0:0|0:0,0:0:0:0:
312,268,34880,1,0,0:0:0:0:
386,190,35042,2,0,L|392:108,1,71.9999978027344,0|2,0:0|0:0,0:0:0:0:
312,268,35366,1,8,0:0:0:0:
464,228,35528,6,0,L|476:60,1,143.999995605469,2|2,0:0|0:0,0:0:0:0:
396,20,36015,1,8,0:0:0:0:
320,84,36177,1,2,0:0:0:0:
208,16,36339,1,2,0:0:0:0:
208,44,36501,1,2,0:0:0:0:
208,72,36663,1,8,0:0:0:0:
208,100,36826,1,2,0:0:0:0:
132,180,36988,6,0,P|192:160|264:200,1,143.999995605469,4|8,0:0|0:0,0:0:0:0:
252,296,37474,2,0,P|212:292|188:264,1,71.9999978027344,0|0,0:0|0:0,0:0:0:0:
340,256,37799,2,0,P|352:296|348:332,1,71.9999978027344,2|8,0:0|0:0,0:0:0:0:
101,320,38123,6,0,L|137:152,1,143.999995605469,2|2,0:0|0:0,0:0:0:0:
156,80,38609,1,8,0:0:0:0:
228,152,38772,2,0,L|212:232,1,71.9999978027344,0|0,0:0|0:0,0:0:0:0:
188,320,39096,1,2,0:0:0:0:
284,292,39258,1,8,0:0:0:0:
356,364,39420,1,0,0:0:0:0:
436,304,39582,6,0,P|460:252|420:172,1,143.999995605469,2|8,0:0|0:0,0:0:0:0:
344,120,40069,1,0,0:0:0:0:
252,160,40231,2,0,P|216:172|176:160,1,71.9999978027344,0|2,0:0|0:0,0:0:0:0:
344,120,40555,1,8,0:0:0:0:
288,228,40718,6,0,P|220:248|148:232,1,143.999995605469,2|2,0:0|0:0,0:0:0:0:
116,112,41204,1,8,0:0:0:0:
60,196,41366,1,2,0:0:0:0:
176,28,41528,1,2,0:0:0:0:
220,120,41691,1,2,0:0:0:0:
116,112,41853,1,8,0:0:0:0:
280,36,42015,2,0,L|324:16,1,35.9999989013672,2|2,0:0|0:0,0:0:0:0:
388,32,42177,6,0,P|412:80|372:168,1,143.999995605469,4|8,0:0|0:0,0:0:0:0:
296,208,42663,2,0,P|284:160|300:124,1,71.9999978027344,0|0,0:0|0:0,0:0:0:0:
380,256,42988,2,0,P|360:288|324:304,1,71.9999978027344,2|8,0:0|0:0,0:0:0:0:
120,352,43312,6,0,P|148:300|240:296,1,143.999995605469,2|2,0:0|0:0,0:0:0:0:
264,380,43799,1,8,0:0:0:0:
226,288,43961,2,0,L|188:192,1,71.9999978027344,0|0,0:0|0:0,0:0:0:0:
156,116,44285,1,2,0:0:0:0:
80,188,44447,1,8,0:0:0:0:
60,84,44609,1,0,0:0:0:0:
128,12,44772,6,0,L|272:48,1,143.999995605469,2|8,0:0|0:0,0:0:0:0:
364,76,45258,1,0,0:0:0:0:
288,144,45420,2,0,L|200:120,1,71.9999978027344,0|2,0:0|0:0,0:0:0:0:
364,76,45745,1,8,0:0:0:0:
300,228,45907,6,0,L|136:180,1,143.999995605469,2|2,0:0|0:0,0:0:0:0:
64,160,46393,1,8,0:0:0:0:
92,256,46555,1,2,0:0:0:0:
218,125,46718,1,2,0:0:0:0:
232,160,46880,1,2,0:0:0:0:
232,196,47042,1,8,0:0:0:0:
216,232,47204,1,2,0:0:0:0:
280,304,47366,6,0,L|352:156,1,143.999995605469,4|8,0:0|0:0,0:0:0:0:
420,108,47853,2,0,P|444:144|444:176,1,71.9999978027344,0|0,0:0|0:0,0:0:0:0:
332,84,48177,2,0,P|320:48|328:16,1,71.9999978027344,2|8,0:0|0:0,0:0:0:0:
344,176,48501,6,0,P|276:200|208:168,1,143.999995605469,2|2,0:0|0:0,0:0:0:0:
128,116,48988,1,8,0:0:0:0:
176,28,49150,2,0,P|208:52|224:92,1,71.9999978027344,0|0,0:0|0:0,0:0:0:0:
212,173,49474,1,2,0:0:0:0:
176,268,49636,1,8,0:0:0:0:
84,308,49799,1,0,0:0:0:0:
276,252,49961,5,4,0:0:0:0:
32,100,50285,5,8,0:0:0:0:
96,212,50447,1,2,0:0:0:0:
96,212,50528,1,2,0:0:0:0:
96,212,50609,1,2,0:0:0:0:
120,56,50772,5,2,0:0:0:0:
12,264,50934,1,2,0:0:0:0:
184,156,51096,1,6,0:0:0:0:
12,264,51420,5,2,0:0:0:0:
120,56,51582,1,6,0:0:0:0:
184,156,51745,1,2,0:0:0:0:
260,56,51907,2,0,L|312:80,3,35.9999989013672,2|2|2|2,0:0|0:0|0:0|0:0,0:0:0:0:
296,112,52231,2,0,L|336:128,3,35.9999989013672,2|2|2|2,0:0|0:0|0:0|0:0,0:0:0:0:
392,76,52555,6,0,P|408:120|332:204,1,160,4|8,0:0|0:0,0:0:0:0:
224,240,53042,1,2,0:0:0:0:
224,240,53123,1,2,0:0:0:0:
224,240,53204,1,2,0:0:0:0:
329,125,53366,1,2,0:0:0:0:
360,276,53528,1,8,0:0:0:0:
172,304,53691,6,0,P|144:228|200:164,1,160,2|2,0:0|0:0,0:0:0:0:
304,216,54177,1,8,0:0:0:0:
244,328,54339,1,0,0:0:0:0:
224,240,54501,1,2,0:0:0:0:
332,304,54663,1,2,0:0:0:0:
264,136,54826,1,8,0:0:0:0:
244,328,54988,1,0,0:0:0:0:
472,232,55150,6,0,L|392:232,1,80,2|2,0:0|0:0,0:0:0:0:
264,136,55474,2,0,L|360:136,1,80,8|0,0:0|0:0,0:0:0:0:
224,240,55799,1,2,0:0:0:0:
224,240,55961,1,2,0:0:0:0:
392,232,56123,1,8,0:0:0:0:
172,304,56285,6,0,P|144:228|200:164,1,160,2|2,0:0|0:0,0:0:0:0:
264,136,56772,1,8,0:0:0:0:
224,240,56934,1,0,0:0:0:0:
312,64,57096,6,0,P|340:96|348:136,1,80,2|2,0:0|0:0,0:0:0:0:
316,208,57420,1,8,0:0:0:0:
264,136,57582,1,0,0:0:0:0:
492,124,57745,6,0,P|428:156|342:127,1,160,4|8,0:0|0:0,0:0:0:0:
212,48,58231,1,2,0:0:0:0:
212,48,58312,1,2,0:0:0:0:
212,48,58393,1,2,0:0:0:0:
372,44,58555,1,2,0:0:0:0:
264,136,58718,1,8,0:0:0:0:
347,131,58880,6,0,P|296:216|220:208,1,160,2|2,0:0|0:0,0:0:0:0:
116,212,59366,1,8,0:0:0:0:
184,156,59528,1,0,0:0:0:0:
168,356,59691,1,2,0:0:0:0:
176,268,59853,1,2,0:0:0:0:
248,320,60015,1,8,0:0:0:0:
96,308,60177,1,0,0:0:0:0:
108,128,60339,6,0,P|60:148|44:248,2,160,2|8|2,0:0|0:0|0:0,0:0:0:0:
184,156,61150,1,2,0:0:0:0:
176,268,61312,1,8,0:0:0:0:
240,220,61474,6,0,P|268:168|220:80,1,160,2|2,0:0|0:0,0:0:0:0:
108,128,61961,1,8,0:0:0:0:
148,52,62123,1,0,0:0:0:0:
226,83,62285,1,2,0:0:0:0:
184,156,62447,1,2,0:0:0:0:
148,52,62609,5,8,0:0:0:0:
226,83,62772,2,0,L|266:83,1,40,2|2,0:0|0:0,0:0:0:0:
383,55,62934,6,0,P|423:91|391:195,1,160,4|8,0:0|0:0,0:0:0:0:
336,232,63420,1,0,0:0:0:0:
352,128,63582,1,2,0:0:0:0:
284,168,63745,1,2,0:0:0:0:
404,187,63907,1,8,0:0:0:0:
226,223,64069,6,0,P|205:149|256:92,1,160,4|2,0:0|0:0,0:0:0:0:
284,168,64555,1,8,0:0:0:0:
164,280,64718,2,0,L|116:280,1,40,0|0,0:0|0:0,0:0:0:0:
48,280,64880,6,0,L|68:188,1,80,2|2,0:0|0:0,0:0:0:0:
80,116,65204,1,8,0:0:0:0:
144,176,65366,1,0,0:0:0:0:
308,24,65528,6,0,L|136:96,1,160,4|8,0:0|0:0,0:0:0:0:
240,140,66015,2,0,L|232:184,1,40,2|2,0:0|0:0,0:0:0:0:
216,256,66177,2,0,P|260:252|300:220,1,80,2|2,0:0|0:0,0:0:0:0:
324,160,66501,1,8,0:0:0:0:
144,176,66663,5,4,0:0:0:0:
372,232,66988,1,2,0:0:0:0:
160,85,67150,1,12,0:0:0:0:
232,179,67312,1,2,0:0:0:0:
292,44,67474,2,0,L|332:64,3,40,2|2|2|2,0:0|0:0|0:0|0:0,0:0:0:0:
336,100,67799,2,0,L|380:124,3,40,2|2|2|2,0:0|0:0|0:0|0:0,0:0:0:0:
432,72,68123,6,0,P|452:116|384:200,1,160,4|8,0:0|0:0,0:0:0:0:
268,228,68609,1,2,0:0:0:0:
268,228,68690,1,2,0:0:0:0:
268,228,68771,1,2,0:0:0:0:
244,104,68933,1,2,0:0:0:0:
372,124,69095,1,8,0:0:0:0:
264,312,69258,6,0,P|192:260|204:176,1,160,2|2,0:0|0:0,0:0:0:0:
244,104,69744,1,8,0:0:0:0:
268,228,69906,1,0,0:0:0:0:
192,195,70068,1,2,0:0:0:0:
372,124,70230,1,2,0:0:0:0:
344,260,70393,1,8,0:0:0:0:
244,104,70555,1,0,0:0:0:0:
424,60,70717,6,0,P|450:102|448:156,1,80,2|2,0:0|0:0,0:0:0:0:
268,280,71041,2,0,P|268:244|292:200,1,80,8|0,0:0|0:0,0:0:0:0:
372,124,71366,1,2,0:0:0:0:
372,124,71528,1,2,0:0:0:0:
344,260,71690,1,8,0:0:0:0:
424,60,71853,2,0,P|456:120|384:208,1,160,2|2,0:0|0:0,0:0:0:0:
192,112,72339,1,8,0:0:0:0:
344,260,72501,1,0,0:0:0:0:
300,328,72663,6,0,P|268:292|263:260,1,80,2|2,0:0|0:0,0:0:0:0:
260,180,72987,1,8,0:0:0:0:
344,176,73149,1,0,0:0:0:0:
148,44,73312,6,0,P|228:36|272:112,1,160,4|8,0:0|0:0,0:0:0:0:
180,188,73798,1,2,0:0:0:0:
180,188,73879,1,2,0:0:0:0:
180,188,73960,1,2,0:0:0:0:
80,112,74122,1,2,0:0:0:0:
40,232,74285,1,8,0:0:0:0:
276,356,74447,6,0,L|116:272,1,160,2|2,0:0|0:0,0:0:0:0:
40,232,74933,1,8,0:0:0:0:
180,188,75095,1,0,0:0:0:0:
134,281,75258,1,2,0:0:0:0:
80,112,75420,1,2,0:0:0:0:
288,264,75582,1,8,0:0:0:0:
134,281,75744,1,0,0:0:0:0:
312,148,75907,2,0,P|344:88|288:16,2,160,2|8|2,0:0|0:0|0:0,0:0:0:0:
124,48,76717,1,2,0:0:0:0:
260,88,76879,5,8,0:0:0:0:
56,104,77041,2,0,P|14:168|42:240,1,160,2|2,0:0|0:0,0:0:0:0:
176,192,77528,1,8,0:0:0:0:
124,260,77690,1,0,0:0:0:0:
42,240,77852,1,2,0:0:0:0:
96,180,78015,1,2,0:0:0:0:
160,336,78176,5,8,0:0:0:0:
236,360,78339,2,0,L|276:360,1,40,2|2,0:0|0:0,0:0:0:0:
380,312,78501,2,0,P|406:240|359:180,1,160,4|8,0:0|0:0,0:0:0:0:
239,161,78987,1,0,0:0:0:0:
291,225,79149,1,2,0:0:0:0:
307,121,79312,1,2,0:0:0:0:
359,180,79474,1,8,0:0:0:0:
184,216,79636,6,0,P|163:142|214:85,1,160,4|2,0:0|0:0,0:0:0:0:
307,121,80122,1,8,0:0:0:0:
184,216,80285,2,0,L|136:216,1,40,0|0,0:0|0:0,0:0:0:0:
60,212,80447,2,0,L|40:124,1,80,2|2,0:0|0:0,0:0:0:0:
24,52,80771,1,8,0:0:0:0:
108,84,80933,1,0,0:0:0:0:
340,44,81095,6,0,L|168:116,1,160,4|8,0:0|0:0,0:0:0:0:
180,240,81582,2,0,L|180:284,1,40,2|2,0:0|0:0,0:0:0:0:
160,360,81744,2,0,P|200:360|244:324,1,80,2|2,0:0|0:0,0:0:0:0:
280,268,82068,1,8,0:0:0:0:
80,204,82230,5,4,0:0:0:0:
368,100,82555,5,4,0:0:0:0:
168,32,82880,2,0,L|160:88,1,40,2|2,0:0|0:0,0:0:0:0:
160,96,83042,5,2,0:0:0:0:
156,124,83123,1,2,0:0:0:0:
152,156,83204,1,2,0:0:0:0:
148,184,83285,1,2,0:0:0:0:
144,212,83366,1,2,0:0:0:0:
140,240,83447,1,2,0:0:0:0:
136,268,83528,1,2,0:0:0:0:
316,280,83691,6,0,P|316:236|228:160,1,160,4|8,0:0|0:0,0:0:0:0:
144,212,84177,1,0,0:0:0:0:
236,161,84339,2,0,P|256:125|264:81,1,80,2|2,0:0|0:0,0:0:0:0:
144,212,84663,1,8,0:0:0:0:
284,224,84826,2,0,P|328:148|336:52,1,160,2|2,0:0|0:0,0:0:0:0:
240,28,85312,1,8,0:0:0:0:
160,104,85474,1,0,0:0:0:0:
12,48,85636,2,0,P|60:24|104:24,1,80,2|2,0:0|0:0,0:0:0:0:
160,104,85961,1,8,0:0:0:0:
124,340,86285,6,0,L|64:160,1,160,2|8,0:0|0:0,0:0:0:0:
40,80,86772,1,2,0:0:0:0:
144,120,86934,2,0,L|172:200,1,80,2|2,0:0|0:0,0:0:0:0:
40,80,87258,1,8,0:0:0:0:
208,64,87420,2,0,L|272:244,1,160,2|2,0:0|0:0,0:0:0:0:
300,320,87907,1,8,0:0:0:0:
364,228,88069,1,0,0:0:0:0:
261,214,88231,6,0,P|216:236|200:272,1,80,2|2,0:0|0:0,0:0:0:0:
420,296,88555,1,8,0:0:0:0:
300,320,88718,1,0,0:0:0:0:
420,296,88880,6,0,P|444:256|400:148,1,160,4|8,0:0|0:0,0:0:0:0:
320,88,89366,1,0,0:0:0:0:
232,160,89528,2,0,P|228:200|252:240,1,80,2|2,0:0|0:0,0:0:0:0:
332,308,89853,1,8,0:0:0:0:
160,128,90015,6,0,P|148:180|192:292,1,160,2|2,0:0|0:0,0:0:0:0:
332,308,90501,1,8,0:0:0:0:
180,278,90663,1,0,0:0:0:0:
308,180,90826,1,2,0:0:0:0:
216,356,90988,1,2,0:0:0:0:
160,132,91150,1,8,0:0:0:0:
245,234,91312,1,0,0:0:0:0:
80,104,91474,6,0,P|116:60|212:64,1,160,2|8,0:0|0:0,0:0:0:0:
304,132,91961,1,2,0:0:0:0:
304,132,92042,1,2,0:0:0:0:
304,132,92123,1,2,0:0:0:0:
160,132,92285,1,2,0:0:0:0:
292,48,92447,1,8,0:0:0:0:
200,208,92609,6,0,P|176:264|80:268,1,160,2|2,0:0|0:0,0:0:0:0:
124,204,93096,1,8,0:0:0:0:
280,304,93258,1,2,0:0:0:0:
280,304,93339,1,2,0:0:0:0:
280,304,93420,1,2,0:0:0:0:
85,272,93582,5,2,0:0:0:0:
308,216,93745,1,2,0:0:0:0:
76,128,93907,1,2,0:0:0:0:
216,360,94069,5,6,3:2:0:0:
136,64,94231,1,6,3:2:0:0:
128,344,94555,5,6,3:2:0:0:
216,32,94718,1,6,3:2:0:0:
85,272,95042,5,6,3:2:0:0:
292,72,95204,1,6,3:2:0:0:
256,192,95285,12,0,97961,0:0:0:0:
