osu file format v14

[General]
AudioFilename: audio.mp3
AudioLeadIn: 0
PreviewTime: 51907
Countdown: 0
SampleSet: Soft
StackLeniency: 0.7
Mode: 0
LetterboxInBreaks: 0
WidescreenStoryboard: 0

[Editor]
DistanceSpacing: 1.4
BeatDivisor: 2
GridSize: 16
TimelineZoom: 1.4

[Metadata]
Title:Passion
TitleUnicode:Passion
Artist:Duca
ArtistUnicode:Duca
Creator:Dored
Version:Ametrin's Easy.
Source:コドモノアソビ
Tags:Kodomo no Asobi Galgame Eroge Opening Short Version Lump of Sugar Ametrin gary00737 [Kamiya] Yugu Suzuki_1112 Fushimi Rio imoutosan
BeatmapID:1532077
BeatmapSetID:720081

[Difficulty]
HPDrainRate:2
CircleSize:2.5
OverallDifficulty:2
ApproachRate:3
SliderMultiplier:0.599999999999999
SliderTickRate:1

[Events]
//Background and Video events
0,0,"Low Diff.jpg",0,0
//Break Periods
//Storyboard Layer 0 (Background)
//Storyboard Layer 1 (Fail)
//Storyboard Layer 2 (Pass)
//Storyboard Layer 3 (Foreground)
//Storyboard Sound Samples

[TimingPoints]
664,324.324324324324,4,2,1,40,1,0
5853,-100,4,2,2,55,0,0
11042,-100,4,2,1,60,0,0
31799,-100,4,2,1,65,0,0
52555,-100,4,2,1,75,0,1
66826,-100,4,2,1,70,0,0
68123,-100,4,2,1,75,0,1
83691,-100,4,2,1,65,0,0
94069,-100,4,2,1,70,0,0
95690,-100,4,2,1,50,0,0
96015,-100,4,2,1,45,0,0
96339,-100,4,2,1,40,0,0
96663,-100,4,2,1,35,0,0
96988,-100,4,2,1,30,0,0
97312,-100,4,2,1,25,0,0
97636,-100,4,2,1,20,0,0
97961,-100,4,2,1,15,0,0

[Colours]
Combo1 : 128,128,255
Combo2 : 255,255,128
Combo3 : 255,128,255
Combo4 : 192,192,192

[HitObjects]
256,192,664,12,0,4393,0:0:0:0:
254,113,5853,6,0,P|318:104|354:93,1,89.9999999999999,2|2,0:0|0:0,0:0:0:0:
407,44,6663,1,2,0:0:0:0:
473,95,6988,2,0,P|450:203|441:296,1,180,2|2,0:0|0:0,0:0:0:0:
348,355,8447,6,0,P|339:301|338:239,1,89.9999999999999,2|2,0:0|0:0,0:0:0:0:
339,181,9258,1,2,0:0:0:0:
262,214,9582,2,0,B|155:231|201:159|77:178,1,180,2|2,0:0|0:0,0:0:0:0:
44,293,11042,5,4,0:0:0:0:
81,367,11366,2,0,P|125:300|112:247,1,120,8|8,0:0|0:0,0:0:0:0:
276,202,12663,2,0,P|262:279|261:324,1,120,8|8,0:0|0:0,0:0:0:0:
323,376,13636,5,2,0:0:0:0:
396,334,13961,2,0,B|449:306|449:306|524:324,1,120,8|8,0:0|0:0,0:0:0:0:
485,153,15258,2,0,B|432:181|432:181|357:163,1,120,8|8,0:0|0:0,0:0:0:0:
333,92,16231,5,4,0:0:0:0:
250,108,16555,2,0,P|223:162|250:228,1,120,8|8,0:0|0:0,0:0:0:0:
370,321,17853,2,0,P|301:329|230:360,1,120,8|8,0:0|0:0,0:0:0:0:
173,322,18826,5,2,0:0:0:0:
89,333,19150,2,0,P|58:270|74:217,1,120,8|8,0:0|0:0,0:0:0:0:
221,153,20447,2,0,P|252:216|236:269,1,120,8|8,0:0|0:0,0:0:0:0:
253,346,21420,5,4,0:0:0:0:
322,298,21745,2,0,P|388:281|466:277,1,120,8|8,0:0|0:0,0:0:0:0:
507,122,23042,2,0,P|441:105|363:101,1,120,8|8,0:0|0:0,0:0:0:0:
330,160,24015,5,2,0:0:0:0:
246,149,24339,2,0,P|216:100|239:34,1,120,8|8,0:0|0:0,0:0:0:0:
67,4,25636,2,0,P|79:74|85:135,1,120,8|8,0:0|0:0,0:0:0:0:
25,182,26609,5,4,0:0:0:0:
72,251,26934,2,0,B|115:274|115:274|199:260,1,120,8|8,0:0|0:0,0:0:0:0:
280,123,28231,2,0,B|323:100|323:100|407:114,1,120,8|8,0:0|0:0,0:0:0:0:
468,148,29204,5,2,0:0:0:0:
410,209,29528,2,0,P|399:288|397:337,1,120,8|8,0:0|0:0,0:0:0:0:
238,383,30826,2,0,P|227:304|225:255,1,120,8|8,0:0|0:0,0:0:0:0:
262,188,31799,5,4,0:0:0:0:
201,129,32123,2,0,P|139:113|85:153,1,120,8|8,0:0|0:0,0:0:0:0:
63,169,32934,2,0,P|67:237|72:275,1,89.9999999999999,2|2,0:0|0:0,0:0:0:0:
211,348,34069,1,8,0:0:0:0:
292,328,34393,5,2,0:0:0:0:
373,305,34718,2,0,P|376:222|383:165,1,120,8|8,0:0|0:0,0:0:0:0:
398,148,35528,2,0,P|334:138|230:125,1,150,2|2,0:0|0:0,0:0:0:0:
245,295,36988,5,4,0:0:0:0:
161,308,37312,2,0,P|92:300|26:272,1,120,8|8,0:0|0:0,0:0:0:0:
16,251,38123,2,0,P|11:217|9:145,1,89.9999999999999,2|2,0:0|0:0,0:0:0:0:
134,50,39258,1,8,0:0:0:0:
217,43,39582,5,2,0:0:0:0:
300,35,39907,2,0,B|318:93|318:93|308:151,1,120,8|8,0:0|0:0,0:0:0:0:
280,183,40718,2,0,B|258:253|258:253|281:326,1,150,2|2,0:0|0:0,0:0:0:0:
448,349,42177,5,4,0:0:0:0:
454,264,42501,2,0,P|461:189|465:141,1,120,8|8,0:0|0:0,0:0:0:0:
469,102,43312,2,0,P|419:85|380:77,1,89.9999999999999,2|2,0:0|0:0,0:0:0:0:
216,49,44447,1,8,0:0:0:0:
228,132,44772,5,2,0:0:0:0:
240,214,45096,2,0,P|172:224|105:231,1,120,8|8,0:0|0:0,0:0:0:0:
91,199,45907,2,0,P|97:255|107:366,1,150,2|2,0:0|0:0,0:0:0:0:
270,378,47366,5,4,0:0:0:0:
316,308,47691,2,0,P|370:282|436:294,1,120,8|8,0:0|0:0,0:0:0:0:
466,306,48501,2,0,P|481:271|479:199,1,89.9999999999999,2|2,0:0|0:0,0:0:0:0:
454,54,49636,1,8,0:0:0:0:
378,90,49961,6,0,L|268:73,1,89.9999999999999,4|10,0:0|0:0,0:0:0:0:
210,46,50772,1,10,0:0:0:0:
171,120,51096,2,0,L|176:221,1,89.9999999999999,10|10,0:0|0:0,0:0:0:0:
386,346,52555,6,0,P|346:273|244:294,1,180,4|8,0:0|0:0,0:0:0:0:
208,346,53853,2,0,P|169:355|125:363,1,59.9999999999999,2|8,0:0|0:0,0:0:0:0:
104,287,54501,2,0,P|65:278|21:270,1,59.9999999999999,2|8,0:0|0:0,0:0:0:0:
7,199,55150,6,0,P|0:142|48:80,1,120,2|2,0:0|0:0,0:0:0:0:
114,103,56123,1,8,0:0:0:0:
196,124,56447,2,0,P|203:181|155:243,1,120,2|2,0:0|0:0,0:0:0:0:
60,359,57745,6,0,B|133:365|133:365|170:344|170:344|253:348,1,180,4|8,0:0|0:0,0:0:0:0:
314,373,59042,1,2,0:0:0:0:
377,318,59366,2,0,P|375:286|357:245,1,59.9999999999999,8|2,0:0|0:0,0:0:0:0:
308,198,60015,1,8,0:0:0:0:
355,129,60339,6,0,P|413:115|475:162,1,120,2|2,0:0|0:0,0:0:0:0:
491,222,61312,1,8,0:0:0:0:
444,291,61636,2,0,P|386:305|324:258,1,120,2|2,0:0|0:0,0:0:0:0:
213,161,62934,6,0,P|227:247|229:341,1,180,4|8,0:0|0:0,0:0:0:0:
200,370,64069,2,0,P|142:371|100:340,1,89.9999999999999,4|8,0:0|0:0,0:0:0:0:
62,290,64880,1,2,0:0:0:0:
107,219,65204,1,8,0:0:0:0:
60,149,65528,6,0,P|74:77|182:75,1,180,4|8,0:0|0:0,0:0:0:0:
195,95,66663,2,0,P|246:101|302:93,1,89.9999999999999,4|12,0:0|0:0,0:0:0:0:
479,256,68123,6,0,B|473:197|473:197|506:145|506:145|497:60,1,180,4|8,0:0|0:0,0:0:0:0:
442,24,69420,2,0,P|408:16|363:15,1,59.9999999999999,2|8,0:0|0:0,0:0:0:0:
321,71,70069,2,0,P|287:79|242:80,1,59.9999999999999,2|8,0:0|0:0,0:0:0:0:
180,59,70718,6,0,P|137:102|139:168,1,120,2|2,0:0|0:0,0:0:0:0:
173,233,71691,1,8,0:0:0:0:
253,257,72015,2,0,P|296:214|294:148,1,120,2|2,0:0|0:0,0:0:0:0:
444,74,73312,6,0,P|449:167|466:280,1,180,4|8,0:0|0:0,0:0:0:0:
509,321,74609,1,2,0:0:0:0:
442,373,74934,2,0,P|414:374|368:359,1,59.9999999999999,8|2,0:0|0:0,0:0:0:0:
309,326,75582,1,8,0:0:0:0:
225,332,75907,6,0,B|201:277|201:277|216:193,1,120,2|2,0:0|0:0,0:0:0:0:
290,187,76880,1,8,0:0:0:0:
371,165,77204,2,0,B|395:220|395:220|380:304,1,120,2|2,0:0|0:0,0:0:0:0:
225,332,78501,6,0,L|39:306,1,180,4|8,0:0|0:0,0:0:0:0:
14,279,79636,2,0,P|4:233|15:188,1,89.9999999999999,4|8,0:0|0:0,0:0:0:0:
82,144,80447,1,2,0:0:0:0:
160,173,80772,1,8,0:0:0:0:
227,123,81096,6,0,P|293:110|357:192,1,180,4|8,0:0|0:0,0:0:0:0:
354,232,82231,2,0,P|347:271|343:313,1,59.9999999999999,4|2,0:0|0:0,0:0:0:0:
265,319,82880,2,0,P|272:358|276:400,1,59.9999999999999,2|2,0:0|0:0,0:0:0:0:
400,372,83691,5,4,0:0:0:0:
256,192,84339,12,0,87582,0:0:0:0:
97,290,88880,6,0,L|82:154,1,120,4|2,0:0|0:0,0:0:0:0:
41,98,89853,1,8,0:0:0:0:
93,33,90177,2,0,P|129:31|176:22,1,59.9999999999999,2|8,0:0|0:0,0:0:0:0:
222,75,90826,2,0,P|258:77|305:86,1,59.9999999999999,2|8,0:0|0:0,0:0:0:0:
358,47,91474,6,0,P|428:69|436:171,1,180,2|8,0:0|0:0,0:0:0:0:
418,201,92609,2,0,L|308:209,1,89.9999999999999,2|8,0:0|0:0,0:0:0:0:
246,188,93420,2,0,L|239:106,1,59.9999999999999,2|2,0:0|0:0,0:0:0:0:
276,52,94069,5,8,3:2:0:0:
150,63,94555,1,8,3:2:0:0:
24,76,95042,1,4,3:2:0:0:
256,192,95690,12,0,97961,0:0:0:0:
