osu file format v14

[General]
AudioFilename: audio.mp3
AudioLeadIn: 0
PreviewTime: 76036
Countdown: 0
SampleSet: Soft
StackLeniency: 0.4
Mode: 0
LetterboxInBreaks: 0
WidescreenStoryboard: 1

[Editor]
DistanceSpacing: 0.4
BeatDivisor: 4
GridSize: 4
TimelineZoom: 1.2

[Metadata]
Title:Nekoichi
TitleUnicode:ネコイチ
Artist:Duca
ArtistUnicode:Duca
Creator:Nozhomi
Version:Shapy's Hard
Source:ネコぱら Vol.3 ネコたちのアロマティゼ
Tags:nekopara neko-tachi no aromatize eroge opening vn visual novel neko works sekai project sayori catgirl Shapy Perklone [-R1] Catgirl Bulldog
BeatmapID:1314869
BeatmapSetID:619489

[Difficulty]
HPDrainRate:5
CircleSize:4
OverallDifficulty:6
ApproachRate:7
SliderMultiplier:1.6
SliderTickRate:1

[Events]
//Background and Video events
0,0,"meow.jpg",0,0
Video,-1865,"Nekovol3_OP.avi"
//Break Periods
//Storyboard Layer 0 (Background)
//Storyboard Layer 1 (Fail)
//Storyboard Layer 2 (Pass)
//Storyboard Layer 3 (Foreground)
//Storyboard Sound Samples

[TimingPoints]
460,461.538461538462,4,2,1,60,1,0
460,-125,4,2,1,60,0,0
14767,-100,4,2,1,80,0,0
29536,-100,4,2,1,60,0,0
44767,-100,4,2,1,70,0,0
66921,-125,4,2,1,70,0,0
70613,-100,4,2,1,70,0,0
76152,-100,4,2,1,85,0,1
94613,-100,4,2,1,80,0,0
95075,-100,4,2,1,50,0,0
95767,-100,4,2,1,60,0,0
96460,-100,4,2,1,80,0,1
98306,-100,4,2,1,80,0,0

[Colours]
Combo1 : 251,196,68
Combo2 : 113,185,198
Combo3 : 255,112,34
Combo4 : 146,126,197

[HitObjects]
157,121,460,6,0,B|135:75|151:42|151:42|162:42|198:90,1,128,2|0,0:0|0:0,0:0:0:0:
353,121,1383,2,0,B|375:75|359:42|359:42|348:42|325:72,1,128,2|0,0:0|0:0,0:0:0:0:
255,135,2075,5,0,0:0:0:0:
256,211,2306,2,0,L|260:297,1,64,2|0,0:0|0:0,0:0:0:0:
327,320,2767,2,0,L|329:256,1,64
327,185,3229,6,0,P|288:142|206:153,1,128,2|0,0:0|0:0,0:0:0:0:
160,188,3921,1,0,0:0:0:0:
87,168,4152,2,0,P|74:137|70:107,1,64,2|0,0:0|0:0,0:0:0:0:
118,47,4613,2,0,P|148:47|184:55,1,64
231,112,5075,6,0,B|253:158|237:191|237:191|226:191|203:160,1,128,2|0,0:0|0:0,0:0:0:0:
361,116,5998,2,0,B|339:162|355:195|355:195|366:195|389:165,1,128,2|0,0:0|0:0,0:0:0:0:
494,276,6921,2,0,P|498:304|490:350,1,64,2|0,0:0|0:0,0:0:0:0:
417,352,7383,1,0,0:0:0:0:
355,285,7613,1,2,0:0:0:0:
355,285,7729,1,2,0:0:0:0:
355,285,7844,6,0,B|385:249|372:213|372:213|356:207|323:224,1,128,2|0,0:0|0:0,0:0:0:0:
182,283,8767,2,0,B|151:247|164:211|164:211|180:205|213:222,1,128,2|0,0:0|0:0,0:0:0:0:
266,275,9460,1,0,0:0:0:0:
236,345,9690,2,0,P|200:360|172:362,1,64,2|0,0:0|0:0,0:0:0:0:
105,329,10152,2,0,L|91:252,1,64,2|0,0:0|0:0,0:0:0:0:
132,172,10613,6,0,B|163:155|179:161|179:161|192:197|162:233,1,128,2|0,0:0|0:0,0:0:0:0:
331,171,11536,2,0,B|299:154|283:160|283:160|270:196|300:232,1,128,2|0,0:0|0:0,0:0:0:0:
355,285,12229,1,0,0:0:0:0:
428,264,12460,2,0,L|442:201,1,64,2|0,0:0|0:0,0:0:0:0:
465,132,12921,2,0,P|437:120|388:125,1,64,2|0,0:0|0:0,0:0:0:0:
320,117,13383,6,0,P|284:65|332:34,1,128,2|0,0:0|0:0,0:0:0:0:
421,35,14075,1,2,0:0:0:0:
421,35,14190,1,2,0:0:0:0:
421,35,14306,1,10,0:0:0:0:
154,84,14767,2,0,L|157:132,3,40,10|2|10|2,0:0|0:0|0:0|0:0,0:0:0:0:
160,155,15229,6,0,L|167:238,1,80,6|2,3:2|0:0,0:0:0:0:
206,313,15690,1,10,0:0:0:0:
276,259,15921,2,0,P|313:250|433:304,1,160,2|2,0:0|0:0,0:0:0:0:
480,359,16613,1,10,0:0:0:0:
507,275,16844,2,0,L|490:101,1,160,2|0,0:0|0:0,0:0:0:0:
433,49,17536,1,8,0:0:0:0:
368,109,17767,5,2,0:0:0:0:
368,109,17883,1,2,0:0:0:0:
368,109,17998,2,0,P|379:154|369:193,1,80,2|2,3:2|0:0,0:0:0:0:
319,258,18460,2,0,P|308:303|318:342,1,80,10|2,0:0|0:0,0:0:0:0:
393,301,18921,2,0,P|427:310|482:293,1,80,2|2,3:2|0:0,0:0:0:0:
431,220,19383,1,10,0:0:0:0:
351,182,19613,6,0,P|272:193|236:261,1,160,2|2,0:0|0:0,0:0:0:0:
236,346,20306,1,10,0:0:0:0:
149,333,20536,2,0,P|86:282|91:206,1,160,2|0,0:0|0:0,0:0:0:0:
122,126,21229,2,0,P|158:119|202:123,1,80,8|2,0:0|0:0,0:0:0:0:
284,151,21690,1,2,3:2:0:0:
368,126,21921,1,2,0:0:0:0:
445,167,22152,1,8,0:0:0:0:
399,242,22383,1,8,0:0:0:0:
399,242,22498,1,8,0:0:0:0:
399,242,22613,6,0,P|356:241|314:243,1,80,6|2,0:0|0:0,0:0:0:0:
235,272,23075,1,10,0:0:0:0:
163,221,23306,2,0,B|136:162|166:92|166:92|184:121,1,160,2|2,0:0|0:0,0:0:0:0:
250,180,23998,1,10,0:0:0:0:
235,272,24229,2,0,P|157:310|91:274,1,160,2|0,0:0|0:0,0:0:0:0:
30,221,24921,1,8,0:0:0:0:
5,137,25152,5,2,0:0:0:0:
5,137,25267,1,2,0:0:0:0:
5,137,25383,2,0,P|18:94|45:65,1,80,2|2,3:2|0:0,0:0:0:0:
120,31,25844,1,10,0:0:0:0:
132,118,26075,1,2,0:0:0:0:
89,195,26306,2,0,P|82:240|174:249,1,160,2|10,3:2|0:0,0:0:0:0:
218,177,26998,2,0,P|288:163|300:234,1,160,2|2,0:0|0:0,0:0:0:0:
274,318,27690,1,10,0:0:0:0:
355,277,27921,6,0,P|379:199|338:114,1,160,4|10,0:0|0:0,0:0:0:0:
263,138,28613,1,10,0:0:0:0:
177,181,28844,1,10,0:0:0:0:
85,166,29075,1,10,0:0:0:0:
85,166,29536,6,0,P|75:123|86:80,1,80,0|0,3:2|0:0,0:0:0:0:
172,36,29998,2,0,P|241:39|338:91,1,160,4|0,0:0|3:2,0:0:0:0:
378,137,30690,1,0,0:0:0:0:
321,193,30921,2,0,P|322:251|352:307,2,120,0|2|2,3:2|0:0|0:0,0:0:0:0:
378,137,31844,6,0,L|215:150,1,160,0|0,3:2|3:2,0:0:0:0:
139,165,32536,1,0,0:0:0:0:
60,148,32767,2,0,P|58:82|90:40,2,120,0|2|2,3:2|0:0|0:0,0:0:0:0:
60,228,33690,6,0,P|84:273|143:206,1,160,0|0,3:2|3:2,0:0:0:0:
138,141,34383,1,0,0:0:0:0:
127,61,34613,2,0,P|163:51|215:43,1,80,0|0,3:2|0:0,0:0:0:0:
283,38,35075,1,0,3:2:0:0:
363,38,35306,6,0,P|437:69|474:155,1,160
440,209,35998,1,0,3:2:0:0:
382,264,36229,1,0,0:0:0:0:
382,264,36344,1,0,0:0:0:0:
382,264,36460,1,0,3:2:0:0:
311,226,36690,1,0,0:0:0:0:
236,196,36921,2,0,P|189:198|156:204,1,80,0|0,3:2|0:0,0:0:0:0:
45,129,37383,6,0,P|84:135|124:136,1,80,0|0,3:2|0:0,0:0:0:0:
199,108,37844,1,0,3:0:0:0:
277,129,38075,2,0,P|311:178|268:269,1,160
213,314,38767,1,0,3:0:0:0:
284,350,38998,1,0,0:0:0:0:
355,314,39229,6,0,P|395:230|389:149,1,160,0|0,3:0|3:0,0:0:0:0:
358,93,39921,2,0,L|188:108,1,160
132,152,40613,2,0,P|126:190|130:236,1,80,0|0,3:0|0:0,0:0:0:0:
195,299,41075,6,0,L|365:314,1,160,0|0,3:0|3:0,0:0:0:0:
398,376,41767,2,0,P|426:297|372:238,1,160
303,226,42460,1,0,3:0:0:0:
247,168,42690,1,0,0:0:0:0:
237,88,42921,2,0,P|293:62|369:114,1,160,0|0,3:0|3:0,0:0:0:0:
396,187,43613,1,0,0:0:0:0:
415,264,43844,2,0,P|457:234|471:159,2,120,8|8|8,0:0|0:0|0:0,0:0:0:0:
287,283,44767,6,0,P|229:287|180:200,1,160,4|8,0:0|0:0,0:0:0:0:
178,112,45460,1,0,0:0:0:0:
103,157,45690,2,0,P|92:99|126:40,2,120,0|2|2,3:2|0:0|0:0,0:0:0:0:
178,112,46613,2,0,L|266:105,1,80,0|0,3:2|0:0,0:0:0:0:
308,33,47075,2,0,L|228:26,1,80,8|0,0:0|0:0,0:0:0:0:
128,31,47536,2,0,P|49:37|2:58,2,120,0|2|2,3:2|0:0|0:0,0:0:0:0:
178,112,48460,5,0,3:2:0:0:
158,197,48690,1,0,0:0:0:0:
249,160,48921,2,0,P|307:160|333:172,1,80,8|0,0:0|0:0,0:0:0:0:
396,221,49383,2,0,L|383:306,1,80,0|0,3:2|0:0,0:0:0:0:
299,323,49844,2,0,L|286:243,1,80,8|0,0:0|0:0,0:0:0:0:
249,160,50306,6,0,P|172:186|134:263,1,160,0|8,3:2|0:0,0:0:0:0:
139,339,50998,1,0,0:0:0:0:
139,339,51113,1,0,0:0:0:0:
139,339,51229,2,0,P|83:338|59:326,1,80,0|0,3:2|0:0,0:0:0:0:
15,253,51690,2,0,P|11:206|17:172,1,80,8|0,0:0|0:0,0:0:0:0:
77,109,52152,5,0,3:2:0:0:
151,156,52383,1,0,0:0:0:0:
220,102,52613,2,0,P|250:115|288:158,1,80,8|0,0:0|0:0,0:0:0:0:
325,225,53075,2,0,P|351:254|387:271,1,80,0|0,3:2|0:0,0:0:0:0:
475,265,53536,1,8,0:0:0:0:
465,177,53767,1,0,0:0:0:0:
465,177,53883,1,0,0:0:0:0:
465,177,53998,6,0,P|498:104|444:26,1,160,0|8,3:2|0:0,0:0:0:0:
411,108,54690,2,0,B|366:111|366:111|301:97|301:97|238:99,1,160
164,99,55383,1,8,0:0:0:0:
86,140,55613,1,0,0:0:0:0:
54,222,55844,6,0,B|56:276|77:330|77:330|92:312|109:271,1,160,0|8,3:2|0:0,0:0:0:0:
161,220,56536,2,0,P|206:217|336:258,1,160
387,297,57229,1,8,0:0:0:0:
307,334,57460,1,0,0:0:0:0:
316,246,57690,6,0,P|313:205|302:156,1,80,0|0,3:2|0:0,0:0:0:0:
242,102,58152,1,8,0:0:0:0:
167,54,58383,1,0,0:0:0:0:
167,54,58498,1,0,0:0:0:0:
167,54,58613,2,0,P|154:88|159:137,1,80,0|8,3:2|0:0,0:0:0:0:
204,222,59075,1,8,0:0:0:0:
204,222,59190,1,8,0:0:0:0:
204,222,59306,1,8,0:0:0:0:
274,274,59536,6,0,P|360:273|442:284,2,160,4|8|0,0:0|0:0|3:2,0:0:0:0:
192,239,60690,1,0,0:0:0:0:
253,176,60921,2,0,P|294:172|353:182,1,80,8|0,0:0|0:0,0:0:0:0:
418,221,61383,6,0,P|428:181|418:133,1,80,0|0,3:2|0:0,0:0:0:0:
334,87,61844,2,0,P|294:91|254:87,1,80,8|0,0:0|0:0,0:0:0:0:
181,137,62306,2,0,P|172:175|177:215,1,80,0|0,3:2|0:0,0:0:0:0:
229,286,62767,1,8,0:0:0:0:
155,334,62998,1,0,0:0:0:0:
74,297,63229,6,0,L|66:127,1,160,0|8,3:2|0:0,0:0:0:0:
96,54,63921,1,0,0:0:0:0:
143,128,64152,2,0,L|148:222,1,80,0|0,3:2|0:0,0:0:0:0:
230,236,64613,2,0,L|225:156,1,80,8|0,0:0|0:0,0:0:0:0:
276,83,65075,6,0,P|347:123|385:210,1,160,0|8,3:2|0:0,0:0:0:0:
386,278,65767,1,0,0:0:0:0:
318,335,65998,2,0,P|264:338|231:332,1,80,0|8,3:2|0:0,0:0:0:0:
164,285,66460,1,8,0:0:0:0:
125,206,66690,1,0,0:0:0:0:
125,206,66806,1,0,0:0:0:0:
125,206,66921,6,0,P|76:181|13:183,2,96,2|0|0,3:2|0:0|3:2,0:0:0:0:
196,177,67844,2,0,P|188:115|194:65,2,96,2|0|0,0:0|0:0|0:0,0:0:0:0:
265,210,68767,2,0,P|306:186|354:182,2,96,2|0|0,3:2|0:0|3:2,0:0:0:0:
276,284,69690,2,0,P|339:280|392:246,1,128,2|2,0:0|0:0,0:0:0:0:
396,10,70613,5,4,3:2:0:0:
440,95,70844,1,0,0:0:0:0:
467,185,71075,2,0,P|468:223|463:267,1,80,0|0,3:2|0:0,0:0:0:0:
373,228,71536,2,0,P|369:189|369:149,1,80,0|0,3:2|0:0,0:0:0:0:
316,69,71998,2,0,P|282:89|243:99,1,80,0|0,3:2|0:0,0:0:0:0:
154,61,72460,6,0,P|122:41|67:30,1,80,0|0,3:2|0:0,0:0:0:0:
85,126,72921,2,0,P|83:160|96:219,1,80,8|0,0:0|0:0,0:0:0:0:
155,276,73383,1,0,3:2:0:0:
206,193,73613,1,8,0:0:0:0:
178,101,73844,1,8,0:0:0:0:
178,101,73960,1,8,0:0:0:0:
178,101,74075,1,8,0:0:0:0:
278,129,74306,6,0,P|307:168|322:247,2,120,10|10|10,0:0|0:0|0:0,0:0:0:0:
200,56,75229,1,10,0:0:0:0:
425,311,76152,6,0,P|346:314|257:341,1,160,4|10,0:0|0:0,0:0:0:0:
176,309,76844,1,0,0:0:0:0:
252,246,77075,2,0,P|331:243|420:216,1,160,2|10,3:2|0:0,0:0:0:0:
474,151,77767,1,0,0:0:0:0:
406,83,77998,2,0,P|361:83|324:93,1,80,2|0,3:2|0:0,0:0:0:0:
233,114,78460,2,0,P|194:123|154:122,1,80,10|0,0:0|0:0,0:0:0:0:
63,91,78921,6,0,L|46:274,1,160,2|10,3:2|0:0,0:0:0:0:
94,334,79613,1,0,0:0:0:0:
180,291,79844,2,0,P|187:248|177:202,1,80,2|0,3:2|0:0,0:0:0:0:
154,122,80306,2,0,P|147:82|154:43,1,80,10|0,0:0|0:0,0:0:0:0:
245,82,80767,2,0,P|265:154|268:251,1,160,2|8,3:2|2:0,2:2:0:0:
273,335,81460,1,0,0:0:0:0:
362,296,81690,6,0,P|376:258|375:219,1,80,2|0,3:2|0:0,0:0:0:0:
314,122,82152,2,0,P|275:128|229:121,1,80,10|0,0:0|0:0,0:0:0:0:
274,26,82613,1,2,3:2:0:0:
375,51,82844,1,0,0:0:0:0:
422,143,83075,1,10,0:0:0:0:
424,247,83306,1,8,0:0:0:0:
424,247,83421,1,8,0:0:0:0:
424,247,83536,6,0,P|332:255|275:217,1,160,4|10,3:2|0:0,0:0:0:0:
202,147,84229,1,0,0:0:0:0:
121,88,84460,2,0,P|103:153|147:231,1,160,2|10,3:2|0:0,0:0:0:0:
220,304,85152,1,0,0:0:0:0:
129,337,85383,6,0,P|77:339|45:333,1,80,2|0,3:2|0:0,0:0:0:0:
66,227,85844,2,0,P|117:224|150:231,1,80,10|0,0:0|0:0,0:0:0:0:
220,304,86306,2,0,P|246:257|216:153,1,160,2|10,3:2|0:0,0:0:0:0:
133,109,86998,1,0,0:0:0:0:
221,71,87229,6,0,P|314:83|395:60,1,160,2|10,3:2|0:0,0:0:0:0:
451,6,87921,1,0,0:0:0:0:
469,100,88152,2,0,P|474:139|470:182,1,80,2|0,3:2|0:0,0:0:0:0:
398,243,88613,2,0,P|392:282|396:322,1,80,10|0,0:0|0:0,0:0:0:0:
299,356,89075,6,0,P|262:351|209:359,1,80,2|0,3:2|0:0,0:0:0:0:
125,376,89536,1,10,0:0:0:0:
44,323,89767,1,0,0:0:0:0:
132,284,89998,2,0,P|137:203|121:123,1,160,0|8,3:2|0:0,0:0:0:0:
37,90,90690,1,2,0:0:0:0:
113,32,90921,6,0,P|152:24|191:26,1,80,4|0,3:2|0:0,0:0:0:0:
283,35,91383,1,10,0:0:0:0:
361,89,91613,1,0,0:0:0:0:
285,148,91844,2,0,P|285:186|293:231,1,80,2|0,3:2|0:0,0:0:0:0:
377,271,92306,2,0,P|383:231|384:191,1,80,10|0,0:0|0:0,0:0:0:0:
361,89,92767,5,2,3:2:0:0:
283,35,92998,1,0,0:0:0:0:
212,100,93229,2,0,P|205:139|214:178,1,80,10|0,3:2|0:0,0:0:0:0:
255,264,93690,1,2,3:2:0:0:
255,264,93806,1,0,3:2:0:0:
255,264,93921,1,0,3:2:0:0:
347,301,94152,2,0,P|349:235|344:221,1,80,10|0,0:0|0:0,0:0:0:0:
321,129,94613,6,0,L|154:139,1,160,4|2,0:0|0:0,0:0:0:0:
97,205,95306,1,0,0:0:0:0:
20,147,95536,2,0,P|16:108|27:70,1,80,2|0,0:0|0:0,0:0:0:0:
117,24,95998,2,0,P|128:62|124:101,1,80,2|0,0:0|0:0,0:0:0:0:
97,205,96460,6,0,P|97:267|185:271,1,160,6|2,0:0|0:0,0:0:0:0:
240,202,97152,1,2,0:0:0:0:
240,202,97267,1,0,0:0:0:0:
240,202,97383,1,10,0:0:0:0:
428,127,97844,1,10,0:0:0:0:
428,127,97960,1,2,0:0:0:0:
428,127,98075,1,10,0:0:0:0:
428,127,98190,1,2,0:0:0:0:
428,127,98306,6,0,L|430:221,1,80,4|0,0:0|0:0,0:0:0:0:
386,293,98767,1,8,0:0:0:0:
314,233,98998,2,0,B|303:185|303:185|311:113|311:113|300:69,1,160,2|2,0:0|0:0,0:0:0:0:
223,35,99690,1,10,0:0:0:0:
145,77,99921,2,0,B|135:114|135:114|143:186|143:186|132:234,1,160,2|0,0:0|0:0,0:0:0:0:
64,289,100613,1,8,0:0:0:0:
128,348,100844,5,2,0:0:0:0:
128,348,100960,1,2,0:0:0:0:
128,348,101075,2,0,L|207:343,1,80,2|2,3:2|0:0,0:0:0:0:
286,302,101536,2,0,L|365:297,1,80,10|2,0:0|0:0,0:0:0:0:
444,255,101998,2,0,P|441:194|430:170,1,80,2|2,3:2|0:0,0:0:0:0:
366,120,102460,1,10,0:0:0:0:
283,90,102690,6,0,P|218:98|152:186,1,160,2|2,0:0|0:0,0:0:0:0:
156,253,103383,1,10,0:0:0:0:
197,330,103613,2,0,B|232:339|274:323|315:307|373:328,1,160,2|0,0:0|0:0,0:0:0:0:
437,356,104306,2,0,P|442:317|428:274,1,80,8|2,0:0|0:0,0:0:0:0:
372,212,104767,1,2,3:2:0:0:
342,129,104998,1,2,0:0:0:0:
370,45,105229,2,0,P|409:47|455:64,1,80,10|0,0:0|0:0,0:0:0:0:
292,59,105690,6,0,P|252:56|214:43,1,80,6|2,3:2|0:0,0:0:0:0:
131,11,106152,1,10,0:0:0:0:
56,57,106383,2,0,P|53:156|78:218,1,160,2|2,0:0|0:0,0:0:0:0:
146,262,107075,1,10,0:0:0:0:
216,208,107306,2,0,P|289:208|372:245,1,160,2|0,0:0|0:0,0:0:0:0:
427,307,107998,1,8,0:0:0:0:
471,230,108229,1,2,0:0:0:0:
471,230,108344,1,2,0:0:0:0:
471,230,108460,6,0,P|475:158|471:150,1,80,2|2,3:2|0:0,0:0:0:0:
406,95,108921,2,0,P|360:93|324:103,1,80,10|2,0:0|0:0,0:0:0:0:
264,164,109383,2,0,P|256:235|271:327,1,160,2|8,3:2|0:0,0:0:0:0:
341,373,110075,2,0,P|238:366|175:375,1,160,2|2,0:0|0:0,0:0:0:0:
101,338,110767,1,10,0:0:0:0:
51,264,110998,6,0,P|40:191|54:100,1,160,6|10,0:0|0:0,0:0:0:0:
146,55,111690,1,10,0:0:0:0:
237,105,111921,1,10,0:0:0:0:
147,158,112152,1,10,0:0:0:0:
