osu file format v14

[General]
AudioFilename: audio.mp3
AudioLeadIn: 0
PreviewTime: 76036
Countdown: 0
SampleSet: Soft
StackLeniency: 0.4
Mode: 0
LetterboxInBreaks: 0
WidescreenStoryboard: 0

[Editor]
Bookmarks: 15229,29998,44767,59536,76152,92767
DistanceSpacing: 1.1
BeatDivisor: 2
GridSize: 4
TimelineZoom: 1

[Metadata]
Title:Nekoichi
TitleUnicode:ネコイチ
Artist:Duca
ArtistUnicode:Duca
Creator:Nozhomi
Version:Perklone's Normal
Source:ネコぱら Vol.3 ネコたちのアロマティゼ
Tags:nekopara neko-tachi no aromatize eroge opening vn visual novel neko works sekai project sayori catgirl Shapy Perklone [-R1] Catgirl Bulldog
BeatmapID:1305784
BeatmapSetID:619489

[Difficulty]
HPDrainRate:4
CircleSize:3.5
OverallDifficulty:4
ApproachRate:5
SliderMultiplier:1.35
SliderTickRate:1

[Events]
//Background and Video events
0,0,"meow.jpg",0,0
Video,-1865,"Nekovol3_OP.avi"
//Break Periods
//Storyboard Layer 0 (Background)
//Storyboard Layer 1 (Fail)
//Storyboard Layer 2 (Pass)
//Storyboard Layer 3 (Foreground)
//Storyboard Sound Samples

[TimingPoints]
460,461.538461538462,4,2,1,60,1,0
14767,-100,4,2,1,80,0,0
15229,-100,4,2,1,80,0,0
29998,-100,4,2,1,60,0,0
44767,-100,4,2,1,70,0,0
66921,-100,4,2,1,70,0,0
70152,-100,4,2,1,70,0,0
76152,-100,4,2,1,85,0,1
94613,-100,4,2,1,80,0,0
95306,-100,4,2,1,50,0,0
95767,-100,4,2,1,60,0,0
96460,-100,4,2,1,80,0,1
98306,-100,4,2,1,80,0,0

[Colours]
Combo1 : 251,196,68
Combo2 : 113,185,198
Combo3 : 255,112,34
Combo4 : 146,126,197

[HitObjects]
72,308,460,6,0,B|128:332|128:332|220:332,1,135,2|2,0:0|0:0,0:0:0:0:
332,248,1383,2,0,B|276:224|276:224|188:224,1,135,2|0,0:0|0:0,0:0:0:0:
56,232,2306,1,2,0:0:0:0:
121,98,2767,1,2,0:0:0:0:
201,224,3229,2,0,P|261:240|337:220,1,135,2|0,0:0|0:0,0:0:0:0:
392,172,3921,1,2,0:0:0:0:
392,172,4152,6,0,B|408:108|408:108|386:42,1,135,2|2,0:0|0:0,0:0:0:0:
236,43,5075,2,0,B|220:107|220:107|244:179,1,135,2|2,0:0|0:0,0:0:0:0:
200,312,5998,2,0,P|263:291|327:310,1,135,2|2,0:0|0:0,0:0:0:0:
472,348,6921,2,0,L|464:280,1,67.5,2|0,0:0|0:0,0:0:0:0:
412,220,7383,1,2,0:0:0:0:
396,72,7844,6,0,P|328:52|264:84,1,135,2|2,0:0|0:0,0:0:0:0:
213,213,8767,2,0,P|275:233|337:208,1,135,2|2,0:0|0:0,0:0:0:0:
416,181,9460,1,2,0:0:0:0:
416,181,9690,6,0,P|404:261|348:293,1,135,2|2,0:0|0:0,0:0:0:0:
216,297,10613,1,2,0:0:0:0:
140,172,11075,1,2,0:0:0:0:
64,300,11536,6,0,B|133:327|196:304|196:304|274:277|341:299,1,270,2|2,0:0|0:0,0:0:0:0:
472,336,12921,1,0,0:0:0:0:
372,224,13383,2,0,B|361:163|361:163|377:82,1,135,2|4,0:0|0:3,0:0:0:0:
244,20,14306,1,2,0:0:0:0:
104,68,14767,2,0,B|112:104|112:104|104:160,1,67.5,0|2,1:0|0:0,0:0:0:0:
96,216,15229,5,4,3:1:0:0:
235,164,15690,2,0,P|249:232|223:300,1,135,0|4,1:0|0:3,0:0:0:0:
84,376,16613,1,0,1:0:0:0:
232,368,17075,2,0,P|301:353|372:352,1,135,4|0,0:3|1:0,0:0:0:0:
450,353,17767,1,2,0:0:0:0:
450,353,17998,2,0,P|447:312|430:269,1,67.5,4|2,0:3|0:0,0:0:0:0:
403,214,18460,2,0,P|405:173|423:130,1,67.5,0|2,1:0|0:0,0:0:0:0:
472,92,18921,5,4,0:3:0:0:
332,140,19383,2,0,P|272:156|204:120,1,135,0|4,1:0|0:3,0:0:0:0:
88,40,20306,1,0,1:0:0:0:
148,176,20767,2,0,P|176:232|144:308,1,135,4|0,0:3|1:0,0:0:0:0:
212,364,21460,1,2,0:0:0:0:
280,320,21690,2,0,L|358:299,1,67.5,4|2,0:3|0:0,0:0:0:0:
404,248,22152,1,0,1:0:0:0:
468,112,22613,5,4,3:2:0:0:
340,192,23075,2,0,B|272:228|192:184,1,135,0|4,1:0|0:3,0:0:0:0:
72,140,23998,1,0,1:0:0:0:
212,88,24460,2,0,B|280:52|360:96,1,135,4|0,0:3|1:0,0:0:0:0:
408,134,25152,1,2,0:0:0:0:
443,207,25383,2,0,L|447:295,1,67.5,4|2,0:3|0:0,0:0:0:0:
368,296,25844,2,0,L|364:228,1,67.5,0|2,1:0|0:0,0:0:0:0:
286,204,26306,5,4,0:3:0:0:
209,331,26767,1,0,1:0:0:0:
209,331,26998,2,0,P|154:314|71:343,1,135,2|2,0:0|0:0,0:0:0:0:
6,356,27690,1,0,1:0:0:0:
4,356,27921,2,0,P|22:290|18:223,1,135,4|0,0:0|1:0,0:0:0:0:
15,142,28613,2,0,P|10:108|10:74,2,67.5,0|0|0,1:0|1:0|1:0,0:0:0:0:
152,200,29536,1,4,0:3:0:0:
244,84,29998,6,0,P|308:70|394:101,1,135,4|4,3:2|0:3,0:0:0:0:
472,200,30921,2,0,P|483:249|465:296,2,101.25,4|2|2,0:3|0:0|0:0,0:0:0:0:
400,164,31844,2,0,L|264:180,1,135,4|4,0:3|0:3,0:0:0:0:
144,264,32767,2,0,L|42:260,2,101.25,4|2|2,0:3|0:0|0:0,0:0:0:0:
214,305,33690,6,0,P|194:249|226:177,1,135,4|4,0:3|0:3,0:0:0:0:
310,64,34613,2,0,P|322:43|332:-6,2,67.5,4|0|4,0:3|0:0|0:3,0:0:0:0:
236,96,35306,2,0,P|170:108|105:91,1,135,2|2,0:0|0:0,0:0:0:0:
42,40,35998,1,4,0:3:0:0:
28,188,36460,1,4,0:3:0:0:
28,188,36690,2,0,P|40:252|108:300,1,135,2|2,0:0|0:0,0:0:0:0:
164,332,37383,6,0,L|304:336,1,135,4|4,0:3|0:3,0:0:0:0:
404,232,38306,1,4,0:3:0:0:
512,132,38767,1,4,0:3:0:0:
404,32,39229,1,4,0:3:0:0:
296,132,39690,2,0,P|223:110|148:128,1,135,4|4,0:3|0:3,0:0:0:0:
104,172,40383,2,0,P|96:208|72:244,2,67.5,2|4|2,0:0|0:3|0:0,0:0:0:0:
92,92,41075,5,4,0:3:0:0:
228,28,41536,2,0,P|296:44|356:88,1,135,4|4,0:3|0:3,0:0:0:0:
436,200,42460,1,4,0:3:0:0:
288,184,42921,2,0,P|220:208|256:262,1,135,4|4,0:3|0:3,0:0:0:0:
360,328,43844,2,0,P|408:348|460:336,2,101.25,0|0|0,1:0|1:0|1:0,0:0:0:0:
279,328,44767,6,0,P|215:348|136:349,1,135,4|0,0:0|1:0,0:0:0:0:
32,251,45690,2,0,P|8:209|4:144,2,101.25,4|2|2,0:3|0:0|0:0,0:0:0:0:
104,288,46613,2,0,P|168:267|235:265,1,135,4|0,0:3|1:0,0:0:0:0:
384,288,47536,2,0,P|428:296|476:336,2,101.25,4|2|2,0:3|0:0|0:0,0:0:0:0:
316,243,48460,6,0,P|303:174|326:108,1,135,4|0,0:3|1:0,0:0:0:0:
429,9,49383,1,4,0:3:0:0:
284,32,49844,1,0,1:0:0:0:
284,32,50075,2,0,P|244:80|232:160,1,135,2|2,0:0|0:0,0:0:0:0:
272,220,50767,1,0,1:0:0:0:
268,372,51229,1,4,0:3:0:0:
268,372,51460,2,0,L|412:368,1,135,2|2,0:0|0:0,0:0:0:0:
484,364,52152,6,0,P|448:304|440:224,1,135,4|0,0:3|1:0,0:0:0:0:
432,92,53075,1,4,0:3:0:0:
292,44,53536,1,0,1:0:0:0:
308,192,53998,1,4,0:3:0:0:
196,296,54460,2,0,B|238:296|266:281|266:281|295:296|333:296,1,135,0|4,1:0|0:3,0:0:0:0:
373,363,55152,2,0,P|397:341|406:309,1,67.5,2|0,0:0|1:0,0:0:0:0:
312,192,55844,6,0,P|364:158|440:176,1,135,4|0,0:3|1:0,0:0:0:0:
312,84,56767,2,0,P|260:116|184:100,1,135,4|0,0:3|1:0,0:0:0:0:
52,44,57690,1,4,0:3:0:0:
92,188,58152,1,0,1:0:0:0:
188,300,58613,2,0,P|224:308|280:284,1,67.5,4|0,0:3|1:0,0:0:0:0:
313,246,59075,2,0,P|345:239|385:250,1,67.5,0|2,1:0|0:3,0:0:0:0:
444,294,59536,6,0,P|456:222|396:170,1,135,4|0,0:3|1:0,0:0:0:0:
288,108,60460,2,0,B|224:88|224:88|160:108,1,135,4|0,0:3|1:0,0:0:0:0:
87,144,61152,1,0,0:0:0:0:
60,220,61383,2,0,L|56:300,2,67.5,4|2|0,0:3|0:0|1:0,0:0:0:0:
16,76,62306,2,0,L|12:0,2,67.5,4|2|0,0:3|0:0|1:0,0:0:0:0:
71,143,62998,1,2,0:0:0:0:
71,143,63229,6,0,P|143:155|198:121,1,135,4|0,0:3|1:0,0:0:0:0:
328,56,64152,2,0,P|356:40|416:32,2,67.5,4|0|0,0:3|0:0|1:0,0:0:0:0:
268,196,65075,1,4,0:3:0:0:
400,264,65536,2,0,P|424:199|401:135,1,135,0|4,1:0|0:3,0:0:0:0:
452,72,66229,1,0,1:0:0:0:
492,144,66460,2,0,L|496:220,1,67.5,0|2,1:0|0:0,0:0:0:0:
500,292,66921,6,0,B|436:340|436:340|372:340,1,135,4|0,0:3|0:0,0:0:0:0:
300,324,67613,2,0,P|248:236|320:176,1,202.5,4|0,0:3|0:0,0:0:0:0:
395,182,68536,1,0,0:0:0:0:
395,182,68767,2,0,P|407:118|363:58,1,135,4|0,0:3|0:0,0:0:0:0:
288,68,69460,2,0,L|144:84,1,135,4|0,0:3|0:0,0:0:0:0:
96,140,70152,1,2,0:0:0:0:
208,240,70613,6,0,P|271:261|335:241,1,135,4|4,3:2|0:3,0:0:0:0:
408,112,71536,2,0,P|344:91|272:120,1,135,4|4,3:0|0:3,0:0:0:0:
217,161,72229,1,2,0:0:0:0:
256,192,72460,12,0,75229,1:0:0:0:
272,80,76152,6,0,P|342:66|412:80,1,135,4|0,3:1|1:0,0:0:0:0:
336,212,77075,2,0,P|259:226|182:212,1,135,4|0,0:3|1:0,0:0:0:0:
112,100,77998,2,0,L|180:100,1,67.5,4|2,0:3|0:0,0:0:0:0:
244,52,78460,2,0,L|313:52,1,67.5,0|2,1:0|0:0,0:0:0:0:
392,52,78921,2,0,P|384:120|420:188,1,135,4|0,0:3|1:0,0:0:0:0:
467,316,79844,6,0,P|435:324|391:316,1,67.5,4|2,0:3|0:0,0:0:0:0:
332,276,80306,2,0,P|300:268|256:276,1,67.5,0|2,1:0|0:0,0:0:0:0:
192,305,80767,1,4,0:3:0:0:
64,232,81229,1,0,1:0:0:0:
196,164,81690,6,0,P|256:152|336:164,1,135,4|0,0:3|1:0,0:0:0:0:
472,204,82613,2,0,P|477:170|468:137,1,67.5,4|2,0:3|0:0,0:0:0:0:
432,66,83075,2,0,P|410:37|382:20,1,67.5,0|0,1:0|1:0,0:0:0:0:
304,16,83536,6,0,L|162:29,1,135,4|0,0:0|1:0,0:0:0:0:
96,158,84460,2,0,L|244:171,1,135,4|0,0:3|1:0,0:0:0:0:
268,314,85383,2,0,P|232:322|200:314,1,67.5,4|2,0:3|0:0,0:0:0:0:
143,261,85844,2,0,P|109:257|76:264,1,67.5,0|2,1:0|0:0,0:0:0:0:
20,322,86306,1,4,0:3:0:0:
24,184,86767,1,0,1:0:0:0:
156,116,87229,6,0,P|227:101|304:116,1,135,4|0,0:3|1:0,0:0:0:0:
420,176,88152,1,4,0:3:0:0:
420,176,88383,2,0,P|436:216|432:256,2,67.5,2|0|2,0:0|1:0|0:0,0:0:0:0:
357,226,89075,2,0,L|221:234,1,135,4|4,0:3|1:2,0:0:0:0:
89,300,89998,1,4,0:3:0:0:
100,152,90460,2,0,P|104:116|92:68,1,67.5,0|2,1:0|0:0,0:0:0:0:
64,12,90921,6,0,P|108:48|188:40,1,135,4|0,0:3|1:0,0:0:0:0:
332,16,91844,1,4,0:3:0:0:
332,16,92075,2,0,P|361:31|384:56,2,67.5,2|0|2,0:0|1:0|0:0,0:0:0:0:
313,95,92767,2,0,L|325:235,1,135,4|0,0:3|1:0,0:0:0:0:
272,292,93460,2,0,P|244:284|188:292,2,67.5,2|4|4,0:0|0:3|0:3,0:0:0:0:
336,342,94152,2,0,P|364:350|420:342,1,67.5,0|2,1:0|0:0,0:0:0:0:
468,303,94613,6,0,P|471:185|356:210,1,270,4|2,0:0|0:0,0:0:0:0:
318,282,95767,2,0,L|318:369,2,67.5,2|2|2,0:0|0:0|0:0,0:0:0:0:
279,210,96460,2,0,P|211:190|142:210,1,135,4|2,0:0|0:0,0:0:0:0:
232,80,97383,2,0,P|299:99|368:80,1,135,0|0,1:0|1:0,0:0:0:0:
442,64,98075,1,2,0:0:0:0:
442,64,98306,6,0,B|446:136|446:136|437:198,1,135,4|0,3:1|1:0,0:0:0:0:
374,334,99229,2,0,P|437:354|500:333,1,135,4|0,0:3|1:0,0:0:0:0:
376,248,100152,2,0,P|311:232|246:250,1,135,4|0,0:3|1:0,0:0:0:0:
180,296,100844,1,2,0:0:0:0:
180,296,101075,2,0,P|166:265|146:237,1,67.5,4|2,0:3|0:0,0:0:0:0:
72,206,101536,2,0,P|85:175|105:147,1,67.5,0|2,1:0|0:0,0:0:0:0:
168,96,101998,5,4,0:3:0:0:
292,180,102460,2,0,P|357:194|422:179,1,135,0|4,1:0|0:3,0:0:0:0:
356,48,103383,1,0,1:0:0:0:
228,124,103844,2,0,P|166:132|87:106,1,135,4|0,0:3|1:0,0:0:0:0:
23,79,104536,1,2,0:0:0:0:
36,160,104767,2,0,P|40:204|36:236,1,67.5,4|2,0:3|0:0,0:0:0:0:
18,307,105229,1,0,1:0:0:0:
148,380,105690,5,4,3:2:0:0:
224,252,106152,2,0,L|360:252,1,135,0|4,1:0|0:3,0:0:0:0:
448,372,107075,1,0,1:0:0:0:
488,228,107536,2,0,L|489:92,1,135,4|0,0:3|1:0,0:0:0:0:
352,32,108460,2,0,L|284:31,1,67.5,4|2,0:3|0:0,0:0:0:0:
216,76,108921,2,0,L|144:74,1,67.5,0|2,1:0|0:0,0:0:0:0:
96,136,109383,5,4,0:3:0:0:
212,236,109844,1,0,1:0:0:0:
212,236,110075,2,0,L|348:236,1,135,2|2,0:0|0:0,0:0:0:0:
414,190,110767,1,0,1:0:0:0:
448,264,110998,1,4,0:0:0:0:
316,336,111460,2,0,P|284:344|228:332,1,67.5,0|0,1:0|1:0,0:0:0:0:
172,316,111921,2,0,P|145:302|116:268,1,67.5,0|0,1:0|1:0,0:0:0:0:
