osu file format v14

[General]
AudioFilename: audio.mp3
AudioLeadIn: 0
PreviewTime: 76036
Countdown: 0
SampleSet: Soft
StackLeniency: 0.7
Mode: 0
LetterboxInBreaks: 0
WidescreenStoryboard: 1

[Editor]
Bookmarks: 15229,29998,44767,59536,76152
DistanceSpacing: 1
BeatDivisor: 2
GridSize: 4
TimelineZoom: 1.5

[Metadata]
Title:Nekoichi
TitleUnicode:ネコイチ
Artist:Duca
ArtistUnicode:Duca
Creator:Nozhomi
Version:Cat's Easy
Source:ネコぱら Vol.3 ネコたちのアロマティゼ
Tags:nekopara neko-tachi no aromatize eroge opening vn visual novel neko works sekai project sayori catgirl Shapy Perklone [-R1] Catgirl Bulldog
BeatmapID:1342323
BeatmapSetID:619489

[Difficulty]
HPDrainRate:1
CircleSize:3
OverallDifficulty:2
ApproachRate:3
SliderMultiplier:1.1
SliderTickRate:1

[Events]
//Background and Video events
0,0,"meow.jpg",0,0
Video,-1865,"Nekovol3_OP.avi"
//Break Periods
//Storyboard Layer 0 (Background)
//Storyboard Layer 1 (Fail)
//Storyboard Layer 2 (Pass)
//Storyboard Layer 3 (Foreground)
//Storyboard Sound Samples

[TimingPoints]
460,461.538461538462,4,2,1,60,1,0
14767,-100,4,2,1,80,0,0
15229,-100,4,2,1,80,0,0
29998,-100,4,2,1,60,0,0
44767,-100,4,2,1,70,0,0
66921,-100,4,2,1,70,0,0
70152,-100,4,2,1,70,0,0
76152,-100,4,2,1,85,0,1
94613,-100,4,2,1,80,0,0
95306,-100,4,2,1,50,0,0
95767,-100,4,2,1,60,0,0
96460,-100,4,2,1,80,0,1
98306,-100,4,2,1,80,0,0

[Colours]
Combo1 : 251,196,68
Combo2 : 113,185,198
Combo3 : 255,112,34
Combo4 : 146,126,197

[HitObjects]
100,78,460,6,0,P|155:101|185:148,1,110,2|2,0:0|0:0,0:0:0:0:
173,250,1383,2,0,P|237:289|292:281,1,110,2|0,0:0|0:0,0:0:0:0:
376,261,2306,2,0,P|426:253|485:260,2,110,2|2|2,0:0|0:0|0:0,0:0:0:0:
270,289,3690,1,0,0:0:0:0:
301,180,4152,6,0,B|340:116|338:67|338:67|398:82|424:137,1,220,2|2,0:0|0:0,0:0:0:0:
458,225,5536,1,2,0:0:0:0:
356,265,5998,2,0,P|301:283|243:265,1,110,2|2,0:0|0:0,0:0:0:0:
166,203,6921,2,0,P|158:147|181:91,1,110,2|2,0:0|0:0,0:0:0:0:
286,99,7844,6,0,P|307:148|371:190,1,110,2|2,0:0|0:0,0:0:0:0:
435,252,8767,2,0,P|414:301|350:343,1,110,2|0,0:0|0:0,0:0:0:0:
286,257,9690,2,0,P|235:237|181:243,2,110,2|2|2,0:0|0:0|0:0,0:0:0:0:
221,345,11074,1,2,0:0:0:0:
110,343,11536,6,0,P|70:302|107:147,1,220,2|2,0:0|0:0,0:0:0:0:
200,121,12920,1,0,0:0:0:0:
272,204,13383,2,0,P|323:218|374:199,1,110,2|4,0:0|0:3,0:0:0:0:
433,105,14306,1,0,1:0:0:0:
348,35,14767,1,0,1:0:0:0:
247,80,15229,6,0,L|111:129,1,110,4|0,3:1|1:0,0:0:0:0:
107,221,16152,2,0,P|127:295|174:341,1,110,4|0,0:3|1:0,0:0:0:0:
254,344,17075,2,0,L|390:295,1,110,4|0,0:3|1:0,0:0:0:0:
447,242,17998,1,4,0:3:0:0:
377,156,18460,1,0,1:0:0:0:
431,60,18921,6,0,P|377:47|290:90,1,110,4|0,0:3|1:0,0:0:0:0:
267,154,19844,2,0,L|146:144,1,110,4|0,0:3|1:0,0:0:0:0:
69,78,20767,2,0,P|48:135|59:199,1,110,4|0,0:3|1:0,0:0:0:0:
156,221,21690,1,4,0:3:0:0:
108,320,22152,1,0,1:0:0:0:
219,331,22613,6,0,P|283:337|359:328,1,110,4|0,3:2|1:0,0:0:0:0:
408,257,23536,2,0,P|422:192|420:117,1,110,4|0,0:3|1:0,0:0:0:0:
365,54,24460,2,0,P|301:48|225:57,1,110,4|0,0:3|1:0,0:0:0:0:
173,124,25383,1,4,0:3:0:0:
72,78,25844,1,0,1:0:0:0:
56,186,26306,6,0,P|68:240|119:299,1,110,4|0,0:3|1:0,0:0:0:0:
196,336,27229,2,0,P|237:344|316:332,1,110,4|0,0:3|1:0,0:0:0:0:
356,316,27921,2,0,L|344:144,1,165,4|0,0:0|1:0,0:0:0:0:
424,75,29075,1,0,1:0:0:0:
205,92,29998,6,0,B|150:85|107:63|107:63|136:128|113:191,1,220,4|4,3:2|0:3,0:0:0:0:
76,280,31383,1,4,0:3:0:0:
178,318,31844,2,0,B|223:363|277:325|277:325|325:360|378:319,1,220,4|4,0:3|0:3,0:0:0:0:
480,277,33229,1,4,0:3:0:0:
443,173,33690,6,0,B|412:124|418:71|418:71|376:112|314:104,1,220,4|4,0:3|0:3,0:0:0:0:
205,92,35075,1,4,0:3:0:0:
119,161,35536,2,0,P|158:200|205:165,1,110,4|4,0:3|0:3,0:0:0:0:
310,183,36460,2,0,P|356:204|391:166,1,110,4|4,0:3|0:3,0:0:0:0:
360,60,37383,5,4,0:3:0:0:
251,43,37844,1,4,0:3:0:0:
169,117,38306,2,0,P|164:226|280:268,1,220,4|4,0:3|0:3,0:0:0:0:
340,208,39690,1,4,0:3:0:0:
428,276,40152,1,4,0:3:0:0:
340,340,40613,1,4,0:3:0:0:
251,273,41075,6,0,B|176:256|116:284|116:284|128:248|104:192,1,220,4|4,0:3|0:3,0:0:0:0:
56,108,42460,1,4,0:3:0:0:
129,26,42921,2,0,P|152:86|182:122,1,110,4|4,0:3|0:3,0:0:0:0:
257,199,43844,2,0,P|258:242|256:286,2,82.5,0|0|0,1:0|1:0|1:0,0:0:0:0:
264,144,44767,6,0,P|280:94|325:47,1,110,4|0,0:0|1:0,0:0:0:0:
364,151,45690,2,0,P|419:197|435:237,1,110,4|0,0:3|1:0,0:0:0:0:
458,338,46613,1,4,0:3:0:0:
348,351,47075,1,0,1:0:0:0:
237,306,47536,2,0,P|168:281|124:249,1,110,4|0,0:3|1:0,0:0:0:0:
190,164,48460,6,0,P|314:178|371:90,1,220,4|4,0:3|0:3,0:0:0:0:
262,81,49844,1,0,1:0:0:0:
190,164,50306,2,0,P|178:257|205:294,1,110,4|0,0:3|1:0,0:0:0:0:
276,325,51229,2,0,P|362:288|381:247,1,110,4|0,0:3|1:0,0:0:0:0:
359,168,52152,5,4,0:3:0:0:
256,208,52613,1,0,1:0:0:0:
163,148,53075,2,0,P|187:83|240:53,1,110,4|0,0:3|1:0,0:0:0:0:
328,51,53998,1,4,0:3:0:0:
396,137,54460,1,0,1:0:0:0:
372,244,54921,2,0,P|325:309|260:322,1,110,4|0,0:3|1:0,0:0:0:0:
226,237,55844,5,4,0:3:0:0:
130,291,56306,1,0,1:0:0:0:
73,196,56767,2,0,P|77:128|121:92,1,110,4|0,0:3|1:0,0:0:0:0:
208,64,57690,2,0,L|336:72,1,110,4|0,0:3|1:0,0:0:0:0:
392,152,58613,2,0,L|282:159,1,110,4|0,0:3|1:0,0:0:0:0:
176,160,59536,6,0,P|211:237|247:259,1,110,4|0,0:3|1:0,0:0:0:0:
336,247,60460,2,0,P|322:195|282:159,1,110,4|0,0:3|1:0,0:0:0:0:
176,160,61383,2,0,L|46:162,1,110,4|0,0:3|1:0,0:0:0:0:
96,56,62306,1,4,0:3:0:0:
205,55,62767,1,0,1:0:0:0:
306,104,63229,6,0,P|350:178|118:230,1,440,4|4,0:3|0:3,0:0:0:0:
120,128,65536,1,0,1:0:0:0:
205,58,65998,1,4,0:3:0:0:
306,104,66460,1,0,1:0:0:0:
349,204,66921,6,0,P|411:262|493:244,2,165,4|4|2,0:3|0:3|0:0,0:0:0:0:
306,104,68767,2,0,P|251:154|247:244,2,165,4|4|2,0:3|0:3|0:0,0:0:0:0:
400,44,70613,6,0,L|512:48,1,110,4|4,3:2|0:3,0:0:0:0:
504,156,71536,2,0,L|394:152,1,110,4|4,0:3|0:3,0:0:0:0:
356,256,72460,2,0,P|349:310|304:352,1,110,4|0,0:3|1:0,0:0:0:0:
200,348,73383,2,0,P|162:309|156:256,1,110,4|0,0:3|1:0,0:0:0:0:
104,160,74306,6,0,L|8:156,2,82.5,0|0|0,1:0|1:0|1:1,0:0:0:0:
152,132,75229,1,0,1:0:0:0:
328,180,76152,6,0,P|332:116|300:56,1,110,4|0,3:1|1:0,0:0:0:0:
197,74,77075,2,0,P|178:125|184:180,1,110,4|0,0:3|1:0,0:0:0:0:
256,264,77998,2,0,P|207:287|135:280,2,110,4|0|4,0:3|1:0|0:3,0:0:0:0:
364,272,79383,1,0,1:0:0:0:
414,175,79844,6,0,P|437:118|438:60,1,110,4|0,0:3|1:0,0:0:0:0:
331,45,80767,2,0,P|309:95|305:149,1,110,4|0,0:3|1:0,0:0:0:0:
364,244,81690,1,4,0:3:0:0:
324,348,82152,1,0,1:0:0:0:
216,364,82613,2,0,P|153:371|96:348,1,110,4|0,0:3|1:0,0:0:0:0:
32,280,83536,6,0,L|42:136,1,110,4|0,0:0|1:0,0:0:0:0:
136,117,84460,2,0,L|227:180,1,110,4|0,0:3|1:0,0:0:0:0:
227,289,85383,2,0,L|125:337,2,110,4|0|4,0:3|1:0|0:3,0:0:0:0:
323,235,86767,1,0,1:0:0:0:
383,143,87229,6,0,P|432:237|381:329,1,220,4|4,0:3|0:3,0:0:0:0:
304,256,88613,1,0,1:0:0:0:
220,328,89075,2,0,P|183:303|155:232,1,110,4|4,0:3|1:2,0:0:0:0:
155,138,89998,2,0,P|176:88|220:56,1,110,4|0,0:3|1:0,0:0:0:0:
256,192,90921,12,0,92767,1:0:0:0:
440,312,94152,5,0,1:0:0:0:
348,252,94613,2,0,P|273:303|146:243,1,220,4|2,0:0|0:0,0:0:0:0:
264,68,96460,2,0,P|332:64|396:92,1,110,4|2,0:0|0:0,0:0:0:0:
389,185,97383,2,0,P|344:216|291:226,1,110,0|0,1:0|1:0,0:0:0:0:
180,225,98306,6,0,P|100:200|60:148,1,110,4|0,3:1|1:0,0:0:0:0:
128,83,99229,2,0,P|181:92|225:124,1,110,4|0,0:3|1:0,0:0:0:0:
293,211,100152,2,0,P|327:264|379:287,1,110,4|0,0:3|1:0,0:0:0:0:
398,179,101075,1,4,0:3:0:0:
333,89,101536,1,0,1:0:0:0:
232,134,101998,6,0,P|141:178|93:174,1,110,4|0,0:3|1:0,0:0:0:0:
84,80,102921,2,0,P|175:36|223:40,1,110,4|0,0:3|1:0,0:0:0:0:
291,44,103844,2,0,P|373:106|350:240,1,220,4|4,0:3|0:3,0:0:0:0:
317,312,105229,1,0,1:0:0:0:
214,272,105690,6,0,P|268:222|288:146,1,110,4|0,3:2|1:0,0:0:0:0:
238,88,106613,2,0,P|169:65|93:87,1,110,4|0,0:3|1:0,0:0:0:0:
66,157,107536,2,0,P|82:228|139:283,1,110,4|0,0:3|1:0,0:0:0:0:
214,272,108460,1,4,0:3:0:0:
288,192,108921,1,0,1:0:0:0:
380,131,109383,6,0,P|435:125|509:150,1,110,4|0,0:3|1:0,0:0:0:0:
488,247,110306,2,0,P|434:260|380:254,1,110,4|0,0:3|1:0,0:0:0:0:
328,236,110998,2,0,P|252:228|160:248,1,165,4|0,0:0|1:0,0:0:0:0:
80,312,112152,1,0,1:0:0:0:
