osu file format v14

[General]
AudioFilename: audio.mp3
AudioLeadIn: 0
PreviewTime: 56157
Countdown: 0
SampleSet: Soft
StackLeniency: 0.7
Mode: 0
LetterboxInBreaks: 0
WidescreenStoryboard: 1

[Editor]
Bookmarks: 5407,18207,31007,43807,56607,69407,75807,82207
DistanceSpacing: 1
BeatDivisor: 4
GridSize: 32
TimelineZoom: 0.8999988

[Metadata]
Title:Naisho no Honto
TitleUnicode:内緒のホント
Artist:Duca
ArtistUnicode:Duca
Creator:Lasse
Version:Normal
Source:お嬢様は素直になれない
Tags:Ojou-sama wa Sunao ni Narenai eroge visual novel opening short version Asaiga
BeatmapID:1618538
BeatmapSetID:768075

[Difficulty]
HPDrainRate:4
CircleSize:3.4
OverallDifficulty:5
ApproachRate:5.5
SliderMultiplier:1
SliderTickRate:1

[Events]
//Background and Video events
0,0,"bg.jpg",0,0
//Break Periods
//Storyboard Layer 0 (Background)
//Storyboard Layer 1 (Fail)
//Storyboard Layer 2 (Pass)
//Storyboard Layer 3 (Foreground)
//Storyboard Sound Samples

[TimingPoints]
607,400,4,2,1,30,1,0
607,-125,4,2,1,30,0,0
2407,-125,4,2,1,20,0,0
2507,-125,4,2,1,30,0,0
2607,-125,4,2,1,20,0,0
2807,-125,4,2,1,30,0,0
3807,-125,4,2,1,36,0,0
5007,-125,4,2,1,40,0,0
5407,-111.111111111111,4,2,1,60,0,0
6807,-111.111111111111,4,2,1,60,0,0
7207,-111.111111111111,4,2,1,54,0,0
7607,-111.111111111111,4,2,1,56,0,0
8207,-111.111111111111,4,2,1,58,0,0
8607,-111.111111111111,4,2,1,60,0,0
10007,-111.111111111111,4,2,1,60,0,0
10407,-111.111111111111,4,2,1,54,0,0
10807,-111.111111111111,4,2,1,60,0,0
11207,-111.111111111111,4,2,1,54,0,0
11807,-111.111111111111,4,2,1,58,0,0
12007,-111.111111111111,4,2,1,52,0,0
12807,-111.111111111111,4,2,1,58,0,0
13207,-111.111111111111,4,2,1,60,0,0
15007,-111.111111111111,4,2,1,52,0,0
15207,-111.111111111111,4,2,1,58,0,0
16407,-111.111111111111,4,2,1,60,0,0
16707,-111.111111111111,4,2,1,5,0,0
16807,-111.111111111111,4,2,1,56,0,0
17307,-111.111111111111,4,2,1,50,0,0
17407,-111.111111111111,4,2,1,46,0,0
17607,-111.111111111111,4,2,1,60,0,0
18207,-99.9999999999999,4,2,1,56,0,0
19607,-100,4,2,1,56,0,0
19907,-100,4,2,1,5,0,0
20007,-100,4,2,1,56,0,0
20307,-100,4,2,1,5,0,0
20407,-100,4,2,1,56,0,0
22807,-100,4,2,1,56,0,0
23107,-100,4,2,1,5,0,0
23207,-100,4,2,1,56,0,0
23607,-100,4,2,1,56,0,0
23807,-100,4,2,1,40,0,0
23907,-100,4,2,1,44,0,0
24207,-100,4,2,1,48,0,0
24607,-100,4,2,1,56,0,0
25007,-100,4,2,1,56,0,0
26007,-100,4,2,1,56,0,0
26307,-100,4,2,1,5,0,0
26407,-100,4,2,1,56,0,0
26707,-100,4,2,1,5,0,0
26807,-100,4,2,1,56,0,0
27807,-100,4,2,1,56,0,0
28207,-100,4,2,1,56,0,0
29207,-100,4,2,1,62,0,0
29407,-100,4,2,1,40,0,0
29507,-100,4,2,1,44,0,0
29807,-100,4,2,1,46,0,0
30207,-100,4,2,1,48,0,0
30607,-100,4,2,1,52,0,0
31007,-100,4,2,1,58,0,0
31907,-100,4,2,1,48,0,0
32007,-100,4,2,1,58,0,0
32407,-100,4,2,1,58,0,0
32707,-100,4,2,1,5,0,0
32807,-100,4,2,1,58,0,0
33007,-100,4,2,1,58,0,0
34107,-100,4,2,1,48,0,0
34207,-100,4,2,1,58,0,0
34607,-100,4,2,1,58,0,0
35607,-100,4,2,1,58,0,0
36007,-100,4,2,1,54,0,0
36607,-100,4,2,1,56,0,0
37407,-100,4,2,1,58,0,0
37807,-100,4,2,1,58,0,0
39007,-100,4,2,1,60,0,0
39207,-100,4,2,1,5,0,0
39307,-100,4,2,1,60,0,0
39507,-100,4,2,1,5,0,0
39607,-100,4,2,1,60,0,0
39807,-100,4,2,1,58,0,0
40107,-100,4,2,1,48,0,0
40207,-100,4,2,1,58,0,0
40407,-100,4,2,2,58,0,0
40607,-100,4,2,1,58,0,0
41207,-100,4,2,1,58,0,0
41307,-100,4,2,1,48,0,0
41407,-100,4,2,1,58,0,0
41607,-100,4,2,2,58,0,0
42007,-100,4,2,1,60,0,0
42407,-100,4,2,1,50,0,0
42607,-100,4,2,1,52,0,0
42807,-100,4,2,1,54,0,0
43207,-100,4,2,1,48,0,0
43307,-100,4,2,1,50,0,0
43407,-100,4,2,1,52,0,0
43607,-100,4,2,2,50,0,0
43807,-125,4,2,1,54,0,0
47007,-125,4,2,1,54,0,0
47407,-125,4,2,1,54,0,0
48007,-125,4,2,2,54,0,0
48407,-125,4,2,1,54,0,0
48807,-125,4,2,1,52,0,0
49207,-125,4,2,1,50,0,0
50207,-125,4,2,1,56,0,0
51107,-125,4,2,1,5,0,0
51207,-125,4,2,1,56,0,0
51807,-125,4,2,1,56,0,0
53207,-125,4,2,2,56,0,0
53407,-125,4,2,1,42,0,0
53707,-125,4,2,1,5,0,0
53807,-125,4,2,1,58,0,0
54007,-125,4,2,1,58,0,0
54807,-125,4,2,1,60,0,0
55207,-125,4,2,1,54,0,0
55407,-125,4,2,1,56,0,0
55607,-125,4,2,1,58,0,0
55807,-125,4,2,1,60,0,0
56207,-125,4,2,2,40,0,0
56607,-83.3333333333333,4,2,1,70,0,1
69382,-83.3333333333333,4,2,1,70,0,0
69407,-83.3333333333333,4,2,1,70,0,1
82182,-83.3333333333333,4,2,1,70,0,0
82207,-83.3333333333333,4,2,1,72,0,1
83007,-83.3333333333333,4,2,1,74,0,1
83807,-83.3333333333333,4,2,1,76,0,1
84607,-83.3333333333333,4,2,1,72,0,1
84807,-83.3333333333333,4,2,1,70,0,1
84907,-83.3333333333333,4,2,1,68,0,1
85007,-83.3333333333333,4,2,1,66,0,1
85207,-83.3333333333333,4,2,1,64,0,1
85407,-90.9090909090909,4,2,1,60,0,0
85607,-90.9090909090909,4,2,1,68,0,0
86607,-90.9090909090909,4,2,1,68,0,0
88607,-90.9090909090909,4,2,1,70,0,0
90007,-90.9090909090909,4,2,1,68,0,0
90107,-90.9090909090909,4,2,1,40,0,0
91207,-90.9090909090909,4,2,1,5,0,0
91407,-90.9090909090909,4,2,1,72,0,0

[Colours]
Combo1 : 250,190,230
Combo2 : 130,200,230
Combo3 : 255,230,140
Combo4 : 170,245,170

[HitObjects]
143,117,607,6,0,B|114:109|100:87|100:87|72:90|55:105|55:105|31:92|0:93,2,160,2|2|2,0:0|0:0|0:0,0:0:0:0:
295,68,3007,2,0,P|335:60|377:162,1,160,2|2,0:2|0:2,0:0:0:0:
241,360,5007,1,10,0:0:0:0:
142,342,5407,6,0,L|135:233,1,89.9999972534181,14|10,0:3|0:0,0:0:0:0:
110,209,6007,1,14,0:3:0:0:
149,118,6407,1,10,0:2:0:0:
243,149,6807,2,0,P|310:147|344:129,2,89.9999972534181,14|10|14,0:3|0:3|0:3,0:0:0:0:
155,28,8207,1,10,0:0:0:0:
70,80,8607,6,0,L|61:191,1,89.9999972534181,14|10,0:3|0:3,0:0:0:0:
27,204,9207,1,14,0:3:0:0:
59,297,9607,1,10,0:2:0:0:
148,255,10007,1,14,0:3:0:0:
233,304,10407,2,0,L|333:308,2,89.9999972534181,10|14|2,0:0|0:3|0:0,0:0:0:0:
193,334,11407,1,10,0:2:0:0:
144,246,11807,6,0,L|142:145,2,89.9999972534181,14|10|8,0:3|0:3|0:2,0:0:0:0:
126,293,12807,1,10,0:0:0:0:
37,249,13207,2,0,L|37:144,1,89.9999972534181,14|8,0:3|0:3,0:0:0:0:
56,113,13807,2,0,P|129:102|161:100,1,89.9999972534181,10|10,0:0|0:0,0:0:0:0:
238,133,14607,2,0,P|311:144|343:146,1,89.9999972534181,10|14,0:0|0:3,0:0:0:0:
372,120,15207,5,10,0:0:0:0:
372,120,15407,1,10,0:3:0:0:
449,181,15807,2,0,L|455:232,1,44.999998626709,10|10,0:3|0:0,0:0:0:0:
376,286,16407,2,0,P|337:277|287:277,2,89.9999972534181,10|10|10,0:3|0:0|0:3,0:0:0:0:
461,335,17607,1,10,0:3:0:0:
461,335,17807,1,10,0:3:0:0:
463,235,18207,6,0,L|469:132,1,100,12|10,0:3|0:0,0:0:0:0:
416,50,19007,2,0,P|368:34|319:40,1,100,0|8,0:0|0:0,0:0:0:0:
286,77,19607,2,0,P|238:92|189:86,1,100,10|10,0:3|0:3,0:0:0:0:
109,25,20407,1,10,0:0:0:0:
0,129,21007,1,10,0:0:0:0:
68,202,21407,6,0,L|73:302,1,100,10|10,0:3|0:0,0:0:0:0:
164,341,22207,2,0,P|210:320|259:324,1,100,2|10,0:0|0:0,0:0:0:0:
303,344,22807,2,0,P|350:359|398:351,1,100,10|10,0:3|0:3,0:0:0:0:
457,270,23607,1,10,0:2:0:0:
437,121,24207,1,10,0:0:0:0:
349,170,24607,6,0,L|231:159,1,100,10|10,0:3|0:0,0:0:0:0:
165,216,25407,2,0,L|149:324,1,100,2|10,0:0|0:0,0:0:0:0:
119,354,26007,2,0,P|73:363|14:338,1,100,10|10,0:3|0:3,0:0:0:0:
0,254,26807,1,10,0:0:0:0:
0,254,27007,2,0,L|7:152,1,100,2|10,0:0|0:0,0:0:0:0:
61,71,27807,6,0,P|109:56|158:64,1,100,10|10,0:3|0:0,0:0:0:0:
197,93,28407,2,0,P|244:107|293:99,1,100,2|10,0:0|0:3,0:0:0:0:
335,69,29007,1,10,0:0:0:0:
335,69,29207,2,0,P|382:67|428:153,1,150,14|10,0:3|0:0,0:0:0:0:
400,242,30207,2,0,L|389:349,1,100,10|10,0:0|0:0,0:0:0:0:
291,361,31007,6,0,L|280:261,1,100,12|10,0:3|0:0,0:0:0:0:
241,167,31807,2,0,P|195:152|146:162,1,100,2|8,0:0|0:0,0:0:0:0:
120,205,32407,2,0,L|106:309,2,100,10|10|10,0:3|0:3|0:0,0:0:0:0:
48,73,33807,1,10,0:0:0:0:
137,27,34207,5,10,0:3:0:0:
225,85,34607,1,10,0:0:0:0:
225,85,34807,2,0,L|327:76,1,100,2|10,0:0|0:3,0:0:0:0:
374,101,35407,1,10,0:0:0:0:
374,101,35607,2,0,L|490:106,2,100,10|10|10,0:3|0:3|0:0,0:0:0:0:
334,131,36607,2,0,P|324:178|337:231,1,100,2|10,0:0|0:0,0:0:0:0:
434,241,37407,6,0,P|455:198|456:143,1,100,14|8,0:0|0:0,0:0:0:0:
394,69,38207,2,0,L|273:55,1,100,2|10,0:0|0:0,0:0:0:0:
195,74,39007,2,0,L|120:65,2,75,14|14|14,0:3|0:3|2:3,0:0:0:0:
278,198,40207,1,10,0:0:0:0:
348,126,40607,6,0,P|391:109|445:119,1,100,14|8,0:3|0:0,0:0:0:0:
480,159,41207,1,2,0:0:0:0:
480,159,41407,2,0,L|474:270,1,100,14|10,0:0|0:3,0:0:0:0:
458,305,42007,2,0,P|389:326|336:269,1,150,14|10,0:3|0:0,0:0:0:0:
309,180,43007,2,0,L|298:73,1,100,10|10,0:0|0:0,0:0:0:0:
222,36,43807,6,0,P|171:27|129:32,2,80,12|2|10,0:3|0:0|0:0,0:0:0:0:
315,129,45207,2,0,L|326:226,1,80,10|10,0:3|0:3,0:0:0:0:
346,246,45807,2,0,L|342:332,1,80,10|10,0:3|0:0,0:0:0:0:
171,367,47007,6,0,L|161:277,1,80,14|2,0:3|0:0,0:0:0:0:
102,231,47807,1,10,0:0:0:0:
102,231,48007,1,10,0:3:0:0:
142,153,48407,1,14,0:3:0:0:
232,177,48807,1,10,0:0:0:0:
232,177,49007,2,0,L|322:172,2,80,10|8|8,0:3|0:0|0:0,0:0:0:0:
146,157,50207,6,0,P|116:107|138:39,1,120,14|14,0:3|0:3,0:0:0:0:
305,28,51607,1,2,0:0:0:0:
305,28,51807,2,0,P|356:27|434:13,2,120,14|14|10,0:3|0:3|0:0,0:0:0:0:
232,77,53407,6,0,L|226:167,1,80,10|12,0:0|0:3,0:0:0:0:
379,314,54807,1,14,0:3:0:0:
299,352,55207,2,0,B|264:332|264:332|231:353|231:353|189:344,1,120,10|10,0:3|0:3,0:0:0:0:
17,137,56607,6,0,P|1:83|7:33,2,89.9999972534181,14|2|10,0:3|0:3|0:0,0:0:0:0:
70,165,57407,2,0,L|177:127,2,89.9999972534181,8|10|10,0:3|0:3|0:0,0:0:0:0:
40,217,58207,2,0,P|38:256|68:318,1,89.9999972534181,10|2,0:3|0:2,0:0:0:0:
141,346,58807,1,10,0:0:0:0:
141,346,59007,2,0,P|192:326|279:321,1,119.999996337891,10|2,0:3|0:0,0:0:0:0:
366,366,59807,6,0,L|374:242,1,119.999996337891,14|10,0:3|0:3,0:0:0:0:
427,220,60407,1,10,0:0:0:0:
477,188,60607,2,0,L|466:57,1,119.999996337891,10|0,0:3|0:0,0:0:0:0:
413,40,61207,1,10,0:0:0:0:
357,62,61407,2,0,B|299:69|302:42|235:54,1,119.999996337891,10|0,0:3|0:0,0:0:0:0:
135,115,62207,2,0,L|25:102,2,89.9999972534181,10|10|10,0:3|0:3|0:0,0:0:0:0:
180,154,63007,6,0,P|192:196|191:257,1,89.9999972534181,14|2,0:3|0:2,0:0:0:0:
150,323,63607,1,10,0:0:0:0:
150,323,63807,2,0,P|196:300|280:322,1,119.999996337891,10|10,0:3|0:3,0:0:0:0:
312,343,64407,1,10,0:0:0:0:
369,360,64607,2,0,L|479:345,1,89.9999972534181,14|2,0:3|0:3,0:0:0:0:
498,267,65207,1,10,0:0:0:0:
498,267,65407,2,0,P|502:200|501:135,1,119.999996337891,10|14,0:3|0:3,0:0:0:0:
397,85,66207,6,0,L|374:223,1,119.999996337891,10|14,0:3|0:3,0:0:0:0:
355,259,66807,1,10,0:0:0:0:
326,311,67007,2,0,P|257:327|195:289,1,119.999996337891,10|10,0:3|0:2,0:0:0:0:
173,263,67607,1,10,0:0:0:0:
161,204,67807,2,0,L|156:113,1,89.9999972534181,14|10,0:3|0:3,0:0:0:0:
207,39,68407,1,10,0:0:0:0:
207,39,68607,2,0,B|268:58|263:20|327:34,1,119.999996337891,10|10,0:3|0:3,0:0:0:0:
415,125,69407,6,0,L|429:17,2,89.9999972534181,14|10|10,0:3|0:3|0:0,0:0:0:0:
390,179,70207,2,0,L|407:280,2,89.9999972534181,10|10|10,0:3|0:3|0:0,0:0:0:0:
336,151,71007,2,0,P|304:137|238:148,1,89.9999972534181,10|2,0:3|0:0,0:0:0:0:
206,222,71607,1,10,0:0:0:0:
206,222,71807,2,0,L|196:351,1,119.999996337891,10|10,0:3|0:3,0:0:0:0:
78,359,72607,6,0,L|68:239,1,119.999996337891,14|10,0:3|0:3,0:0:0:0:
65,179,73207,1,10,0:0:0:0:
90,124,73407,2,0,P|142:102|218:123,1,119.999996337891,10|0,0:3|0:0,0:0:0:0:
243,157,74007,1,10,0:0:0:0:
272,209,74207,2,0,B|288:331,1,119.999996337891,10|0,0:3|0:0,0:0:0:0:
396,378,75007,1,10,0:3:0:0:
487,303,75407,1,10,0:3:0:0:
426,199,75807,6,0,L|439:91,2,89.9999972534181,14|2|10,0:3|0:0|0:0,0:0:0:0:
393,249,76607,2,0,P|347:254|299:239,1,89.9999972534181,10|10,0:3|0:3,0:0:0:0:
263,168,77207,1,10,0:0:0:0:
263,168,77407,2,0,P|272:105|242:45,1,119.999996337891,14|10,0:3|0:3,0:0:0:0:
194,31,78007,1,10,0:0:0:0:
134,40,78207,2,0,L|32:34,2,89.9999972534181,14|10|10,0:3|0:3|0:0,0:0:0:0:
176,82,79007,6,0,B|195:148|165:147|183:202,1,119.999996337891,14|10,0:3|0:3,0:0:0:0:
276,275,79807,2,0,L|406:268,1,119.999996337891,10|8,0:3|0:0,0:0:0:0:
445,301,80407,1,10,0:0:0:0:
490,261,80607,1,10,0:3:0:0:
432,155,81007,1,14,0:3:0:0:
342,234,81407,1,10,0:3:0:0:
262,144,81807,1,14,0:3:0:0:
181,233,82207,6,0,P|118:235|82:220,2,89.9999972534181,14|10|10,0:3|0:3|0:0,0:0:0:0:
225,191,83007,2,0,P|222:147|238:77,2,89.9999972534181,14|10|10,0:3|0:3|0:0,0:0:0:0:
266,234,83807,2,0,P|314:228|375:247,2,89.9999972534181,14|14|8,0:3|0:3|0:0,0:0:0:0:
228,281,84607,2,0,L|94:270,2,119.999996337891,14|8|14,0:3|0:0|0:3,0:0:0:0:
274,320,85607,5,10,0:0:0:0:
274,320,85807,1,2,0:0:0:0:
379,281,86207,1,14,0:3:0:0:
379,281,86407,1,10,0:0:0:0:
356,173,86807,2,0,P|343:107|350:50,1,110.000003356934,12|10,0:0|0:3,0:0:0:0:
391,31,87407,1,10,0:0:0:0:
391,31,87607,1,10,0:3:0:0:
480,101,88007,1,14,0:0:0:0:
480,101,88207,1,10,0:3:0:0:
389,163,88607,6,0,L|288:149,1,82.5000025177003,14|10,0:3|0:3,0:0:0:0:
240,103,89207,2,0,L|139:117,1,82.5000025177003,10|10,0:3|0:3,0:0:0:0:
88,79,89807,1,10,0:3:0:0:
88,79,90007,2,0,B|112:100|121:133|119:165|106:211|106:211|62:200|34:187|9:162|3:136,1,275.000008392334,14|0,0:3|0:0,0:0:0:0:
0,32,91407,5,10,0:3:0:0:
0,32,91607,1,10,0:3:0:0:
