osu file format v14

[General]
AudioFilename: audio.mp3
AudioLeadIn: 0
PreviewTime: 62204
Countdown: 0
SampleSet: Soft
StackLeniency: 0.7
Mode: 0
LetterboxInBreaks: 0
WidescreenStoryboard: 0

[Editor]
Bookmarks: 47936
DistanceSpacing: 0.95
BeatDivisor: 2
GridSize: 32
TimelineZoom: 2.1

[Metadata]
Title:Mirai no Melody
TitleUnicode:未来のメロディー
Artist:Duca
ArtistUnicode:Duca
Creator:Hanazawa Kana
Version:Normal
Source:想いを捧げる乙女のメロディー ~あふれる想いを調べにのせて~
Tags:[Kamiya] eroge galgame ensemble Omoi o sasageru otome no merodi afureru omoi o shirabeni nosete Nekusam
BeatmapID:1451061
BeatmapSetID:684982

[Difficulty]
HPDrainRate:4
CircleSize:3.3
OverallDifficulty:4
ApproachRate:5
SliderMultiplier:1.1
SliderTickRate:1

[Events]
//Background and Video events
0,0,"BG.jpg",0,0
Video,0,"video.avi"
//Break Periods
//Storyboard Layer 0 (Background)
//Storyboard Layer 1 (Fail)
//Storyboard Layer 2 (Pass)
//Storyboard Layer 3 (Foreground)
//Storyboard Sound Samples

[TimingPoints]
1107,365.853658536585,4,2,1,50,1,0
62570,-100,4,2,1,60,0,1
85985,-100,4,2,1,50,0,0
97692,-100,4,2,1,30,0,0
99156,-100,4,2,1,20,0,0
100619,-100,4,2,1,5,0,0

[Colours]
Combo1 : 154,240,136
Combo2 : 245,10,151
Combo3 : 238,206,153
Combo4 : 27,138,228

[HitObjects]
19,61,1107,6,0,P|52:47|117:182,1,220,2|0,0:0|0:0,0:0:0:0:
4,337,2570,2,0,L|133:321,1,110,2|0,0:0|0:0,0:0:0:0:
190,252,3302,2,0,L|322:249,1,110,2|0,0:0|0:0,0:0:0:0:
370,326,4033,6,0,P|432:327|458:194,1,220,2|0,0:0|0:0,0:0:0:0:
320,42,5497,2,0,L|312:170,1,110,6|0,0:0|0:0,0:0:0:0:
223,205,6228,2,0,L|218:85,1,110,2|0,0:0|0:0,0:0:0:0:
133,33,6960,6,0,P|76:42|28:92,1,110,6|8,0:0|0:0,0:0:0:0:
8,118,7509,2,0,L|17:230,1,110,2|2,0:0|0:0,0:0:0:0:
47,270,8058,1,2,0:0:0:0:
137,322,8424,2,0,L|246:311,1,110,2|8,0:0|0:0,0:0:0:0:
294,331,8972,2,0,L|412:333,1,110,2|8,0:0|0:0,0:0:0:0:
454,318,9521,1,2,0:0:0:0:
462,216,9887,5,6,0:0:0:0:
357,206,10253,2,0,L|337:79,1,110,8|8,0:0|0:0,0:0:0:0:
339,44,10802,2,0,L|408:35,2,55,8|10|10,0:0|0:0|0:0,0:0:0:0:
166,124,12814,5,2,0:0:0:0:
249,186,13180,2,0,P|191:225|110:211,1,110,8|8,0:0|0:0,0:0:0:0:
70,162,13911,1,8,0:0:0:0:
63,57,14277,2,0,L|1:46,2,55,6|0|8,0:0|0:0|0:0,0:0:0:0:
107,84,14826,2,0,L|255:62,1,110,0|2,0:0|0:0,0:0:0:0:
261,42,15375,1,8,0:0:0:0:
363,64,15741,1,8,0:0:0:0:
382,165,16106,6,0,P|450:149|504:153,2,110,8|8|8,0:0|0:0|0:0,0:0:0:0:
352,265,17204,2,0,L|432:289,2,55,6|0|8,0:0|0:0|0:0,0:0:0:0:
310,232,17753,2,0,L|184:229,1,110,0|2,0:0|0:0,0:0:0:0:
147,230,18302,1,8,0:0:0:0:
42,231,18667,1,6,0:0:0:0:
13,131,19033,6,0,L|130:116,1,110,8|8,0:0|0:0,0:0:0:0:
201,49,19765,1,8,0:0:0:0:
268,129,20131,2,0,P|294:101|307:65,2,55,2|0|8,0:0|0:0|0:0,0:0:0:0:
222,155,20680,2,0,L|248:340,1,165,0|8,0:0|0:0,0:0:0:0:
337,367,21594,6,0,L|353:254,1,110,6|8,0:0|0:0,0:0:0:0:
446,212,22326,2,0,P|399:167|325:156,1,110,8|8,0:0|0:0,0:0:0:0:
270,216,23058,1,6,0:0:0:0:
270,216,23241,1,12,0:0:0:0:
183,274,23606,2,0,L|166:144,1,110,8|2,0:0|0:0,0:0:0:0:
177,113,24155,1,8,0:0:0:0:
279,131,24521,6,0,L|414:121,1,110,6|8,0:0|0:0,0:0:0:0:
489,150,25253,2,0,P|492:117|482:89,2,55,2|0|8,0:0|0:0|0:0,0:0:0:0:
482,202,25802,1,0,0:0:0:0:
455,294,26167,1,0,0:0:0:0:
413,261,26350,2,0,L|289:265,1,110,8|2,0:0|0:0,0:0:0:0:
252,249,26899,2,0,L|254:323,1,55,0|8,0:0|0:0,0:0:0:0:
248,356,27265,1,0,0:0:0:0:
145,332,27631,6,0,P|69:313|5:313,1,110,0|0,0:0|0:0,0:0:0:0:
94,223,28363,2,0,P|128:224|162:231,2,55,0|8|0,0:0|0:0|0:0,0:0:0:0:
43,207,28911,2,0,P|41:123|52:66,2,110,2|8|2,0:0|0:0|0:0,0:0:0:0:
125,143,30009,1,8,0:0:0:0:
229,139,30375,6,0,L|243:268,1,110,2|8,0:0|0:0,0:0:0:0:
300,334,31106,2,0,P|265:348|232:349,2,55,2|0|8,0:0|0:0|0:0,0:0:0:0:
326,288,31655,1,0,0:0:0:0:
409,225,32021,2,0,P|424:247|439:304,2,55,0|8|0,0:0|0:0|0:0,0:0:0:0:
366,193,32570,2,0,L|372:125,1,55,2|0,0:0|0:0,0:0:0:0:
371,85,32936,1,8,0:0:0:0:
276,129,33302,6,0,P|200:117|146:117,1,110,2|8,0:0|0:0,0:0:0:0:
129,80,33850,2,0,P|56:77|2:174,1,165,0|8,0:0|0:0,0:0:0:0:
25,245,34765,1,2,0:0:0:0:
127,222,35131,1,8,0:0:0:0:
167,255,35314,2,0,P|227:268|290:224,1,110,6|8,0:0|0:0,0:0:0:0:
305,210,35863,1,2,0:0:0:0:
369,292,36228,6,0,L|381:353,2,55,2|0|8,0:0|0:0|0:0,0:0:0:0:
446,221,36960,2,0,L|483:280,2,55,2|0|8,0:0|0:0|0:0,0:0:0:0:
451,168,37509,1,0,0:0:0:0:
387,84,37875,1,0,0:0:0:0:
335,90,38058,2,0,L|270:80,1,55,8|0,0:0|0:0,0:0:0:0:
229,94,38424,2,0,L|196:24,2,55,2|0|8,0:0|0:0|0:0,0:0:0:0:
233,146,38972,1,0,0:0:0:0:
318,206,39338,6,0,P|272:265|230:271,1,110
139,298,40070,2,0,P|138:257|152:217,2,55,0|8|0,0:0|0:0|0:0,0:0:0:0:
121,347,40619,2,0,P|13:335|-7:329,2,110,2|8|2,0:0|0:0|0:0,0:0:0:0:
70,254,41716,1,8,0:0:0:0:
121,163,42082,6,0,L|248:155,1,110,2|8,0:0|0:0,0:0:0:0:
332,181,42814,2,0,P|338:153|329:111,2,55,2|0|8,0:0|0:0|0:0,0:0:0:0:
296,220,43363,1,0,0:0:0:0:
363,300,43728,2,0,P|372:263|381:237,2,55,0|8|0,0:0|0:0|0:0,0:0:0:0:
356,352,44277,2,0,P|387:342|431:342,1,55,2|0,0:0|0:0,0:0:0:0:
460,351,44643,1,8,0:0:0:0:
477,247,45009,6,0,L|475:107,1,110,2|8,0:0|0:0,0:0:0:0:
464,85,45558,2,0,P|388:73|336:121,1,110,2|0,0:0|0:0,0:0:0:0:
326,126,46106,1,8,0:0:0:0:
241,187,46472,2,0,P|223:155|215:127,2,55,6|2|8,0:0|0:0|0:0,0:0:0:0:
291,200,47021,2,0,L|270:336,1,110,2|8,0:0|0:0,0:0:0:0:
253,356,47570,1,2,0:0:0:0:
163,301,47936,6,0,L|109:303,1,55,2|2,0:0|0:0,0:0:0:0:
27,170,48667,2,0,L|87:167,1,55,2|2,0:0|0:0,0:0:0:0:
234,130,49399,6,0,L|228:203,1,55,2|2,0:0|0:0,0:0:0:0:
369,255,50131,2,0,L|359:311,1,55,2|2,0:0|0:0,0:0:0:0:
504,368,50863,6,0,L|498:288,1,55,2|2,0:0|0:0,0:0:0:0:
414,181,51594,2,0,L|418:124,1,55,2|2,0:0|0:0,0:0:0:0:
370,32,52143,6,0,P|296:34|262:92,1,110,12|2,0:0|0:0,0:0:0:0:
279,108,52692,1,8,0:0:0:0:
290,159,52875,2,0,L|167:136,1,110,2|8,0:0|0:0,0:0:0:0:
132,156,53424,1,2,0:0:0:0:
60,80,53789,6,0,P|85:62|112:52,2,55,2|0|8,0:0|0:0|0:0,0:0:0:0:
14,106,54338,2,0,P|20:189|18:242,1,110,0|0,0:0|0:0,0:0:0:0:
37,264,54887,1,8,0:0:0:0:
131,308,55253,2,0,P|87:359|21:365,2,110,2|8|2,0:0|0:0|0:0,0:0:0:0:
143,204,56350,1,8,0:0:0:0:
211,124,56716,6,0,L|340:119,2,110,2|8|2,0:0|0:0|0:0,0:0:0:0:
107,107,57814,1,8,0:0:0:0:
143,204,58180,2,0,P|231:249|281:224,1,110,2|8,0:0|0:0,0:0:0:0:
328,285,58911,2,0,P|394:248|411:195,1,110,2|8,0:0|0:0,0:0:0:0:
460,129,59643,2,0,L|428:361,1,220,2|2,0:0|0:0,0:0:0:0:
326,361,60741,1,8,0:0:0:0:
230,318,61106,6,0,L|111:303,1,110,2|8,0:0|0:0,0:0:0:0:
120,199,61838,2,0,P|92:201|67:212,2,55,8|12|8,0:0|0:0|0:0,0:0:0:0:
222,220,62570,6,0,L|230:103,1,110,2|8,0:0|0:0,0:0:0:0:
204,64,63119,1,0,0:0:0:0:
204,64,63302,2,0,L|352:51,1,110,2|8,0:0|0:0,0:0:0:0:
416,70,64033,2,0,P|450:58|485:54,2,55,6|0|8,0:0|0:0|0:0,0:0:0:0:
385,112,64582,2,0,L|402:243,1,110,0|2,0:0|0:0,0:0:0:0:
416,271,65131,1,8,0:0:0:0:
345,347,65497,6,0,P|283:321|194:309,1,110,2|8,0:0|0:0,0:0:0:0:
193,334,66046,1,0,0:0:0:0:
193,334,66228,2,0,L|176:218,1,110,8|8,0:0|0:0,0:0:0:0:
108,145,66960,2,0,P|141:130|191:137,2,55,6|0|8,0:0|0:0|0:0,0:0:0:0:
70,182,67509,1,0,0:0:0:0:
70,182,67692,1,8,0:0:0:0:
43,80,68058,1,8,0:0:0:0:
134,28,68424,6,0,L|253:37,1,110,6|8,0:0|0:0,0:0:0:0:
250,88,68972,2,0,P|305:92|357:114,1,110,0|2,0:0|0:0,0:0:0:0:
399,141,69521,1,8,0:0:0:0:
447,122,69704,2,0,P|433:180|436:274,1,110,2|0,0:0|0:0,0:0:0:0:
437,327,70436,1,0,0:0:0:0:
390,349,70619,2,0,L|244:356,1,110,8|8,0:0|0:0,0:0:0:0:
185,306,71350,6,0,P|105:285|47:284,1,110,6|8,0:0|0:0,0:0:0:0:
18,196,72082,2,0,P|81:166|160:165,1,110,8|8,0:0|0:0,0:0:0:0:
223,180,72814,1,12,0:0:0:0:
223,180,72997,2,0,L|244:116,1,55,12|0,0:0|0:0,0:0:0:0:
222,78,73363,2,0,P|289:59|385:138,1,165,8|8,0:0|0:0,0:0:0:0:
453,164,74277,6,0,P|426:219|423:275,1,110,2|8,0:0|0:0,0:0:0:0:
457,305,74826,1,0,0:0:0:0:
457,305,75009,2,0,L|307:299,1,110,8|8,0:0|0:0,0:0:0:0:
255,250,75741,2,0,P|240:276|231:308,2,55,6|0|8,0:0|0:0|0:0,0:0:0:0:
294,215,76289,2,0,L|153:207,1,110,0|2,0:0|0:0,0:0:0:0:
147,245,76838,1,8,0:0:0:0:
62,182,77204,6,0,P|97:131|118:61,1,110,2|8,0:0|0:0,0:0:0:0:
86,40,77753,1,0,0:0:0:0:
86,40,77936,2,0,L|219:26,1,110,8|8,0:0|0:0,0:0:0:0:
297,51,78667,2,0,P|330:36|357:29,2,55,4|0|8,0:0|0:0|0:0,0:0:0:0:
277,99,79216,1,0,0:0:0:0:
277,99,79399,1,8,0:0:0:0:
231,193,79765,1,8,0:0:0:0:
252,295,80131,6,0,P|301:267|365:259,1,110,6|8,0:0|0:0,0:0:0:0:
394,290,80680,2,0,P|399:227|403:171,1,110,0|2,0:0|0:0,0:0:0:0:
432,137,81228,1,8,0:0:0:0:
437,85,81411,2,0,P|389:55|325:77,1,110,2|0,0:0|0:0,0:0:0:0:
307,165,82143,1,8,0:0:0:0:
257,182,82326,2,0,L|130:189,1,110,2|8,0:0|0:0,0:0:0:0:
49,150,83058,6,0,P|59:217|60:284,1,110,6|8,0:0|0:0,0:0:0:0:
152,297,83789,2,0,P|152:231|142:160,1,110,8|8,0:0|0:0,0:0:0:0:
133,83,84521,2,0,L|272:71,1,110,2|8,0:0|0:0,0:0:0:0:
335,122,85253,2,0,P|342:90|342:59,2,55,2|8|8,0:0|0:0|0:0,0:0:0:0:
252,186,85985,5,2,0:0:0:0:
320,265,86350,2,0,P|388:262|424:224,1,110,8|8,0:0|0:0,0:0:0:0:
428,131,87082,1,8,0:0:0:0:
343,69,87448,2,0,P|365:45|392:35,2,55,6|0|8,0:0|0:0|0:0,0:0:0:0:
337,121,87997,2,0,L|202:108,1,110,0|2,0:0|0:0,0:0:0:0:
180,86,88546,2,0,P|146:90|118:97,1,55,8|2,0:0|0:0,0:0:0:0:
83,125,88911,1,8,0:0:0:0:
114,224,89277,6,0,P|60:210|-3:209,2,110,8|8|8,0:0|0:0|0:0,0:0:0:0:
209,266,90375,2,0,P|193:293|172:312,2,55,6|0|8,0:0|0:0|0:0,0:0:0:0:
217,214,90924,2,0,L|343:202,1,110,0|2,0:0|0:0,0:0:0:0:
376,219,91472,2,0,P|405:212|430:196,1,55,8|2,0:0|0:0,0:0:0:0:
448,152,91838,1,6,0:0:0:0:
375,77,92204,6,0,L|249:73,1,110,8|8,0:0|0:0,0:0:0:0:
163,49,92936,1,8,0:0:0:0:
121,144,93302,2,0,P|89:121|64:85,2,55,6|0|8,0:0|0:0|0:0,0:0:0:0:
173,144,93850,2,0,L|144:316,1,165,0|8,0:0|0:0,0:0:0:0:
241,347,94765,6,0,L|260:227,1,110,6|8,0:0|0:0,0:0:0:0:
356,202,95497,2,0,L|337:323,1,110,6|8,0:0|0:0,0:0:0:0:
439,340,96228,5,12,0:0:0:0:
439,340,96411,1,12,0:0:0:0:
456,236,96777,1,8,0:0:0:0:
472,133,97143,1,8,0:0:0:0:
406,51,97509,1,8,0:0:0:0:
256,192,97692,12,0,100619,0:0:0:0:
