osu file format v14

[General]
AudioFilename: audio.mp3
AudioLeadIn: 0
PreviewTime: 62204
Countdown: 0
SampleSet: Soft
StackLeniency: 0.7
Mode: 0
LetterboxInBreaks: 0
WidescreenStoryboard: 0

[Editor]
Bookmarks: 47936
DistanceSpacing: 1.6
BeatDivisor: 4
GridSize: 32
TimelineZoom: 2.1

[Metadata]
Title:Mirai no Melody
TitleUnicode:未来のメロディー
Artist:Duca
ArtistUnicode:Duca
Creator:Hanazawa Kana
Version:Melody
Source:想いを捧げる乙女のメロディー ~あふれる想いを調べにのせて~
Tags:[Kamiya] eroge galgame ensemble Omoi o sasageru otome no merodi afureru omoi o shirabeni nosete Nekusam
BeatmapID:1449616
BeatmapSetID:684982

[Difficulty]
HPDrainRate:7
CircleSize:4
OverallDifficulty:8.5
ApproachRate:9
SliderMultiplier:1.6
SliderTickRate:1

[Events]
//Background and Video events
0,0,"BG.jpg",0,0
Video,0,"video.avi"
//Break Periods
//Storyboard Layer 0 (Background)
//Storyboard Layer 1 (Fail)
//Storyboard Layer 2 (Pass)
//Storyboard Layer 3 (Foreground)
//Storyboard Sound Samples

[TimingPoints]
1107,365.853658536585,4,2,1,50,1,0
1107,-166.666666666667,4,2,1,50,0,0
6960,-111.111111111111,4,2,1,50,0,0
8424,-100,4,2,1,50,0,0
8698,-100,4,2,1,5,0,0
8789,-100,4,2,1,50,0,0
15192,-100,4,2,1,30,0,0
15375,-100,4,2,1,50,0,0
18119,-100,4,2,1,30,0,0
18302,-100,4,2,1,50,0,0
19765,-71.4285714285714,4,2,1,50,0,0
20039,-71.4285714285714,4,2,1,5,0,0
20131,-100,4,2,1,50,0,0
21046,-100,4,2,1,30,0,0
21228,-100,4,2,1,50,0,0
22509,-100,4,2,1,30,0,0
22875,-100,4,2,1,50,0,0
60558,-100,4,2,1,30,0,0
60924,-100,4,2,1,50,0,0
61655,-100,4,2,1,30,0,0
61838,-100,4,2,1,50,0,0
62021,-100,4,2,1,30,0,0
62387,-100,4,2,1,50,0,0
62570,-83.3333333333333,4,2,1,60,0,1
64948,-83.3333333333333,4,2,1,40,0,1
65131,-83.3333333333333,4,2,1,60,0,1
67875,-83.3333333333333,4,2,1,40,0,1
68058,-83.3333333333333,4,2,1,60,0,1
70802,-83.3333333333333,4,2,1,40,0,1
70985,-83.3333333333333,4,2,1,60,0,1
72265,-83.3333333333333,4,2,1,30,0,1
72631,-83.3333333333333,4,2,1,60,0,1
73728,-83.3333333333333,4,2,1,30,0,1
74094,-83.3333333333333,4,2,1,60,0,1
76655,-83.3333333333333,4,2,1,40,0,1
76838,-83.3333333333333,4,2,1,60,0,1
79582,-83.3333333333333,4,2,1,40,0,1
79765,-83.3333333333333,4,2,1,60,0,1
82509,-83.3333333333333,4,2,1,40,0,1
82692,-83.3333333333333,4,2,1,60,0,1
85070,-83.3333333333333,4,2,1,40,0,1
85253,-83.3333333333333,4,2,1,60,0,1
85436,-83.3333333333333,4,2,1,30,0,1
85802,-83.3333333333333,4,2,1,60,0,1
85985,-100,4,2,1,50,0,0
88363,-100,4,2,1,30,0,0
88546,-100,4,2,1,50,0,0
91289,-100,4,2,1,30,0,0
91472,-100,4,2,1,50,0,0
93485,-76.9230769230769,4,2,1,50,0,0
93850,-100,4,2,1,50,0,0
94216,-100,4,2,1,30,0,0
94399,-100,4,2,1,50,0,0
95680,-100,4,2,1,30,0,0
96046,-100,4,2,1,50,0,0
97692,-100,4,2,1,30,0,0
99155,-100,4,2,1,20,0,0
100619,-100,4,2,1,5,0,0

[Colours]
Combo1 : 154,240,136
Combo2 : 245,10,151
Combo3 : 238,206,153
Combo4 : 27,138,228

[HitObjects]
62,172,1107,6,0,L|218:153,1,143.999995605469,2|0,0:0|0:0,0:0:0:0:
238,188,1838,2,0,P|204:178|179:74,1,143.999995605469
331,113,2570,6,0,L|308:270,1,143.999995605469,2|0,0:0|0:0,0:0:0:0:
416,328,3302,2,0,L|411:174,1,143.999995605469,2|0,0:0|0:0,0:0:0:0:
474,99,4033,6,0,L|309:115,1,143.999995605469,2|0,0:0|0:0,0:0:0:0:
280,96,4765,2,0,P|328:126|322:218,1,143.999995605469
203,310,5497,6,0,L|215:165,1,143.999995605469,6|0,0:0|0:0,0:0:0:0:
115,63,6228,2,0,L|132:215,1,143.999995605469,2|0,0:0|0:0,0:0:0:0:
57,303,6960,6,0,P|99:289|142:286,1,71.9999978027344,6|0,0:0|0:0,0:0:0:0:
165,291,7235,1,0,0:0:0:0:
203,310,7326,1,8,0:0:0:0:
361,248,7509,2,0,P|304:238|264:246,1,71.9999978027344,2|0,0:0|0:0,0:0:0:0:
424,320,7875,1,2,0:0:0:0:
206,177,8058,2,0,L|297:163,1,71.9999978027344,2|0,0:0|0:0,0:0:0:0:
475,238,8424,6,0,P|392:232|355:251,1,120,2|0,0:0|0:0,0:0:0:0:
318,327,8789,1,8,0:0:0:0:
152,101,8972,2,0,P|226:89|296:144,1,160,2|8,0:0|0:0,0:0:0:0:
238,245,9521,2,0,P|208:207|207:169,1,80,2|0,0:0|0:0,0:0:0:0:
382,18,9887,6,0,L|370:104,1,80,6|0,0:0|0:0,0:0:0:0:
360,247,10253,1,8,0:0:0:0:
126,189,10436,1,8,0:0:0:0:
293,181,10619,1,8,0:0:0:0:
84,285,10802,1,8,0:0:0:0:
168,89,10985,1,10,0:0:0:0:
213,372,11167,1,10,0:0:0:0:
53,169,12814,6,0,P|90:137|140:130,1,80,2|0,0:0|0:0,0:0:0:0:
204,178,13180,2,0,L|197:87,1,80,8|0,0:0|0:0,0:0:0:0:
281,239,13546,2,0,L|289:156,1,80,8|2,0:0|0:0,0:0:0:0:
129,290,13911,2,0,L|119:190,1,80,8|2,0:0|0:0,0:0:0:0:
281,239,14277,5,6,0:0:0:0:
121,210,14460,1,0,0:0:0:0:
359,159,14643,1,8,0:0:0:0:
132,293,14826,2,0,P|182:284|219:288,1,80,0|8,0:0|0:0,0:0:0:0:
370,336,15192,1,2,0:0:0:0:
366,321,15283,1,2,0:0:0:0:
363,307,15375,1,8,0:0:0:0:
204,178,15558,1,2,0:0:0:0:
207,362,15741,6,0,P|262:347|286:297,1,80,8|0,0:0|0:0,0:0:0:0:
281,239,16106,2,0,L|372:227,1,80,8|0,0:0|0:0,0:0:0:0:
453,207,16472,2,0,L|400:124,1,80,8|2,0:0|0:0,0:0:0:0:
348,78,16838,2,0,L|298:143,1,80,8|2,0:0|0:0,0:0:0:0:
281,239,17204,5,6,0:0:0:0:
348,78,17387,1,0,0:0:0:0:
358,198,17570,1,8,0:0:0:0:
258,62,17753,2,0,P|275:17|307:-3,1,80,0|8,0:0|0:0,0:0:0:0:
492,78,18119,1,2,0:0:0:0:
489,92,18210,1,2,0:0:0:0:
487,105,18302,1,8,0:0:0:0:
299,150,18485,1,2,0:0:0:0:
442,302,18667,6,0,P|444:254|337:205,1,160,6|8,0:0|0:0,0:0:0:0:
261,224,19216,1,0,0:0:0:0:
157,317,19399,2,0,P|203:309|244:313,1,80,8|0,0:0|0:0,0:0:0:0:
299,150,19765,6,0,P|192:175|175:236,1,167.999994873047,8|0,0:0|0:0,0:0:0:0:
237,312,20131,5,2,0:0:0:0:
163,227,20314,2,0,L|163:118,1,80,0|8,0:0|0:0,0:0:0:0:
65,51,20680,2,0,L|59:146,1,80,0|8,0:0|0:0,0:0:0:0:
20,286,21046,1,2,0:0:0:0:
55,281,21137,1,2,0:0:0:0:
91,278,21228,1,8,0:0:0:0:
261,224,21411,1,2,0:0:0:0:
59,130,21594,6,0,L|158:122,1,80,6|0,0:0|0:0,0:0:0:0:
229,59,21960,1,8,0:0:0:0:
261,224,22143,1,2,0:0:0:0:
333,25,22326,1,8,0:0:0:0:
340,174,22509,1,8,0:0:0:0:
370,200,22600,1,8,0:0:0:0:
406,197,22692,1,8,0:0:0:0:
434,170,22783,1,8,0:0:0:0:
427,142,22875,2,0,P|407:129|386:127,1,40,2|0,0:0|0:0,0:0:0:0:
328,291,23058,5,6,0:0:0:0:
488,26,23241,2,0,L|494:138,1,80,12|0,0:0|0:0,0:0:0:0:
127,195,23606,2,0,L|114:298,1,80,8|0,0:0|0:0,0:0:0:0:
261,224,23972,1,2,0:0:0:0:
212,369,24155,1,8,0:0:0:0:
196,285,24338,1,2,0:0:0:0:
385,348,24521,5,6,0:0:0:0:
271,306,24704,1,0,0:0:0:0:
472,259,24887,1,8,0:0:0:0:
363,340,25070,1,0,0:0:0:0:
324,199,25253,1,2,0:0:0:0:
337,332,25436,1,0,0:0:0:0:
419,191,25619,1,8,0:0:0:0:
315,324,25802,2,0,L|308:234,1,80,0|2,0:0|0:0,0:0:0:0:
223,152,26167,5,0,0:0:0:0:
424,114,26350,1,8,0:0:0:0:
229,119,26533,1,0,0:0:0:0:
345,94,26716,1,2,0:0:0:0:
236,89,26899,1,0,0:0:0:0:
403,34,27082,1,8,0:0:0:0:
242,56,27265,2,0,L|245:157,1,80,0|2,0:0|0:0,0:0:0:0:
211,248,27631,5,0,0:0:0:0:
100,181,27814,1,8,0:0:0:0:
233,246,27997,1,0,0:0:0:0:
66,259,28180,1,2,0:0:0:0:
257,243,28363,1,0,0:0:0:0:
82,344,28546,1,8,0:0:0:0:
279,242,28728,1,0,0:0:0:0:
165,364,28911,6,0,P|160:314|133:276,1,80,2|0,0:0|0:0,0:0:0:0:
23,184,29277,2,0,P|40:132|64:112,1,80,8|0,0:0|0:0,0:0:0:0:
253,97,29643,1,2,0:0:0:0:
211,248,29826,1,0,0:0:0:0:
162,39,30009,1,8,0:0:0:0:
186,161,30192,1,0,0:0:0:0:
343,43,30375,5,2,0:0:0:0:
253,97,30558,1,0,0:0:0:0:
432,119,30741,1,8,0:0:0:0:
261,119,30924,1,0,0:0:0:0:
462,41,31106,1,2,0:0:0:0:
267,143,31289,1,0,0:0:0:0:
480,188,31472,1,8,0:0:0:0:
273,167,31655,2,0,L|280:77,1,80,0|2,0:0|0:0,0:0:0:0:
404,196,32021,5,0,0:0:0:0:
356,338,32204,1,8,0:0:0:0:
320,252,32387,1,0,0:0:0:0:
221,357,32570,1,2,0:0:0:0:
239,274,32753,1,0,0:0:0:0:
136,359,32936,2,0,P|145:295|150:251,1,80,8|0,0:0|0:0,0:0:0:0:
320,252,33302,6,0,P|322:180|220:159,1,160,2|8,0:0|0:0,0:0:0:0:
185,197,33850,1,0,0:0:0:0:
127,132,34033,2,0,P|134:70|234:48,1,160,2|8,0:0|0:0,0:0:0:0:
284,102,34582,5,0,0:0:0:0:
436,42,34765,2,0,P|391:30|342:41,1,80,2|0,0:0|0:0,0:0:0:0:
200,114,35131,1,8,0:0:0:0:
484,124,35314,2,0,P|416:125|392:114,1,80,6|0,0:0|0:0,0:0:0:0:
217,40,35680,1,8,0:0:0:0:
263,224,35863,2,0,P|245:253|184:274,1,80,2|0,0:0|0:0,0:0:0:0:
54,249,36228,5,2,0:0:0:0:
105,58,36411,1,0,0:0:0:0:
185,197,36594,1,8,0:0:0:0:
200,114,36777,1,0,0:0:0:0:
78,162,36960,1,2,0:0:0:0:
73,334,37143,1,0,0:0:0:0:
185,197,37326,1,8,0:0:0:0:
191,352,37509,2,0,L|208:253,1,80,0|2,0:0|0:0,0:0:0:0:
369,237,37875,5,0,0:0:0:0:
185,197,38058,1,8,0:0:0:0:
205,273,38241,1,0,0:0:0:0:
294,150,38424,1,2,0:0:0:0:
302,325,38606,1,0,0:0:0:0:
397,130,38789,1,8,0:0:0:0:
396,347,38972,2,0,L|404:266,1,80,0|2,0:0|0:0,0:0:0:0:
330,66,39338,5,0,0:0:0:0:
473,204,39521,1,8,0:0:0:0:
490,124,39704,1,0,0:0:0:0:
403,267,39887,1,2,0:0:0:0:
387,187,40070,1,0,0:0:0:0:
487,338,40253,1,8,0:0:0:0:
407,105,40436,1,0,0:0:0:0:
347,332,40619,6,0,P|320:284|322:243,1,80,2|0,0:0|0:0,0:0:0:0:
465,175,40985,2,0,P|494:131|496:86,1,80,8|0,0:0|0:0,0:0:0:0:
296,32,41350,1,2,0:0:0:0:
157,146,41533,2,0,L|346:132,1,160,2|0,0:0|0:0,0:0:0:0:
407,105,42082,5,2,0:0:0:0:
387,187,42265,1,0,0:0:0:0:
216,39,42448,2,0,L|296:31,1,80,8|0,0:0|0:0,0:0:0:0:
387,187,42814,1,2,0:0:0:0:
157,146,42997,1,0,0:0:0:0:
316,134,43180,1,8,0:0:0:0:
104,212,43363,2,0,P|80:173|82:117,1,80,0|2,0:0|0:0,0:0:0:0:
216,27,43728,5,0,0:0:0:0:
194,245,43911,1,8,0:0:0:0:
104,212,44094,1,0,0:0:0:0:
219,108,44277,1,2,0:0:0:0:
112,305,44460,1,0,0:0:0:0:
26,257,44643,2,0,P|18:197|32:159,1,80,8|0,0:0|0:0,0:0:0:0:
294,149,45009,6,0,P|226:184|142:141,1,160,2|8,0:0|0:0,0:0:0:0:
115,52,45558,2,0,L|102:236,1,160,2|0,0:0|0:0,0:0:0:0:
136,328,46106,2,0,P|187:301|227:300,1,80,8|0,0:0|0:0,0:0:0:0:
331,273,46472,5,6,0:0:0:0:
70,284,46655,1,2,0:0:0:0:
296,358,46838,1,8,0:0:0:0:
103,211,47021,2,0,P|149:190|195:197,1,80,2|0,0:0|0:0,0:0:0:0:
296,358,47387,1,8,0:0:0:0:
410,269,47570,2,0,L|312:273,1,80,2|0,0:0|0:0,0:0:0:0:
161,274,47936,5,2,0:0:0:0:
247,28,48119,2,0,L|254:202,1,160,2|0,0:0|0:0,0:0:0:0:
242,292,48667,1,2,0:0:0:0:
167,40,48850,2,0,L|174:219,1,160,2|0,0:0|0:0,0:0:0:0:
320,242,49399,5,2,0:0:0:0:
95,212,49582,2,0,L|268:186,1,160,2|0,0:0|0:0,0:0:0:0:
337,148,50131,1,2,0:0:0:0:
59,131,50314,2,0,L|235:107,1,160,2|0,0:0|0:0,0:0:0:0:
253,188,50863,5,2,0:0:0:0:
80,343,51046,2,0,L|254:339,1,160,2|0,0:0|0:0,0:0:0:0:
286,275,51594,1,2,0:0:0:0:
112,264,51777,2,0,L|216:260,1,80,2|2,0:0|0:0,0:0:0:0:
319,346,52143,6,0,P|359:308|308:201,1,160,12|2,0:0|0:0,0:0:0:0:
182,179,52692,1,8,0:0:0:0:
272,81,52875,2,0,L|274:189,1,80,2|0,0:0|0:0,0:0:0:0:
284,275,53241,1,8,0:0:0:0:
106,274,53424,2,0,P|150:261|193:264,1,80,2|0,0:0|0:0,0:0:0:0:
239,340,53789,5,2,0:0:0:0:
273,160,53972,1,0,0:0:0:0:
433,216,54155,1,8,0:0:0:0:
344,220,54338,1,0,0:0:0:0:
402,52,54521,1,2,0:0:0:0:
388,291,54704,1,0,0:0:0:0:
273,160,54887,2,0,P|311:136|357:131,1,80,8|0,0:0|0:0,0:0:0:0:
468,300,55253,6,0,L|366:289,1,80,2|0,0:0|0:0,0:0:0:0:
137,214,55619,2,0,P|201:205|233:219,1,80,8|0,0:0|0:0,0:0:0:0:
388,291,55985,2,0,L|305:292,1,80,2|0,0:0|0:0,0:0:0:0:
1,187,56350,2,0,P|53:162|95:171,1,80,8|0,0:0|0:0,0:0:0:0:
223,288,56716,6,0,L|246:101,1,160,2|8,0:0|0:0,0:0:0:0:
231,25,57265,1,0,0:0:0:0:
73,163,57448,2,0,P|120:149|159:151,1,80,2|0,0:0|0:0,0:0:0:0:
389,96,57814,6,0,P|340:76|302:75,1,80,8|0,0:0|0:0,0:0:0:0:
455,179,58180,2,0,P|470:128|466:80,1,80,2|0,0:0|0:0,0:0:0:0:
410,277,58546,2,0,P|458:270|495:251,1,80,8|0,0:0|0:0,0:0:0:0:
304,259,58911,2,0,P|337:317|369:340,1,80,2|0,0:0|0:0,0:0:0:0:
287,149,59277,2,0,P|246:185|225:225,1,80,8|0,0:0|0:0,0:0:0:0:
378,188,59643,5,2,0:0:0:0:
192,109,59826,1,0,0:0:0:0:
304,259,60009,1,8,0:0:0:0:
271,47,60192,1,0,0:0:0:0:
210,212,60375,1,2,0:0:0:0:
25,131,60558,1,8,0:0:0:0:
43,97,60649,1,8,0:0:0:0:
74,86,60741,1,8,0:0:0:0:
101,93,60832,1,8,0:0:0:0:
123,111,60924,2,0,P|121:137|103:155,1,40,2|0,0:0|0:0,0:0:0:0:
18,229,61106,5,2,0:0:0:0:
210,212,61289,1,0,0:0:0:0:
42,236,61472,1,8,0:0:0:0:
297,253,61655,1,12,0:0:0:0:
296,268,61747,1,8,0:0:0:0:
296,280,61838,1,8,0:0:0:0:
126,228,62021,1,12,0:0:0:0:
130,251,62113,1,8,0:0:0:0:
133,274,62204,1,8,0:0:0:0:
136,297,62296,1,8,0:0:0:0:
141,320,62387,1,2,0:0:0:0:
378,194,62570,6,0,P|293:164|195:238,1,191.999994140625,2|8,0:0|0:0,0:0:0:0:
221,305,63119,1,0,0:0:0:0:
204,84,63302,1,2,0:0:0:0:
297,253,63485,1,2,0:0:0:0:
286,24,63667,1,8,0:0:0:0:
137,161,63850,1,2,0:0:0:0:
461,123,64033,6,0,P|412:110|326:107,1,95.9999970703126,6|0,0:0|0:0,0:0:0:0:
103,255,64399,1,8,0:0:0:0:
473,218,64582,2,0,P|422:197|366:193,1,95.9999970703126,0|8,0:0|0:0,0:0:0:0:
67,88,64948,1,2,0:0:0:0:
73,126,65039,1,2,0:0:0:0:
93,154,65131,2,0,P|146:164|188:145,1,95.9999970703126,8|2,0:0|0:0,0:0:0:0:
286,24,65497,6,0,L|257:229,1,191.999994140625,2|8,0:0|0:0,0:0:0:0:
220,353,66046,1,0,0:0:0:0:
403,291,66228,1,8,0:0:0:0:
111,267,66411,1,2,0:0:0:0:
309,288,66594,1,8,0:0:0:0:
72,159,66777,1,2,0:0:0:0:
360,370,66960,6,0,P|400:323|396:266,1,95.9999970703126,6|0,0:0|0:0,0:0:0:0:
256,45,67326,1,8,0:0:0:0:
81,250,67509,2,0,P|6:221|-10:170,1,95.9999970703126,0|8,0:0|0:0,0:0:0:0:
310,132,67875,1,2,0:0:0:0:
325,173,67966,1,2,0:0:0:0:
310,214,68058,2,0,P|260:223|196:205,1,95.9999970703126,8|2,0:0|0:0,0:0:0:0:
59,59,68424,6,0,L|82:266,1,191.999994140625,6|8,0:0|0:0,0:0:0:0:
199,345,68972,1,0,0:0:0:0:
310,132,69155,1,8,0:0:0:0:
332,311,69338,1,2,0:0:0:0:
236,56,69521,1,8,0:0:0:0:
250,267,69704,1,2,0:0:0:0:
332,40,69887,5,6,0:0:0:0:
410,253,70070,2,0,P|366:223|310:221,1,95.9999970703126,0|8,0:0|0:0,0:0:0:0:
274,357,70436,1,0,0:0:0:0:
361,148,70619,1,8,0:0:0:0:
140,172,70802,1,2,0:0:0:0:
144,195,70893,1,2,0:0:0:0:
149,218,70985,1,8,0:0:0:0:
258,79,71167,1,2,0:0:0:0:
465,328,71350,6,0,P|485:273|486:223,1,95.9999970703126,6|0,0:0|0:0,0:0:0:0:
33,236,71716,2,0,P|49:297|73:332,1,95.9999970703126,8|0,0:0|0:0,0:0:0:0:
269,165,72082,1,8,0:0:0:0:
240,352,72265,1,2,0:0:0:0:
225,310,72356,1,2,0:0:0:0:
239,274,72448,1,8,0:0:0:0:
270,263,72539,1,8,0:0:0:0:
296,273,72631,2,0,P|302:306|299:328,1,47.9999985351563,2|0,0:0|0:0,0:0:0:0:
66,324,72814,5,12,0:0:0:0:
456,157,72997,2,0,P|394:145|349:151,1,95.9999970703126,12|0,0:0|0:0,0:0:0:0:
82,211,73363,2,0,L|59:104,1,95.9999970703126,8|0,0:0|0:0,0:0:0:0:
263,33,73728,1,2,0:0:0:0:
261,61,73820,1,2,0:0:0:0:
258,89,73911,1,8,0:0:0:0:
256,117,74003,1,8,0:0:0:0:
253,145,74094,1,2,0:0:0:0:
401,308,74277,6,0,P|458:270|446:146,1,191.999994140625,2|8,0:0|0:0,0:0:0:0:
360,124,74826,1,0,0:0:0:0:
498,345,75009,1,8,0:0:0:0:
207,268,75192,1,2,0:0:0:0:
386,218,75375,1,8,0:0:0:0:
92,350,75558,1,2,0:0:0:0:
180,149,75741,5,6,0:0:0:0:
301,337,75924,1,0,0:0:0:0:
254,32,76106,1,8,0:0:0:0:
12,251,76289,1,0,0:0:0:0:
246,190,76472,1,8,0:0:0:0:
143,342,76655,1,2,0:0:0:0:
92,350,76747,1,2,0:0:0:0:
49,335,76838,2,0,P|13:279|22:222,1,95.9999970703126,8|0,0:0|0:0,0:0:0:0:
118,158,77204,6,0,P|190:189|200:309,1,191.999994140625,2|8,0:0|0:0,0:0:0:0:
92,350,77753,1,0,0:0:0:0:
342,238,77936,1,8,0:0:0:0:
112,258,78119,1,2,0:0:0:0:
296,354,78302,1,8,0:0:0:0:
232,128,78485,1,2,0:0:0:0:
112,258,78667,5,4,0:0:0:0:
341,158,78850,1,0,0:0:0:0:
41,94,79033,1,8,0:0:0:0:
445,135,79216,1,0,0:0:0:0:
266,221,79399,1,8,0:0:0:0:
347,38,79582,1,2,0:0:0:0:
385,28,79674,1,2,0:0:0:0:
424,44,79765,2,0,P|446:96|432:168,1,95.9999970703126,8|2,0:0|0:0,0:0:0:0:
370,348,80131,6,0,L|339:143,1,191.999994140625,6|8,0:0|0:0,0:0:0:0:
265,70,80680,1,0,0:0:0:0:
233,295,80863,1,8,0:0:0:0:
157,63,81046,1,2,0:0:0:0:
341,158,81228,1,8,0:0:0:0:
53,181,81411,6,0,P|47:120|58:67,1,95.9999970703126,2|6,0:0|0:0,0:0:0:0:
479,81,81777,2,0,P|491:153|487:191,1,95.9999970703126,0|8,0:0|0:0,0:0:0:0:
233,295,82143,1,8,0:0:0:0:
194,129,82326,1,2,0:0:0:0:
402,266,82509,1,2,0:0:0:0:
389,303,82600,1,2,0:0:0:0:
353,327,82692,2,0,P|331:274|332:203,1,95.9999970703126,8|2,0:0|0:0,0:0:0:0:
293,22,83058,6,0,L|275:135,1,95.9999970703126,6|0,0:0|0:0,0:0:0:0:
78,221,83424,2,0,P|155:208|190:213,1,95.9999970703126,8|0,0:0|0:0,0:0:0:0:
402,266,83789,2,0,L|393:157,1,95.9999970703126,8|2,0:0|0:0,0:0:0:0:
49,110,84155,2,0,P|105:132|162:122,1,95.9999970703126,8|0,0:0|0:0,0:0:0:0:
360,98,84521,5,2,0:0:0:0:
178,209,84704,1,2,0:0:0:0:
254,19,84887,1,8,0:0:0:0:
342,257,85070,1,8,0:0:0:0:
338,285,85161,1,8,0:0:0:0:
334,313,85253,1,2,0:0:0:0:
163,125,85436,1,8,0:0:0:0:
170,167,85527,1,8,0:0:0:0:
178,209,85619,1,8,0:0:0:0:
186,251,85710,1,8,0:0:0:0:
195,292,85802,1,2,0:0:0:0:
409,208,85985,6,0,P|360:178|306:178,1,80,2|0,0:0|0:0,0:0:0:0:
104,284,86350,2,0,P|97:237|83:198,1,80,8|0,0:0|0:0,0:0:0:0:
252,233,86716,2,0,P|257:184|267:136,1,80,8|2,0:0|0:0,0:0:0:0:
157,137,87082,2,0,P|146:81|134:46,1,80,8|0,0:0|0:0,0:0:0:0:
314,48,87448,5,6,0:0:0:0:
157,137,87631,1,0,0:0:0:0:
369,123,87814,1,8,0:0:0:0:
61,66,87997,2,0,P|116:55|157:64,1,80,0|8,0:0|0:0,0:0:0:0:
273,168,88363,1,2,0:0:0:0:
270,183,88454,1,2,0:0:0:0:
267,198,88546,1,8,0:0:0:0:
232,70,88728,1,2,0:0:0:0:
217,275,88911,6,0,P|267:287|315:273,1,80,8|0,0:0|0:0,0:0:0:0:
467,113,89277,2,0,P|481:163|501:207,1,80,8|0,0:0|0:0,0:0:0:0:
503,279,89643,2,0,P|456:264|410:262,1,80,8|2,0:0|0:0,0:0:0:0:
345,226,90009,2,0,P|373:190|394:146,1,80,8|0,0:0|0:0,0:0:0:0:
503,279,90375,5,6,0:0:0:0:
345,226,90558,1,0,0:0:0:0:
491,188,90741,1,8,0:0:0:0:
188,205,90924,2,0,P|252:195|284:203,1,80,0|8,0:0|0:0,0:0:0:0:
371,301,91289,1,2,0:0:0:0:
386,297,91381,1,2,0:0:0:0:
401,293,91472,1,8,0:0:0:0:
266,197,91655,1,2,0:0:0:0:
483,346,91838,6,0,P|497:295|433:202,1,160,6|8,0:0|0:0,0:0:0:0:
357,155,92387,1,0,0:0:0:0:
432,59,92570,2,0,L|538:53,1,80,8|2,0:0|0:0,0:0:0:0:
348,172,92936,2,0,L|245:164,1,80,8|0,0:0|0:0,0:0:0:0:
204,88,93302,5,6,0:0:0:0:
78,280,93485,2,0,P|106:228|173:207,1,103.999995239258,0|8,0:0|0:0,0:0:0:0:
233,233,93850,1,0,0:0:0:0:
95,113,94033,1,8,0:0:0:0:
167,297,94216,1,2,0:0:0:0:
184,301,94308,1,2,0:0:0:0:
204,307,94399,1,8,0:0:0:0:
197,160,94582,1,2,0:0:0:0:
311,289,94765,6,0,P|325:243|319:187,1,80,6|0,0:0|0:0,0:0:0:0:
78,65,95131,2,0,P|73:105|78:153,1,80,8|2,0:0|0:0,0:0:0:0:
233,233,95497,1,6,0:0:0:0:
310,30,95680,1,8,0:0:0:0:
324,72,95771,1,8,0:0:0:0:
358,94,95863,1,8,0:0:0:0:
393,86,95954,1,8,0:0:0:0:
399,54,96046,2,0,P|377:34|358:30,1,40,2|0,0:0|0:0,0:0:0:0:
203,114,96228,5,12,0:0:0:0:
490,164,96411,2,0,L|384:162,1,80,12|0,0:0|0:0,0:0:0:0:
76,269,96777,1,8,0:0:0:0:
470,241,97143,1,8,0:0:0:0:
42,152,97509,1,8,0:0:0:0:
256,192,97692,12,0,100619,0:0:0:0:
