osu file format v14

[General]
AudioFilename: audio.mp3
AudioLeadIn: 0
PreviewTime: 62204
Countdown: 0
SampleSet: Soft
StackLeniency: 0.7
Mode: 0
LetterboxInBreaks: 0
WidescreenStoryboard: 1

[Editor]
Bookmarks: 47936
DistanceSpacing: 1
BeatDivisor: 4
GridSize: 4
TimelineZoom: 2.1

[Metadata]
Title:Mirai no Melody
TitleUnicode:未来のメロディー
Artist:Duca
ArtistUnicode:Duca
Creator:Hanazawa Kana
Version:Kamiya's Insane
Source:想いを捧げる乙女のメロディー ~あふれる想いを調べにのせて~
Tags:[Kamiya] eroge galgame ensemble Omoi o sasageru otome no merodi afureru omoi o shirabeni nosete Nekusam
BeatmapID:1458414
BeatmapSetID:684982

[Difficulty]
HPDrainRate:6
CircleSize:4
OverallDifficulty:7.5
ApproachRate:8.7
SliderMultiplier:1.6
SliderTickRate:1

[Events]
//Background and Video events
0,0,"BG.jpg",0,0
Video,0,"video.avi"
//Break Periods
//Storyboard Layer 0 (Background)
//Storyboard Layer 1 (Fail)
//Storyboard Layer 2 (Pass)
//Storyboard Layer 3 (Foreground)
//Storyboard Sound Samples

[TimingPoints]
1107,365.853658536585,4,2,1,50,1,0
1107,-166.666666666667,4,2,1,50,0,0
6960,-111.111111111111,4,2,1,50,0,0
8424,-100,4,2,1,50,0,0
12448,-142.857142857143,4,2,1,50,0,0
12722,-142.857142857143,4,2,1,5,0,0
12814,-100,4,2,1,50,0,0
22509,-100,4,2,1,30,0,0
22875,-100,4,2,1,50,0,0
23606,-133.333333333333,4,2,1,50,0,0
24521,-100,4,2,1,50,0,0
62570,-83.3333333333333,4,2,1,60,0,1
85985,-100,4,2,1,50,0,0
97509,-200,4,2,1,40,0,0
99155,-100,4,2,1,20,0,0

[Colours]
Combo1 : 154,240,136
Combo2 : 245,10,151
Combo3 : 238,206,153
Combo4 : 27,138,228

[HitObjects]
28,108,741,5,0,0:0:0:0:
64,192,1107,6,0,P|108:160|112:76,1,143.999995605469,2|0,0:0|0:0,0:0:0:0:
108,56,1838,2,0,P|136:112|168:132,1,95.9999970703126,0|0,0:0|0:0,0:0:0:0:
340,252,2570,6,0,P|360:196|284:196,1,143.999995605469,2|0,0:0|0:0,0:0:0:0:
316,216,3302,2,0,P|276:264|228:276,1,95.9999970703126,2|0,0:0|0:0,0:0:0:0:
216,168,4033,6,0,P|260:112|344:104,1,143.999995605469,2|0,0:0|0:0,0:0:0:0:
348,104,4765,2,0,P|300:84|292:32,1,95.9999970703126,0|0,0:0|0:0,0:0:0:0:
416,48,5497,6,0,P|440:104|400:176,1,143.999995605469,6|0,0:0|0:0,0:0:0:0:
392,184,6228,2,0,P|360:216|360:268,1,95.9999970703126,2|0,0:0|0:0,0:0:0:0:
472,332,6960,5,6,0:0:0:0:
312,332,7143,1,0,0:0:0:0:
312,332,7235,1,0,0:0:0:0:
312,332,7326,2,0,P|292:296|280:260,1,71.9999978027344,8|2,0:0|0:0,0:0:0:0:
284,180,7692,1,0,0:0:0:0:
264,264,7875,2,0,P|216:268|184:284,1,71.9999978027344,2|2,0:0|0:0,0:0:0:0:
112,296,8241,1,0,0:0:0:0:
192,352,8424,6,0,P|200:260|140:208,1,160,2|8,0:0|0:0,0:0:0:0:
72,184,8972,1,2,0:0:0:0:
112,296,9155,1,0,0:0:0:0:
260,176,9338,1,8,0:0:0:0:
164,52,9521,2,0,P|152:92|152:140,1,80,2|0,0:0|0:0,0:0:0:0:
168,216,9887,5,6,0:0:0:0:
150,130,10070,1,0,0:0:0:0:
172,232,10253,1,8,0:0:0:0:
76,116,10436,1,8,0:0:0:0:
176,252,10619,1,8,0:0:0:0:
0,104,10802,1,8,0:0:0:0:
12,272,10985,1,10,0:0:0:0:
224,104,11167,1,10,0:0:0:0:
328,352,11533,5,0,0:0:0:0:
328,188,11716,2,0,P|376:184|400:280,1,160,0|0,0:0|0:0,0:0:0:0:
328,352,12265,1,0,0:0:0:0:
328,188,12448,6,0,P|292:204|260:244,1,83.9999974365235,0|0,0:0|0:0,0:0:0:0:
260,256,12814,6,0,P|240:220|232:172,1,80,2|0,0:0|0:0,0:0:0:0:
272,96,13180,1,8,0:0:0:0:
232,182,13363,1,0,0:0:0:0:
32,124,13546,2,0,P|108:80|188:116,1,160,8|8,0:0|0:0,0:0:0:0:
232,182,14094,1,2,0:0:0:0:
96,284,14277,2,0,P|84:236|84:204,1,80,6|0,0:0|0:0,0:0:0:0:
212,300,14643,2,0,P|184:268|164:224,1,80,8|0,0:0|0:0,0:0:0:0:
328,248,15009,1,8,0:0:0:0:
232,182,15192,2,0,L|216:142,2,40,2|2|8,0:0|0:0|0:0,0:0:0:0:
328,248,15558,1,2,0:0:0:0:
480,192,15741,6,0,P|436:180|396:188,1,80,8|0,0:0|0:0,0:0:0:0:
328,248,16106,1,8,0:0:0:0:
402,185,16289,1,0,0:0:0:0:
380,32,16472,2,0,P|328:56|336:176,1,160,8|8,0:0|0:0,0:0:0:0:
402,185,17021,1,2,0:0:0:0:
396,348,17204,2,0,P|408:300|408:268,1,80,6|0,0:0|0:0,0:0:0:0:
164,312,17570,1,8,0:0:0:0:
280,364,17753,2,0,P|308:332|328:288,1,80,0|8,0:0|0:0,0:0:0:0:
260,246,18119,2,0,L|276:206,2,40,2|2|8,0:0|0:0|0:0,0:0:0:0:
164,312,18485,1,2,0:0:0:0:
116,104,18667,6,0,P|80:180|108:252,2,160,6|8|8,0:0|0:0|0:0,0:0:0:0:
192,56,19582,1,0,0:0:0:0:
360,140,19765,1,8,0:0:0:0:
280,184,19948,1,0,0:0:0:0:
408,60,20131,1,2,0:0:0:0:
468,132,20314,2,0,P|464:180|432:224,1,80,0|8,0:0|0:0,0:0:0:0:
280,88,20680,2,0,P|292:48|316:12,1,80,0|8,0:0|0:0,0:0:0:0:
360,140,21046,1,2,0:0:0:0:
360,140,21137,1,2,0:0:0:0:
360,140,21228,1,8,0:0:0:0:
196,132,21411,1,2,0:0:0:0:
280,184,21594,6,0,P|288:228|280:264,1,80,6|0,0:0|0:0,0:0:0:0:
204,228,21960,2,0,P|176:264|144:280,1,80,8|2,0:0|0:0,0:0:0:0:
120,180,22326,1,8,0:0:0:0:
32,88,22509,1,8,0:0:0:0:
32,96,22600,1,8,0:0:0:0:
32,104,22692,1,8,0:0:0:0:
32,112,22783,1,8,0:0:0:0:
32,120,22875,1,2,0:0:0:0:
145,279,23058,5,6,0:0:0:0:
384,228,23241,2,0,P|344:212|304:240,1,80,12|0,0:0|0:0,0:0:0:0:
444,304,23606,6,0,P|480:256|432:144,1,180.000006866455,8|8,0:0|0:0,0:0:0:0:
364,104,24338,1,2,0:0:0:0:
384,228,24521,1,6,0:0:0:0:
252,280,24704,6,0,P|288:300|344:304,1,80,0|8,0:0|0:0,0:0:0:0:
384,228,25070,1,0,0:0:0:0:
240,156,25253,1,2,0:0:0:0:
252,280,25436,1,0,0:0:0:0:
336,140,25619,2,0,P|316:96|292:72,2,80,8|0|2,0:0|0:0|0:0,0:0:0:0:
252,280,26167,5,0,0:0:0:0:
100,236,26350,2,0,P|140:224|184:224,1,80,8|0,0:0|0:0,0:0:0:0:
152,312,26716,1,2,0:0:0:0:
16,280,26899,1,0,0:0:0:0:
112,148,27082,2,0,P|100:192|100:232,2,80,8|0|2,0:0|0:0|0:0,0:0:0:0:
224,32,27631,5,0,0:0:0:0:
224,32,27814,2,0,P|216:72|192:112,1,80,8|0,0:0|0:0,0:0:0:0:
264,160,28180,2,0,P|236:188|200:204,1,80,2|0,0:0|0:0,0:0:0:0:
52,152,28546,1,8,0:0:0:0:
199,204,28728,1,0,0:0:0:0:
68,320,28911,6,0,P|52:272|52:224,1,80,2|0,0:0|0:0,0:0:0:0:
212,292,29277,2,0,P|168:284|136:264,1,80,8|0,0:0|0:0,0:0:0:0:
140,136,29643,1,2,0:0:0:0:
268,140,29826,1,0,0:0:0:0:
158,59,30009,1,8,0:0:0:0:
158,59,30192,2,0,P|142:99|142:155,1,80,0|2,0:0|0:0,0:0:0:0:
181,253,30558,5,0,0:0:0:0:
52,228,30741,1,8,0:0:0:0:
140,136,30924,1,0,0:0:0:0:
36,320,31106,2,0,P|36:280|48:240,2,80,2|0|8,0:0|0:0|0:0,0:0:0:0:
160,352,31655,1,0,0:0:0:0:
256,328,31838,6,0,L|336:304,1,80,2|0,0:0|0:0,0:0:0:0:
416,264,32204,1,8,0:0:0:0:
416,360,32387,1,0,0:0:0:0:
332,208,32570,2,0,P|312:252|308:288,1,80,2|0,0:0|0:0,0:0:0:0:
416,168,32936,2,0,P|352:112|280:128,1,160,8|2,0:0|0:0,0:0:0:0:
200,168,33485,5,0,0:0:0:0:
200,168,33667,2,0,P|152:176|112:156,1,80,8|0,0:0|0:0,0:0:0:0:
56,64,34033,1,2,0:0:0:0:
123,165,34216,1,0,0:0:0:0:
48,268,34399,1,8,0:0:0:0:
136,356,34582,1,0,0:0:0:0:
220,248,34765,6,0,P|268:228|348:296,1,160,2|8,0:0|0:0,0:0:0:0:
340,376,35314,2,0,L|356:212,1,160,6|8,0:0|0:0,0:0:0:0:
360,112,35863,1,2,0:0:0:0:
216,168,36046,1,0,0:0:0:0:
128,140,36228,5,2,0:0:0:0:
264,92,36411,2,0,P|228:72|172:68,1,80,0|8,0:0|0:0,0:0:0:0:
128,140,36777,1,0,0:0:0:0:
272,220,36960,1,2,0:0:0:0:
264,92,37143,1,0,0:0:0:0:
176,236,37326,2,0,P|196:280|220:304,2,80,8|0|2,0:0|0:0|0:0,0:0:0:0:
264,92,37875,5,0,0:0:0:0:
412,148,38058,2,0,P|372:160|328:160,1,80,8|0,0:0|0:0,0:0:0:0:
352,64,38424,1,2,0:0:0:0:
492,108,38606,1,0,0:0:0:0:
400,236,38789,2,0,P|412:192|412:152,2,80,8|0|2,0:0|0:0|0:0,0:0:0:0:
288,352,39338,5,0,0:0:0:0:
288,352,39521,2,0,P|296:312|320:272,1,80,8|0,0:0|0:0,0:0:0:0:
248,224,39887,2,0,P|276:196|312:180,1,80,2|0,0:0|0:0,0:0:0:0:
456,228,40253,1,8,0:0:0:0:
312,179,40436,1,0,0:0:0:0:
440,64,40619,6,0,P|456:112|456:160,1,80,2|0,0:0|0:0,0:0:0:0:
296,96,40985,2,0,P|340:100|372:124,1,80,8|0,0:0|0:0,0:0:0:0:
372,248,41350,1,2,0:0:0:0:
244,244,41533,1,2,0:0:0:0:
354,325,41716,1,8,0:0:0:0:
354,325,41899,2,0,P|370:285|370:229,1,80,0|2,0:0|0:0,0:0:0:0:
331,131,42265,5,0,0:0:0:0:
460,156,42448,1,8,0:0:0:0:
372,248,42631,1,0,0:0:0:0:
476,64,42814,2,0,P|476:104|464:144,2,80,2|0|8,0:0|0:0|0:0,0:0:0:0:
352,32,43363,1,0,0:0:0:0:
256,56,43546,6,0,L|176:80,1,80,2|0,0:0|0:0,0:0:0:0:
96,120,43911,1,8,0:0:0:0:
96,24,44094,1,0,0:0:0:0:
184,180,44277,2,0,P|204:136|200:96,1,80,2|0,0:0|0:0,0:0:0:0:
96,212,44643,2,0,P|160:276|232:264,1,160,8|2,0:0|0:0,0:0:0:0:
312,216,45192,5,0,0:0:0:0:
312,216,45375,2,0,P|360:208|400:228,1,80,8|2,0:0|0:0,0:0:0:0:
456,320,45741,1,2,0:0:0:0:
389,219,45924,1,0,0:0:0:0:
464,116,46106,1,8,0:0:0:0:
376,28,46289,1,0,0:0:0:0:
292,116,46472,6,0,P|256:136|204:120,2,80,6|2|8,0:0|0:0|0:0,0:0:0:0:
176,44,47021,2,0,P|136:112|156:200,1,160,2|8,0:0|0:0,0:0:0:0:
208,264,47570,1,2,0:0:0:0:
240,168,47753,1,0,0:0:0:0:
56,224,47936,5,2,0:0:0:0:
56,224,48119,1,2,0:0:0:0:
384,76,48667,5,2,0:0:0:0:
384,76,48850,1,2,0:0:0:0:
312,304,49399,5,2,0:0:0:0:
312,304,49582,1,2,0:0:0:0:
156,120,50131,5,2,0:0:0:0:
156,120,50314,1,2,0:0:0:0:
384,188,50863,5,2,0:0:0:0:
384,188,51046,1,2,0:0:0:0:
164,288,51594,6,0,P|148:248|160:200,1,80,2|2,0:0|0:0,0:0:0:0:
160,131,51960,1,2,0:0:0:0:
232,244,52143,2,0,P|240:204|136:136,1,160,12|2,0:0|0:0,0:0:0:0:
80,124,52692,1,8,0:0:0:0:
212,336,52875,2,0,P|160:312|156:204,1,160,2|8,0:0|0:0,0:0:0:0:
160,131,53424,1,2,0:0:0:0:
160,131,53789,6,0,L|248:96,1,80,2|0,0:0|0:0,0:0:0:0:
308,68,54155,1,8,0:0:0:0:
296,148,54338,1,0,0:0:0:0:
360,196,54521,2,0,P|376:156|364:116,1,80,2|0,0:0|0:0,0:0:0:0:
308,68,54887,2,0,P|276:32|244:20,1,80,8|0,0:0|0:0,0:0:0:0:
288,232,55253,6,0,P|316:260|360:276,1,80,2|0,0:0|0:0,0:0:0:0:
332,348,55619,2,0,P|384:344|408:328,1,80,8|0,0:0|0:0,0:0:0:0:
420,56,55985,2,0,P|392:96|356:116,1,80,2|0,0:0|0:0,0:0:0:0:
432,164,56350,2,0,P|392:188|344:196,1,80,8|0,0:0|0:0,0:0:0:0:
144,132,56716,6,0,P|228:108|296:152,1,160,2|8,0:0|0:0,0:0:0:0:
359,195,57265,1,0,0:0:0:0:
268,228,57448,1,2,0:0:0:0:
287,141,57631,1,0,0:0:0:0:
340,284,57814,6,0,P|288:316|184:268,2,160,8|2|8,0:0|0:0|0:0,0:0:0:0:
359,195,58728,1,0,0:0:0:0:
287,141,58911,2,0,P|268:184|268:224,1,80,2|0,0:0|0:0,0:0:0:0:
288,52,59277,2,0,P|248:68|216:100,1,80,8|0,0:0|0:0,0:0:0:0:
72,272,59643,6,0,P|120:244|144:128,1,160,2|8,0:0|0:0,0:0:0:0:
124,64,60192,1,0,0:0:0:0:
48,172,60375,1,2,0:0:0:0:
188,300,60558,2,0,L|196:260,5,40,8|8|8|8|2|0,0:0|0:0|0:0|0:0|0:0|0:0,0:0:0:0:
184,320,61106,5,2,0:0:0:0:
300,288,61289,1,0,0:0:0:0:
272,172,61472,1,8,0:0:0:0:
156,200,61655,1,12,0:0:0:0:
156,200,61747,1,8,0:0:0:0:
156,200,61838,1,8,0:0:0:0:
292,88,62021,1,12,0:0:0:0:
292,88,62113,1,8,0:0:0:0:
292,88,62204,2,0,L|244:80,1,40,8|8,0:0|0:0,0:0:0:0:
196,28,62387,2,0,L|140:40,1,40,2|0,0:0|0:0,0:0:0:0:
84,64,62570,6,0,B|116:108|84:156|84:156|52:200|96:272,1,191.999994140625,2|8,0:0|0:0,0:0:0:0:
140,376,63119,1,0,0:0:0:0:
252,200,63302,2,0,L|156:200,1,95.9999970703126,2|2,0:0|0:0,0:0:0:0:
260,80,63667,2,0,P|304:64|352:80,1,95.9999970703126,8|2,0:0|0:0,0:0:0:0:
420,144,64033,5,6,0:0:0:0:
344,232,64216,1,0,0:0:0:0:
349,78,64399,1,8,0:0:0:0:
420,296,64582,1,0,0:0:0:0:
420,144,64765,1,8,0:0:0:0:
280,156,64948,1,2,0:0:0:0:
280,156,65039,1,2,0:0:0:0:
280,156,65131,1,8,0:0:0:0:
176,272,65314,1,2,0:0:0:0:
88,248,65497,6,0,P|68:200|80:148,1,95.9999970703126,2|0,0:0|0:0,0:0:0:0:
192,108,65863,2,0,P|180:164|148:192,1,95.9999970703126,8|0,0:0|0:0,0:0:0:0:
136,44,66228,2,0,P|200:24|280:120,1,191.999994140625,8|8,0:0|0:0,0:0:0:0:
272,200,66777,1,2,0:0:0:0:
192,108,66960,5,6,0:0:0:0:
280,104,67143,1,0,0:0:0:0:
180,200,67326,1,8,0:0:0:0:
364,264,67509,1,0,0:0:0:0:
228,280,67692,1,8,0:0:0:0:
364,264,67875,1,2,0:0:0:0:
364,252,67966,1,2,0:0:0:0:
364,240,68058,2,0,L|364:136,1,95.9999970703126,8|2,0:0|0:0,0:0:0:0:
392,52,68424,6,0,P|344:48|280:176,1,191.999994140625,6|8,0:0|0:0,0:0:0:0:
232,324,68972,2,0,P|276:284|276:236,1,95.9999970703126,0|8,0:0|0:0,0:0:0:0:
272,155,69338,1,2,0:0:0:0:
192,208,69521,1,8,0:0:0:0:
279,250,69704,6,0,L|384:248,2,95.9999970703126,2|6|0,0:0|0:0|0:0,0:0:0:0:
192,208,70253,1,8,0:0:0:0:
120,268,70436,1,0,0:0:0:0:
184,112,70619,1,8,0:0:0:0:
104,168,70802,1,2,0:0:0:0:
104,168,70893,1,2,0:0:0:0:
104,168,70985,1,8,0:0:0:0:
232,324,71167,1,2,0:0:0:0:
324,356,71350,6,0,P|324:304|300:264,1,95.9999970703126,6|0,0:0|0:0,0:0:0:0:
384,232,71716,2,0,P|344:188|288:176,1,95.9999970703126,8|0,0:0|0:0,0:0:0:0:
160,264,72082,6,0,P|160:212|184:172,1,95.9999970703126,8|2,0:0|0:0,0:0:0:0:
100,140,72448,2,0,P|140:96|196:84,1,95.9999970703126,8|2,0:0|0:0,0:0:0:0:
352,72,72814,5,12,0:0:0:0:
232,236,72997,1,12,0:0:0:0:
348,192,73180,1,0,0:0:0:0:
100,140,73363,1,8,0:0:0:0:
12,264,73728,5,2,0:0:0:0:
16,248,73820,1,2,0:0:0:0:
20,232,73911,2,0,L|32:176,1,47.9999985351563,8|8,0:0|0:0,0:0:0:0:
100,140,74094,1,2,0:0:0:0:
108,156,74186,1,0,0:0:0:0:
116,168,74277,2,0,L|228:328,1,191.999994140625,2|8,0:0|0:0,0:0:0:0:
312,320,74826,1,0,0:0:0:0:
226,325,75009,2,0,P|178:341|120:328,1,95.9999970703126,8|2,0:0|0:0,0:0:0:0:
280,240,75375,2,0,P|328:236|372:256,1,95.9999970703126,8|2,0:0|0:0,0:0:0:0:
488,336,75741,5,6,0:0:0:0:
370,255,75924,1,0,0:0:0:0:
400,340,76106,1,8,0:0:0:0:
464,248,76289,1,0,0:0:0:0:
388,96,76472,1,8,0:0:0:0:
296,72,76655,1,2,0:0:0:0:
296,72,76747,1,2,0:0:0:0:
296,72,76838,1,8,0:0:0:0:
368,188,77021,1,0,0:0:0:0:
276,164,77204,6,0,P|220:128|224:12,1,191.999994140625,2|8,0:0|0:0,0:0:0:0:
296,72,77753,1,0,0:0:0:0:
368,188,77936,2,0,L|344:292,1,95.9999970703126,8|2,0:0|0:0,0:0:0:0:
296,72,78302,2,0,L|272:180,1,95.9999970703126,8|2,0:0|0:0,0:0:0:0:
232,308,78667,5,4,0:0:0:0:
275,165,78850,1,0,0:0:0:0:
112,276,79033,1,8,0:0:0:0:
275,165,79216,1,0,0:0:0:0:
112,276,79399,1,8,0:0:0:0:
112,264,79491,1,0,0:0:0:0:
112,252,79582,1,2,0:0:0:0:
112,240,79674,1,2,0:0:0:0:
112,228,79765,2,0,L|112:128,1,95.9999970703126,8|2,0:0|0:0,0:0:0:0:
256,48,80131,6,0,P|272:140|180:176,1,191.999994140625,6|8,0:0|0:0,0:0:0:0:
112,132,80680,2,0,P|148:96|200:100,1,95.9999970703126,0|8,0:0|0:0,0:0:0:0:
272,140,81046,1,2,0:0:0:0:
195,179,81228,1,8,0:0:0:0:
268,228,81411,2,0,L|352:280,2,95.9999970703126,2|6|0,0:0|0:0|0:0,0:0:0:0:
195,179,81960,1,8,0:0:0:0:
188,264,82143,1,8,0:0:0:0:
272,140,82326,1,2,0:0:0:0:
116,216,82509,1,2,0:0:0:0:
116,216,82600,1,2,0:0:0:0:
116,216,82692,1,8,0:0:0:0:
188,264,82875,1,2,0:0:0:0:
190,95,83058,5,6,0:0:0:0:
188,264,83241,1,0,0:0:0:0:
264,52,83424,1,8,0:0:0:0:
260,308,83606,1,0,0:0:0:0:
116,56,83789,1,8,0:0:0:0:
116,308,83972,1,2,0:0:0:0:
336,176,84155,1,8,0:0:0:0:
40,176,84338,1,0,0:0:0:0:
260,308,84521,1,2,0:0:0:0:
264,52,84704,5,2,0:0:0:0:
188,352,84887,1,8,0:0:0:0:
168,176,85070,1,8,0:0:0:0:
168,176,85161,1,8,0:0:0:0:
168,176,85253,1,2,0:0:0:0:
343,192,85436,5,8,0:0:0:0:
343,180,85527,1,8,0:0:0:0:
343,168,85619,1,8,0:0:0:0:
343,156,85710,1,8,0:0:0:0:
343,144,85802,1,2,0:0:0:0:
260,200,85985,6,0,P|316:280|384:272,1,160,2|8,0:0|0:0,0:0:0:0:
448,236,86533,1,0,0:0:0:0:
408,152,86716,2,0,P|364:168|336:216,1,80,8|2,0:0|0:0,0:0:0:0:
460,84,87082,2,0,P|420:72|352:88,1,80,8|0,0:0|0:0,0:0:0:0:
496,164,87448,1,6,0:0:0:0:
408,152,87631,1,0,0:0:0:0:
468,312,87814,2,0,P|448:252|448:216,1,80,8|0,0:0|0:0,0:0:0:0:
496,164,88180,1,8,0:0:0:0:
368,280,88363,2,0,L|376:336,2,40,2|2|8,0:0|0:0|0:0,0:0:0:0:
496,164,88728,1,2,0:0:0:0:
448,232,88911,6,0,P|396:196|292:232,1,160,8|8,0:0|0:0,0:0:0:0:
252,276,89460,1,0,0:0:0:0:
100,224,89643,2,0,P|128:252|176:264,1,80,8|2,0:0|0:0,0:0:0:0:
160,96,90009,2,0,P|156:136|176:196,1,80,8|0,0:0|0:0,0:0:0:0:
180,16,90375,1,6,0:0:0:0:
160,96,90558,1,0,0:0:0:0:
24,56,90741,2,0,P|64:40|116:40,1,80,8|0,0:0|0:0,0:0:0:0:
160,96,91106,1,8,0:0:0:0:
320,72,91289,2,0,L|360:72,2,40,2|2|8,0:0|0:0|0:0,0:0:0:0:
240,72,91655,1,2,0:0:0:0:
160,96,91838,6,0,P|124:172|152:244,2,160,6|8|8,0:0|0:0|0:0,0:0:0:0:
236,48,92753,1,2,0:0:0:0:
404,132,92936,1,8,0:0:0:0:
324,176,93119,1,0,0:0:0:0:
452,52,93302,1,6,0:0:0:0:
512,124,93485,2,0,P|508:172|476:216,1,80,0|8,0:0|0:0,0:0:0:0:
324,80,93850,2,0,P|336:40|360:4,1,80,0|8,0:0|0:0,0:0:0:0:
404,132,94216,1,2,0:0:0:0:
404,132,94308,1,2,0:0:0:0:
404,132,94399,1,8,0:0:0:0:
240,124,94582,1,2,0:0:0:0:
324,176,94765,6,0,P|332:220|324:256,1,80,6|0,0:0|0:0,0:0:0:0:
248,220,95131,2,0,P|220:256|188:272,1,80,8|2,0:0|0:0,0:0:0:0:
164,172,95497,1,6,0:0:0:0:
76,80,95680,1,8,0:0:0:0:
76,88,95771,1,8,0:0:0:0:
76,96,95863,1,8,0:0:0:0:
76,104,95954,1,8,0:0:0:0:
76,112,96046,1,2,0:0:0:0:
84,268,96228,5,12,0:0:0:0:
324,223,96411,2,0,P|280:211|248:219,1,80,12|0,0:0|0:0,0:0:0:0:
392,296,96777,2,0,P|420:248|376:144,1,160,8|8,0:0|0:0,0:0:0:0:
308,88,97326,1,0,0:0:0:0:
288,324,97509,6,0,P|308:196|360:328,1,360,8|0,0:0|0:0,0:0:0:0:
