osu file format v14

[General]
AudioFilename: audio.mp3
AudioLeadIn: 0
PreviewTime: 62204
Countdown: 0
SampleSet: Soft
StackLeniency: 0.7
Mode: 0
LetterboxInBreaks: 0
WidescreenStoryboard: 0

[Editor]
Bookmarks: 47936
DistanceSpacing: 1.1
BeatDivisor: 4
GridSize: 32
TimelineZoom: 2.1

[Metadata]
Title:Mirai no Melody
TitleUnicode:未来のメロディー
Artist:Duca
ArtistUnicode:Duca
Creator:Hanazawa Kana
Version:Insane
Source:想いを捧げる乙女のメロディー ~あふれる想いを調べにのせて~
Tags:[Kamiya] eroge galgame ensemble Omoi o sasageru otome no merodi afureru omoi o shirabeni nosete Nekusam
BeatmapID:1456247
BeatmapSetID:684982

[Difficulty]
HPDrainRate:5.5
CircleSize:4
OverallDifficulty:7.5
ApproachRate:8.8
SliderMultiplier:1.5
SliderTickRate:1

[Events]
//Background and Video events
0,0,"BG.jpg",0,0
Video,0,"video.avi"
//Break Periods
//Storyboard Layer 0 (Background)
//Storyboard Layer 1 (Fail)
//Storyboard Layer 2 (Pass)
//Storyboard Layer 3 (Foreground)
//Storyboard Sound Samples

[TimingPoints]
1107,365.853658536585,4,2,1,50,1,0
1107,-142.857142857143,4,2,1,50,0,0
6960,-100,4,2,1,50,0,0
8698,-100,4,2,1,5,0,0
8789,-100,4,2,1,50,0,0
9430,-100,4,2,1,5,0,0
9521,-100,4,2,1,50,0,0
13454,-100,4,2,1,5,0,0
13546,-100,4,2,1,50,0,0
16381,-100,4,2,1,5,0,0
16472,-100,4,2,1,50,0,0
16838,-100,4,2,1,50,0,0
18942,-100,4,2,1,5,0,0
19033,-100,4,2,1,50,0,0
19308,-100,4,2,1,5,0,0
19399,-100,4,2,1,50,0,0
20222,-100,4,2,1,5,0,0
20314,-100,4,2,1,50,0,0
22509,-100,4,2,1,30,0,0
22875,-100,4,2,1,50,0,0
29917,-100,4,2,1,5,0,0
30009,-100,4,2,1,50,0,0
30283,-100,4,2,1,5,0,0
30375,-100,4,2,1,50,0,0
31655,-76.9230769230769,4,2,1,50,0,0
32021,-100,4,2,1,50,0,0
32570,-83.3333333333333,4,2,1,50,0,0
33302,-100,4,2,1,50,0,0
33576,-100,4,2,1,5,0,0
33667,-100,4,2,1,50,0,0
34308,-100,4,2,1,5,0,0
34399,-100,4,2,1,50,0,0
44277,-76.9230769230769,4,2,1,50,0,0
44643,-66.6666666666667,4,2,1,50,0,0
45009,-100,4,2,1,50,0,0
45283,-100,4,2,1,5,0,0
45375,-100,4,2,1,50,0,0
48027,-100,4,2,1,5,0,0
48119,-100,4,2,1,50,0,0
48759,-100,4,2,1,5,0,0
48850,-100,4,2,1,50,0,0
49491,-100,4,2,1,5,0,0
49582,-100,4,2,1,50,0,0
50222,-100,4,2,1,5,0,0
50314,-100,4,2,1,50,0,0
50954,-100,4,2,1,5,0,0
51046,-100,4,2,1,50,0,0
51686,-100,4,2,1,5,0,0
51777,-100,4,2,1,50,0,0
57814,-200,4,2,1,50,0,0
58180,-166.666666666667,4,2,1,50,0,0
58546,-142.857142857143,4,2,1,50,0,0
58911,-125,4,2,1,50,0,0
59277,-111.111111111111,4,2,1,50,0,0
59643,-111.111111111111,4,2,1,50,0,0
61106,-100,4,2,1,50,0,0
62570,-90.9090909090909,4,2,1,60,0,1
64308,-90.9090909090909,4,2,1,5,0,1
64399,-90.9090909090909,4,2,1,60,0,1
67235,-90.9090909090909,4,2,1,5,0,1
67326,-90.9090909090909,4,2,1,60,0,1
68698,-90.9090909090909,4,2,1,5,0,1
68789,-90.9090909090909,4,2,1,60,0,1
70344,-90.9090909090909,4,2,1,5,0,1
70436,-90.9090909090909,4,2,1,60,0,1
80405,-90.9090909090909,4,2,1,5,0,1
80497,-90.9090909090909,4,2,1,60,0,1
82235,-90.9090909090909,4,2,1,5,0,1
82326,-90.9090909090909,4,2,1,60,0,1
85985,-100,4,2,1,50,0,0
93210,-100,4,2,1,5,0,0
93302,-100,4,2,1,50,0,0
97692,-100,4,2,1,30,0,0
99155,-100,4,2,1,20,0,0
100619,-100,4,2,1,5,0,0

[Colours]
Combo1 : 154,240,136
Combo2 : 245,10,151
Combo3 : 238,206,153
Combo4 : 27,138,228

[HitObjects]
140,174,1107,5,2,0:0:0:0:
140,174,2570,2,0,P|194:148|257:154,1,104.999996795654,2|0,0:0|0:0,0:0:0:0:
313,201,3302,2,0,L|301:316,1,104.999996795654,2|0,0:0|0:0,0:0:0:0:
237,356,4033,5,2,0:0:0:0:
237,356,5497,6,0,P|311:315|337:319,1,104.999996795654,6|0,0:0|0:0,0:0:0:0:
407,333,6228,2,0,L|396:215,1,104.999996795654,2|0,0:0|0:0,0:0:0:0:
358,151,6960,5,6,0:0:0:0:
482,203,7143,2,0,L|468:143,1,37.5
447,91,7326,1,8,0:0:0:0:
283,152,7509,2,0,L|384:150,1,75,2|0,0:0|0:0,0:0:0:0:
235,81,7875,1,2,0:0:0:0:
214,245,8058,2,0,P|254:233|306:232,1,75,2|0,0:0|0:0,0:0:0:0:
417,352,8424,6,0,L|294:330,1,112.5,2|0,0:0|0:0,0:0:0:0:
274,327,8789,1,8,0:0:0:0:
417,248,8972,1,2,0:0:0:0:
429,261,9338,2,0,L|367:249,1,37.5,8|0,0:0|0:0,0:0:0:0:
287,230,9521,1,2,0:0:0:0:
266,220,9887,6,0,L|361:205,1,75,6|0,0:0|0:0,0:0:0:0:
469,175,10253,1,8,0:0:0:0:
340,208,10436,1,8,0:0:0:0:
263,91,10619,1,8,0:0:0:0:
378,127,10802,1,8,0:0:0:0:
512,43,10985,1,10,0:0:0:0:
263,91,11167,1,10,0:0:0:0:
178,274,12814,5,2,0:0:0:0:
178,274,13180,2,0,L|305:246,1,112.5,8|0,0:0|0:0,0:0:0:0:
322,260,13546,1,8,0:0:0:0:
221,182,13728,1,2,0:0:0:0:
384,169,13911,2,0,P|335:154|280:158,1,75,8|2,0:0|0:0,0:0:0:0:
128,203,14277,5,6,0:0:0:0:
221,182,14460,1,0,0:0:0:0:
89,279,14643,1,8,0:0:0:0:
178,274,14826,1,0,0:0:0:0:
42,205,15009,1,8,0:0:0:0:
148,360,15192,1,2,0:0:0:0:
148,360,15283,1,2,0:0:0:0:
148,360,15375,1,8,0:0:0:0:
128,203,15558,1,2,0:0:0:0:
261,370,15741,6,0,L|270:273,1,75,8|0,0:0|0:0,0:0:0:0:
263,203,16106,2,0,P|316:179|387:187,1,112.5,8|0,0:0|0:0,0:0:0:0:
405,200,16472,1,8,0:0:0:0:
195,146,16655,1,2,0:0:0:0:
332,48,16838,2,0,P|373:80|385:117,1,75,8|2,0:0|0:0,0:0:0:0:
340,271,17204,5,6,0:0:0:0:
307,124,17387,1,0,0:0:0:0:
457,139,17570,1,8,0:0:0:0:
263,203,17753,1,0,0:0:0:0:
195,129,17936,1,8,0:0:0:0:
178,283,18119,1,2,0:0:0:0:
178,283,18210,1,2,0:0:0:0:
178,283,18302,1,8,0:0:0:0:
112,223,18485,1,2,0:0:0:0:
229,354,18667,6,0,L|356:333,1,112.5,6|0,0:0|0:0,0:0:0:0:
374,325,19033,2,0,L|256:300,1,112.5,8|0,0:0|0:0,0:0:0:0:
253,290,19399,2,0,L|358:268,1,75,8|0,0:0|0:0,0:0:0:0:
493,356,19765,1,8,0:0:0:0:
501,342,20131,6,0,L|433:353,1,37.5,2|0,0:0|0:0,0:0:0:0:
374,325,20314,1,0,0:0:0:0:
435,263,20497,1,8,0:0:0:0:
300,203,20680,2,0,P|356:208|463:207,1,150,0|2,0:0|0:0,0:0:0:0:
480,205,21137,1,2,0:0:0:0:
480,205,21228,1,8,0:0:0:0:
418,132,21411,1,2,0:0:0:0:
241,121,21594,6,0,P|277:112|314:114,1,75,6|0,0:0|0:0,0:0:0:0:
123,97,21960,2,0,P|165:67|200:60,1,75,8|2,0:0|0:0,0:0:0:0:
73,191,22326,1,8,0:0:0:0:
320,369,22509,1,8,0:0:0:0:
315,327,22600,1,8,0:0:0:0:
310,286,22692,1,8,0:0:0:0:
305,244,22783,1,8,0:0:0:0:
300,203,22875,1,2,0:0:0:0:
227,235,23058,5,6,0:0:0:0:
417,280,23241,1,12,0:0:0:0:
493,282,23606,1,8,0:0:0:0:
418,173,23972,1,2,0:0:0:0:
395,352,24155,1,8,0:0:0:0:
305,244,24338,1,2,0:0:0:0:
242,360,24521,5,6,0:0:0:0:
128,296,24704,2,0,L|213:284,1,75,0|8,0:0|0:0,0:0:0:0:
314,321,25070,1,0,0:0:0:0:
111,312,25253,2,0,L|35:299,2,75,2|0|8,0:0|0:0|0:0,0:0:0:0:
297,166,25802,1,0,0:0:0:0:
290,156,26167,6,0,L|381:141,1,75,0|8,0:0|0:0,0:0:0:0:
479,190,26533,1,0,0:0:0:0:
280,142,26716,2,0,L|180:122,2,75,2|0|8,0:0|0:0|0:0,0:0:0:0:
474,32,27265,1,0,0:0:0:0:
478,52,27631,6,0,P|419:25|345:62,1,150,0|0,0:0|0:0,0:0:0:0:
364,143,28180,1,2,0:0:0:0:
216,209,28363,2,0,L|127:192,2,75,0|8|0,0:0|0:0|0:0,0:0:0:0:
468,141,28911,6,0,L|444:299,1,150,2|8,0:0|0:0,0:0:0:0:
500,355,29460,1,0,0:0:0:0:
321,248,29643,1,2,0:0:0:0:
347,234,29826,2,0,L|352:294,1,37.5
260,334,30009,1,8,0:0:0:0:
245,359,30192,2,0,L|236:305,1,37.5
138,266,30375,5,2,0:0:0:0:
20,323,30558,1,0,0:0:0:0:
93,358,30741,2,0,P|98:311|79:265,1,75,8|0,0:0|0:0,0:0:0:0:
9,58,31106,1,2,0:0:0:0:
18,142,31289,2,0,P|67:120|90:93,1,75,0|8,0:0|0:0,0:0:0:0:
178,115,31655,2,0,L|51:102,1,97.4999955368044,0|2,0:0|0:0,0:0:0:0:
176,29,32021,5,0,0:0:0:0:
256,76,32204,2,0,P|302:58|347:58,1,75,8|0,0:0|0:0,0:0:0:0:
265,192,32570,2,0,P|283:160|334:138,1,89.9999972534181,2|0,0:0|0:0,0:0:0:0:
364,310,32936,2,0,L|340:196,1,89.9999972534181,8|0,0:0|0:0,0:0:0:0:
512,135,33302,6,0,P|478:173|394:166,1,112.5,2|0,0:0|0:0,0:0:0:0:
400,170,33667,1,8,0:0:0:0:
484,274,33850,1,0,0:0:0:0:
436,82,34033,1,2,0:0:0:0:
309,174,34216,2,0,L|295:110,1,37.5,0|0,0:0|0:0,0:0:0:0:
307,52,34399,1,8,0:0:0:0:
256,253,34582,1,0,0:0:0:0:
171,221,34765,6,0,P|196:187|244:169,1,75,2|0,0:0|0:0,0:0:0:0:
73,292,35131,1,8,0:0:0:0:
1,334,35314,2,0,P|39:367|72:374,1,75,6|0,0:0|0:0,0:0:0:0:
194,302,35680,1,8,0:0:0:0:
0,225,35863,2,0,L|98:205,1,75,2|0,0:0|0:0,0:0:0:0:
309,174,36228,5,2,0:0:0:0:
336,252,36411,1,0,0:0:0:0:
466,203,36594,2,0,L|367:191,1,75,8|0,0:0|0:0,0:0:0:0:
231,352,36960,2,0,P|280:339|329:338,2,75,2|0|8,0:0|0:0|0:0,0:0:0:0:
116,216,37509,1,0,0:0:0:0:
122,227,37875,5,0,0:0:0:0:
0,151,38058,2,0,L|77:142,1,75,8|0,0:0|0:0,0:0:0:0:
336,252,38424,2,0,P|286:239|247:243,2,75,2|0|8,0:0|0:0|0:0,0:0:0:0:
447,64,38972,1,0,0:0:0:0:
447,85,39338,6,0,L|367:80,1,75,0|8,0:0|0:0,0:0:0:0:
156,68,39704,1,0,0:0:0:0:
162,90,40070,2,0,L|68:81,2,75,0|8|0,0:0|0:0|0:0,0:0:0:0:
362,303,40619,6,0,P|378:221|389:141,1,150,2|8,0:0|0:0,0:0:0:0:
372,80,41167,1,0,0:0:0:0:
472,238,41350,1,2,0:0:0:0:
488,235,41533,1,0,0:0:0:0:
417,357,41716,1,8,0:0:0:0:
419,373,41899,1,0,0:0:0:0:
264,292,42082,5,2,0:0:0:0:
188,352,42265,2,0,L|88:358,1,75,0|8,0:0|0:0,0:0:0:0:
28,359,42631,1,0,0:0:0:0:
252,198,42814,2,0,L|338:205,2,75,2|0|8,0:0|0:0|0:0,0:0:0:0:
58,181,43363,1,0,0:0:0:0:
62,195,43728,5,0,0:0:0:0:
200,139,43911,2,0,P|143:119|117:128,1,75,8|0,0:0|0:0,0:0:0:0:
294,135,44277,2,0,P|267:82|220:53,1,97.4999955368044,2|0,0:0|0:0,0:0:0:0:
376,154,44643,2,0,P|368:83|329:19,1,112.500004291535,8|0,0:0|0:0,0:0:0:0:
452,199,45009,6,0,P|464:116|456:62,1,112.5,2|0,0:0|0:0,0:0:0:0:
456,62,45375,1,8,0:0:0:0:
301,251,45558,2,0,L|397:246,1,75,2|0,0:0|0:0,0:0:0:0:
233,355,45924,1,0,0:0:0:0:
352,329,46106,2,0,L|462:334,1,75,8|0,0:0|0:0,0:0:0:0:
492,278,46472,5,6,0:0:0:0:
301,251,46655,1,2,0:0:0:0:
147,350,46838,1,8,0:0:0:0:
34,211,47021,1,2,0:0:0:0:
36,225,47387,5,8,0:0:0:0:
301,251,47570,1,2,0:0:0:0:
215,177,47936,6,0,P|241:171|280:180,1,37.5,2|0,0:0|0:0,0:0:0:0:
349,236,48119,1,2,0:0:0:0:
170,112,48667,6,0,P|193:102|220:99,1,37.5,2|0,0:0|0:0,0:0:0:0:
381,196,48850,1,2,0:0:0:0:
170,247,49399,6,0,P|190:253|222:253,1,37.5,2|0,0:0|0:0,0:0:0:0:
401,242,49582,1,2,0:0:0:0:
207,329,50131,6,0,P|230:331|263:326,1,37.5,2|0,0:0|0:0,0:0:0:0:
399,291,50314,1,2,0:0:0:0:
133,254,50863,6,0,P|161:247|188:249,1,37.5,2|0,0:0|0:0,0:0:0:0:
355,265,51046,1,2,0:0:0:0:
3,292,51594,6,0,P|29:284|58:283,1,37.5,2|0,0:0|0:0,0:0:0:0:
162,323,51777,1,2,0:0:0:0:
29,372,51960,1,2,0:0:0:0:
229,365,52143,6,0,L|251:190,1,150,12|2,0:0|0:0,0:0:0:0:
173,99,52692,1,8,0:0:0:0:
72,201,52875,2,0,P|114:181|167:189,1,75,2|0,0:0|0:0,0:0:0:0:
247,216,53241,1,8,0:0:0:0:
332,366,53424,2,0,L|322:284,1,75,2|0,0:0|0:0,0:0:0:0:
348,163,53789,5,2,0:0:0:0:
266,126,53972,2,0,L|189:136,2,75,0|8|0,0:0|0:0|0:0,0:0:0:0:
381,55,54521,2,0,L|471:73,1,75,2|0,0:0|0:0,0:0:0:0:
512,21,54887,1,8,0:0:0:0:
502,22,55253,6,0,L|487:124,1,75,2|0,0:0|0:0,0:0:0:0:
483,175,55619,2,0,L|467:263,1,75,8|0,0:0|0:0,0:0:0:0:
328,90,55985,2,0,L|351:177,1,75,2|0,0:0|0:0,0:0:0:0:
379,236,56350,2,0,L|404:314,1,75,8|0,0:0|0:0,0:0:0:0:
476,357,56716,6,0,L|222:331,1,225,2|0,0:0|0:0,0:0:0:0:
101,284,57448,2,0,L|207:266,1,75,2|0,0:0|0:0,0:0:0:0:
252,249,57814,6,0,P|254:264|253:286,1,37.5,8|0,0:0|0:0,0:0:0:0:
250,336,58180,6,0,P|234:357|214:370,1,44.999998626709,2|0,0:0|0:0,0:0:0:0:
133,384,58546,6,0,P|107:376|70:349,1,52.4999983978272,8|0,0:0|0:0,0:0:0:0:
9,302,58911,6,0,P|2:271|10:230,1,60,2|0,0:0|0:0,0:0:0:0:
0,132,59277,6,0,P|21:111|81:93,1,67.4999979400635,8|0,0:0|0:0,0:0:0:0:
257,222,59643,6,0,B|227:250|184:220|184:220|144:236|144:236|111:198|61:203,1,202.499993820191,2|0,0:0|0:0,0:0:0:0:
186,302,60375,1,2,0:0:0:0:
326,150,60558,1,8,0:0:0:0:
331,191,60649,1,8,0:0:0:0:
335,231,60741,1,8,0:0:0:0:
339,272,60832,1,8,0:0:0:0:
345,312,60924,1,2,0:0:0:0:
475,80,61106,6,0,L|378:69,1,75,2|0,0:0|0:0,0:0:0:0:
326,150,61472,1,8,0:0:0:0:
194,121,61655,1,12,0:0:0:0:
219,117,61747,1,8,0:0:0:0:
244,116,61838,1,8,0:0:0:0:
120,51,62021,1,12,0:0:0:0:
160,44,62113,1,8,0:0:0:0:
200,38,62204,1,8,0:0:0:0:
241,32,62296,1,8,0:0:0:0:
281,26,62387,1,2,0:0:0:0:
20,155,62570,6,0,P|67:136|144:231,1,165.000005035401,2|8,0:0|0:0,0:0:0:0:
113,285,63119,1,0,0:0:0:0:
252,265,63302,2,0,P|298:251|342:252,2,82.5000025177003,2|2|8,0:0|0:0|0:0,0:0:0:0:
68,220,63850,1,2,0:0:0:0:
306,329,64033,6,0,L|321:194,1,123.75000377655,6|0,0:0|0:0,0:0:0:0:
323,174,64399,1,8,0:0:0:0:
438,232,64582,2,0,L|429:117,1,82.5000025177003,0|8,0:0|0:0,0:0:0:0:
267,76,64948,1,2,0:0:0:0:
267,76,65039,1,2,0:0:0:0:
267,76,65131,6,0,P|337:91|359:80,1,82.5000025177003,8|2,0:0|0:0,0:0:0:0:
486,75,65497,2,0,P|431:114|326:60,1,165.000005035401,2|8,0:0|0:0,0:0:0:0:
312,2,66046,1,0,0:0:0:0:
159,145,66228,2,0,P|114:134|72:134,2,82.5000025177003,8|2|8,0:0|0:0|0:0,0:0:0:0:
410,38,66777,1,2,0:0:0:0:
357,288,66960,6,0,L|345:149,1,123.75000377655,6|0,0:0|0:0,0:0:0:0:
344,140,67326,1,8,0:0:0:0:
227,199,67509,2,0,L|240:103,1,82.5000025177003,0|8,0:0|0:0,0:0:0:0:
62,38,67875,1,2,0:0:0:0:
62,38,67966,1,2,0:0:0:0:
62,38,68058,6,0,P|118:59|158:45,1,82.5000025177003,8|2,0:0|0:0,0:0:0:0:
219,28,68424,2,0,P|272:28|327:96,1,123.75000377655,6|0,0:0|0:0,0:0:0:0:
328,97,68789,1,8,0:0:0:0:
457,24,68972,2,0,L|429:216,1,165.000005035401,0|2,0:0|0:0,0:0:0:0:
417,300,69521,1,8,0:0:0:0:
332,223,69704,6,0,P|283:213|247:225,1,82.5000025177003,2|6,0:0|0:0,0:0:0:0:
128,229,70070,2,0,P|209:239|242:292,1,123.75000377655,0|0,0:0|0:0,0:0:0:0:
240,295,70436,1,0,0:0:0:0:
31,149,70619,2,0,L|149:132,1,82.5000025177003,8|2,0:0|0:0,0:0:0:0:
144,141,70893,1,2,0:0:0:0:
144,141,70985,1,8,0:0:0:0:
158,311,71167,1,2,0:0:0:0:
246,135,71350,6,0,L|348:127,1,82.5000025177003,6|0,0:0|0:0,0:0:0:0:
410,130,71716,2,0,L|293:127,1,82.5000025177003,8|0,0:0|0:0,0:0:0:0:
205,59,72082,1,8,0:0:0:0:
486,93,72265,1,2,0:0:0:0:
494,137,72356,1,2,0:0:0:0:
480,180,72448,1,8,0:0:0:0:
446,211,72539,1,8,0:0:0:0:
400,209,72631,1,2,0:0:0:0:
410,130,72814,5,12,0:0:0:0:
462,356,72997,2,0,P|411:332|376:327,1,82.5000025177003,12|0,0:0|0:0,0:0:0:0:
222,351,73363,2,0,L|398:325,1,165.000005035401,8|2,0:0|0:0,0:0:0:0:
480,273,73911,1,8,0:0:0:0:
480,273,74003,1,8,0:0:0:0:
480,273,74094,1,2,0:0:0:0:
313,259,74277,6,0,P|279:221|307:114,1,165.000005035401,2|8,0:0|0:0,0:0:0:0:
378,97,74826,1,0,0:0:0:0:
86,135,75009,2,0,P|125:119|185:113,2,82.5000025177003,8|2|8,0:0|0:0|0:0,0:0:0:0:
352,185,75558,1,2,0:0:0:0:
241,320,75741,6,0,L|250:231,1,82.5000025177003,6|0,0:0|0:0,0:0:0:0:
21,223,76106,1,8,0:0:0:0:
169,195,76289,2,0,L|163:95,1,82.5000025177003,0|8,0:0|0:0,0:0:0:0:
317,36,76655,1,2,0:0:0:0:
317,36,76747,1,2,0:0:0:0:
317,36,76838,2,0,P|262:61|220:50,1,82.5000025177003,8|0,0:0|0:0,0:0:0:0:
159,29,77204,6,0,P|220:50|231:158,1,165.000005035401,2|8,0:0|0:0,0:0:0:0:
169,195,77753,1,0,0:0:0:0:
449,148,77936,2,0,P|401:130|363:130,2,82.5000025177003,8|2|8,0:0|0:0|0:0,0:0:0:0:
164,112,78485,1,2,0:0:0:0:
308,181,78667,6,0,L|290:287,1,82.5000025177003,4|0,0:0|0:0,0:0:0:0:
486,266,79033,1,8,0:0:0:0:
294,262,79216,2,0,L|303:349,1,82.5000025177003,0|8,0:0|0:0,0:0:0:0:
461,349,79582,1,2,0:0:0:0:
461,349,79674,1,2,0:0:0:0:
461,349,79765,6,0,P|402:326|362:332,1,82.5000025177003,8|2,0:0|0:0,0:0:0:0:
302,344,80131,2,0,P|222:341|182:281,1,123.75000377655,6|0,0:0|0:0,0:0:0:0:
192,287,80497,1,8,0:0:0:0:
17,278,80680,2,0,L|111:267,1,82.5000025177003,0|8,0:0|0:0,0:0:0:0:
250,212,81046,2,0,P|178:194|136:212,1,82.5000025177003,2|8,0:0|0:0,0:0:0:0:
98,268,81411,6,0,L|84:167,1,82.5000025177003,2|6,0:0|0:0,0:0:0:0:
57,79,81777,1,0,0:0:0:0:
0,144,81960,1,8,0:0:0:0:
169,154,82143,2,0,L|162:106,1,41.2500012588501,8|0,0:0|0:0,0:0:0:0:
138,35,82326,1,2,0:0:0:0:
251,205,82509,1,2,0:0:0:0:
251,205,82600,1,2,0:0:0:0:
251,205,82692,2,0,P|298:187|348:196,1,82.5000025177003,8|2,0:0|0:0,0:0:0:0:
424,278,83058,6,0,L|437:183,1,82.5000025177003,6|0,0:0|0:0,0:0:0:0:
328,355,83424,2,0,L|304:265,1,82.5000025177003,8|0,0:0|0:0,0:0:0:0:
435,196,83789,2,0,L|448:101,1,82.5000025177003,8|2,0:0|0:0,0:0:0:0:
306,275,84155,2,0,L|282:185,1,82.5000025177003,8|0,0:0|0:0,0:0:0:0:
446,114,84521,5,2,0:0:0:0:
284,195,84704,1,2,0:0:0:0:
247,94,84887,1,8,0:0:0:0:
331,118,85070,2,0,P|338:94|338:70,2,41.2500012588501,8|8|2,0:0|0:0|0:0,0:0:0:0:
157,72,85436,2,0,P|156:93|161:122,4,41.2500012588501,8|8|8|8|2,0:0|0:0|0:0|0:0|0:0,0:0:0:0:
86,224,85985,5,2,0:0:0:0:
79,234,86350,2,0,L|83:326,1,75,8|0,0:0|0:0,0:0:0:0:
280,276,86716,2,0,L|269:356,1,75,8|2,0:0|0:0,0:0:0:0:
451,218,87082,2,0,L|458:306,1,75,8|0,0:0|0:0,0:0:0:0:
310,195,87448,6,0,P|259:195|219:217,2,75,6|0|8,0:0|0:0|0:0,0:0:0:0:
369,282,87997,2,0,L|388:125,1,150,0|2,0:0|0:0,0:0:0:0:
387,105,88454,1,2,0:0:0:0:
387,105,88546,1,8,0:0:0:0:
451,218,88728,1,2,0:0:0:0:
293,131,88911,5,8,0:0:0:0:
284,123,89277,2,0,L|178:126,1,75,8|0,0:0|0:0,0:0:0:0:
153,252,89643,2,0,L|237:251,1,75,8|2,0:0|0:0,0:0:0:0:
304,363,90009,2,0,L|213:372,1,75,8|0,0:0|0:0,0:0:0:0:
87,207,90375,6,0,P|135:175|177:179,2,75,6|0|8,0:0|0:0|0:0,0:0:0:0:
45,305,90924,2,0,L|29:140,1,150,0|2,0:0|0:0,0:0:0:0:
26,131,91381,1,2,0:0:0:0:
26,131,91472,1,8,0:0:0:0:
153,252,91655,1,2,0:0:0:0:
167,81,91838,5,6,0:0:0:0:
174,92,92204,2,0,L|258:87,1,75,8|0,0:0|0:0,0:0:0:0:
306,148,92570,2,0,L|396:144,1,75,8|2,0:0|0:0,0:0:0:0:
462,84,92936,2,0,P|409:107|343:75,1,112.5,8|0,0:0|0:0,0:0:0:0:
336,68,93302,5,6,0:0:0:0:
339,235,93485,2,0,L|436:227,1,75,0|8,0:0|0:0,0:0:0:0:
493,161,93850,2,0,L|477:340,1,150,0|2,0:0|0:0,0:0:0:0:
477,334,94308,1,2,0:0:0:0:
477,334,94399,1,8,0:0:0:0:
413,228,94582,1,2,0:0:0:0:
308,352,94765,5,6,0:0:0:0:
314,367,95131,2,0,L|212:358,1,75,8|2,0:0|0:0,0:0:0:0:
177,281,95497,1,6,0:0:0:0:
53,154,95680,1,8,0:0:0:0:
59,194,95771,1,8,0:0:0:0:
67,234,95863,1,8,0:0:0:0:
74,274,95954,1,8,0:0:0:0:
82,314,96046,1,2,0:0:0:0:
8,308,96228,5,12,0:0:0:0:
228,357,96411,1,12,0:0:0:0:
263,284,96777,1,8,0:0:0:0:
227,209,97143,1,8,0:0:0:0:
151,355,97509,1,8,0:0:0:0:
256,192,97692,12,0,100619,0:0:0:0:
