osu file format v14

[General]
AudioFilename: audio.ogg
AudioLeadIn: 0
PreviewTime: 46086
Countdown: 0
SampleSet: Soft
StackLeniency: 0.7
Mode: 0
LetterboxInBreaks: 0
WidescreenStoryboard: 1

[Editor]
DistanceSpacing: 0.2
BeatDivisor: 4
GridSize: 32
TimelineZoom: 2.1

[Metadata]
Title:Koisuru letter
TitleUnicode:恋するletter
Artist:Duca
ArtistUnicode:Duca
Creator:KennethBBG
Version:Natsume Shizuku's Insane
Source:恋する気持ちのかさねかた 〜かさねた想いをずっと〜
Tags:Aurorance Natsume Shizuku Didah Ayesha Altugle vahn10 Shizuku- Kazato Asa Shikibe Mayu ensemble Koi Suru Kimochi no Kasanekata ~Kasaneta Omoi o Zutto~ OP opening visual novel eroge japanese j-pop j-rock pop rock
BeatmapID:3969084
BeatmapSetID:1917288

[Difficulty]
HPDrainRate:5.5
CircleSize:3.8
OverallDifficulty:7.5
ApproachRate:9
SliderMultiplier:1.52
SliderTickRate:1

[Events]
//Background and Video events
0,0,"Background4.jpg",0,0
//Break Periods
//Storyboard Layer 0 (Background)
//Storyboard Layer 1 (Fail)
//Storyboard Layer 2 (Pass)
//Storyboard Layer 3 (Foreground)
//Storyboard Layer 4 (Overlay)
//Storyboard Sound Samples

[TimingPoints]
244,337.078651685393,4,2,1,30,1,0
21142,-100,4,2,1,80,0,0
21648,-100,4,2,1,30,0,0
21817,-100,4,2,1,50,0,0
28810,-100,4,2,1,5,0,0
28895,-100,4,2,1,50,0,0
29906,-100,4,2,1,55,0,0
31929,-76.9230769230769,4,2,1,45,0,0
32603,-90.9090909090909,4,2,1,60,0,0
32940,-100,4,2,1,60,0,0
35215,-100,4,2,1,5,0,0
35300,-100,4,2,1,60,0,0
37322,-133.333333333333,4,2,1,60,0,0
37575,-133.333333333333,4,2,1,5,0,0
37659,-133.333333333333,4,2,1,60,0,0
37996,-90.9090909090909,4,2,1,60,0,0
40693,-133.333333333333,4,2,1,65,0,0
41367,-117.647058823529,4,2,1,65,0,0
42041,-100,4,2,1,65,0,0
46086,-83.3333333333333,4,2,1,70,0,0
46423,-83.3333333333333,4,2,1,70,0,0
47687,-83.3333333333333,4,2,1,5,0,0
47772,-83.3333333333333,4,2,1,70,0,0
51479,-83.3333333333333,4,2,1,70,0,0
53754,-83.3333333333333,4,2,1,5,0,0
53839,-83.3333333333333,4,2,1,70,0,0
54176,-76.9230769230769,4,2,1,70,0,0
54428,-76.9230769230769,4,2,1,5,0,0
54513,-76.9230769230769,4,2,1,70,0,0
54934,-76.9230769230769,4,2,1,5,0,0
55019,-76.9230769230769,4,2,1,70,0,0
57210,-83.3333333333333,4,2,1,70,0,0
58473,-83.3333333333333,4,2,1,5,0,0
58558,-83.3333333333333,4,2,1,70,0,0
62266,-100,4,2,1,65,0,0
67659,-83.3333333333333,4,2,1,55,0,0
75749,-83.3333333333333,4,2,1,60,0,0
78446,-76.9230769230769,4,2,1,65,0,0
78698,-76.9230769230769,4,2,1,5,0,0
78783,-76.9230769230769,4,2,1,65,0,0
81142,-83.3333333333333,4,2,1,70,0,0
81900,-83.3333333333333,4,2,1,5,0,0
81985,-83.3333333333333,4,2,1,70,0,0
82911,-83.3333333333333,4,2,1,5,0,0
82996,-83.3333333333333,4,2,1,70,0,0
84091,-83.3333333333333,4,2,1,5,0,0
84176,-83.3333333333333,4,2,1,70,0,0
85102,-83.3333333333333,4,2,1,5,0,0
85187,-83.3333333333333,4,2,1,70,0,0
91592,-166.666666666667,4,2,1,70,0,0
91844,-166.666666666667,4,2,1,5,0,0
91929,-76.9230769230769,4,2,1,75,0,0
94540,-76.9230769230769,4,2,1,75,0,0
94626,-76.9230769230769,4,2,1,75,0,0
102547,-100,4,2,1,70,0,0
102884,-100,4,2,1,65,0,0
103221,-100,4,2,1,60,0,0
103558,-100,4,2,1,55,0,0
103895,-100,4,2,1,50,0,0
104232,-100,4,2,1,45,0,0
104569,-100,4,2,1,40,0,0
104906,-100,4,2,1,35,0,0
105243,-100,4,2,1,30,0,0
105581,-100,4,2,1,25,0,0
105918,-100,4,2,1,20,0,0
106255,-100,4,2,1,15,0,0
106592,-100,4,2,1,10,0,0
106929,-100,4,2,1,5,0,0

[Colours]
Combo1 : 255,206,57
Combo2 : 247,159,168
Combo3 : 96,168,255
Combo4 : 177,92,92

[HitObjects]
256,192,19120,12,0,20805,0:0:0:0:
51,304,21142,5,10,1:2:0:0:
1,154,21311,1,10,1:2:0:0:
158,331,21648,5,2,0:0:0:0:
158,331,21732,1,2,0:0:0:0:
158,331,21817,2,0,P|207:276|287:284,1,152,6|2,3:2|3:2,0:0:0:0:
338,227,22322,1,2,0:0:0:0:
413,299,22491,2,0,P|420:342|434:381,1,76,2|2,3:2|0:0,0:0:0:0:
509,244,22828,2,0,P|475:216|430:221,1,76,2|2,3:2|0:0,0:0:0:0:
468,76,23165,6,0,P|421:122|325:113,1,152,2|2,3:2|3:2,0:0:0:0:
338,121,23670,2,0,P|327:80|311:50,1,76,2|0,0:0|3:2,0:0:0:0:
153,51,24008,2,0,P|185:27|233:28,1,76,2|0,0:0|3:2,0:0:0:0:
225,170,24345,5,2,0:0:0:0:
225,170,24429,1,2,0:0:0:0:
225,170,24513,2,0,P|240:234|272:322,1,152,2|2,3:2|3:2,0:0:0:0:
210,369,25019,1,2,0:0:0:0:
92,324,25187,2,0,P|127:306|177:290,1,76,2|2,3:2|0:0,0:0:0:0:
33,212,25524,2,0,P|14:253|29:296,1,76,2|2,3:2|0:0,0:0:0:0:
154,122,25861,6,0,P|221:152|300:167,1,152,2|2,3:2|3:2,0:0:0:0:
297,166,26367,2,0,P|328:137|328:98,1,76,2|0,0:0|3:2,0:0:0:0:
228,6,26704,2,0,P|248:49|256:85,1,76,2|0,0:0|3:2,0:0:0:0:
200,230,27041,5,2,0:0:0:0:
200,230,27126,1,2,0:0:0:0:
200,230,27210,2,0,P|176:299|136:375,1,152,0|0,3:2|3:2,0:0:0:0:
15,74,27884,2,0,B|101:98|46:152|144:175,1,152,2|0,3:2|3:2,0:0:0:0:
13,239,28390,1,0,0:0:0:0:
57,369,28558,6,0,P|71:311|93:254,1,114,2|0,3:2|0:0,0:0:0:0:
170,233,28895,2,0,P|206:254|215:290,1,76,2|0,3:2|0:0,0:0:0:0:
360,235,29232,1,2,3:2:0:0:
316,381,29401,2,0,P|332:319|365:224,1,152,2|2,0:0|0:0,0:0:0:0:
442,344,29906,6,0,P|488:323|522:322,1,76,0|0,3:2|0:0,0:0:0:0:
360,235,30243,2,0,P|314:214|280:213,1,76,2|2,3:2|0:0,0:0:0:0:
438,133,30581,2,0,P|459:179|460:213,1,76,0|0,3:2|0:0,0:0:0:0:
348,82,30918,1,0,3:2:0:0:
348,82,31086,1,2,0:0:0:0:
477,23,31255,5,0,3:2:0:0:
438,133,31423,1,0,3:2:0:0:
276,35,31592,2,0,P|237:50|189:55,1,76,8|0,0:0|0:0,0:0:0:0:
87,167,31929,6,0,P|64:155|39:145,1,49.3999977386476,10|2,0:0|0:0,0:0:0:0:
104,36,32097,2,0,P|115:57|124:80,1,49.3999977386476,2|2,1:2|0:0,0:0:0:0:
249,209,32266,5,2,1:2:0:0:
243,237,32350,1,2,0:0:0:0:
239,266,32435,1,2,3:2:0:0:
234,294,32519,1,2,0:0:0:0:
210,321,32603,6,0,B|123:286|139:370|55:346,1,167.200005102539,6|0,3:2|0:0,0:0:0:0:
150,148,33109,1,2,3:2:0:0:
68,261,33277,2,0,P|50:191|14:113,1,152,8|2,0:0|0:0,0:0:0:0:
155,230,33783,1,8,0:0:0:0:
256,23,33951,5,2,3:2:0:0:
150,148,34120,1,8,0:0:0:0:
161,46,34288,1,0,0:0:0:0:
255,163,34457,2,0,P|291:148|413:122,1,152,2|0,3:2|0:0,0:0:0:0:
397,358,34963,2,0,P|415:301|424:238,1,114,2|0,3:2|0:0,0:0:0:0:
466,184,35300,6,0,P|504:210|507:254,1,76,2|0,3:2|0:0,0:0:0:0:
397,358,35637,1,2,0:0:0:0:
397,358,35805,2,0,P|358:373|317:381,1,76,2|8,3:2|0:0,0:0:0:0:
194,277,36142,1,2,0:0:0:0:
279,307,36311,1,0,0:0:0:0:
75,372,36479,6,0,P|97:303|111:221,2,152,10|8|0,0:0|0:0|3:2,0:0:0:0:
292,188,37322,2,0,P|241:195|211:235,1,85.5000032615663,8|0,0:0|0:0,0:0:0:0:
215,298,37659,6,0,P|223:334|228:360,1,57.0000021743775,10|2,0:0|0:0,0:0:0:0:
231,359,37912,1,2,0:0:0:0:
233,366,37996,6,0,B|259:334|298:338|298:338|332:385|392:372,1,167.200005102539,6|2,3:2|3:2,0:0:0:0:
476,213,38502,1,2,0:0:0:0:
374,286,38670,1,0,3:2:0:0:
490,367,38839,2,0,P|501:318|518:283,1,83.6000025512696,2|0,0:0|3:2,0:0:0:0:
388,185,39176,5,2,0:0:0:0:
388,185,39260,1,2,0:0:0:0:
388,185,39345,2,0,P|353:160|298:166,1,83.6000025512696,0|0,3:2|0:0,0:0:0:0:
172,305,39682,1,0,3:2:0:0:
275,334,39850,2,0,P|262:294|255:253,1,83.6000025512696,0|0,0:0|3:2,0:0:0:0:
114,213,40187,5,2,0:0:0:0:
230,110,40356,1,2,3:2:0:0:
132,28,40524,2,0,P|139:45|145:74,1,41.8000012756348,2|2,0:0|0:0,0:0:0:0:
128,229,40693,6,0,P|76:253|21:268,1,114.000004348755,6|0,3:2|3:2,0:0:0:0:
125,353,41199,1,2,0:0:0:0:
125,353,41283,1,2,0:0:0:0:
125,353,41367,2,0,P|185:323|251:305,1,129.200002464294,2|0,3:2|3:2,0:0:0:0:
371,372,41873,5,2,0:0:0:0:
371,372,41957,1,2,0:0:0:0:
371,372,42041,2,0,P|360:326|343:291,1,76,2|0,3:2|0:0,0:0:0:0:
488,185,42378,2,0,P|477:231|460:266,1,76,2|0,3:2|0:0,0:0:0:0:
309,116,42715,2,0,P|377:125|424:61,1,152,2|2,3:2|3:2,0:0:0:0:
343,38,43221,1,0,0:0:0:0:
465,257,43390,5,6,3:2:0:0:
465,257,43727,2,0,P|416:269|382:283,1,76,2|2,3:2|0:0,0:0:0:0:
220,370,44064,2,0,P|184:356|147:348,1,76,0|0,3:2|0:0,0:0:0:0:
295,238,44401,1,8,1:2:0:0:
295,238,44569,1,8,1:2:0:0:
382,376,44738,5,8,1:2:0:0:
204,268,44906,1,8,1:2:0:0:
411,92,45075,5,8,1:2:0:0:
295,238,45243,1,8,1:2:0:0:
121,163,45412,6,0,L|168:150,1,38,14|0,1:2|0:0,0:0:0:0:
411,92,45581,2,0,L|458:79,1,38,14|0,1:2|0:0,0:0:0:0:
295,238,46086,6,0,P|290:193|317:155,1,91.199997216797,4|0,3:2|0:0,0:0:0:0:
473,368,46423,2,0,P|418:314|311:339,1,182.399994433594,10|2,0:0|3:2,0:0:0:0:
339,157,46929,1,2,0:0:0:0:
234,185,47097,1,8,0:0:0:0:
320,329,47266,1,2,0:0:0:0:
475,275,47435,6,0,P|411:252|344:240,1,136.799995825195,0|0,3:2|0:0,0:0:0:0:
257,274,47772,2,0,P|276:313|321:328,1,91.199997216797,10|0,0:0|0:0,0:0:0:0:
419,107,48109,2,0,P|375:120|332:136,1,91.199997216797,2|0,3:2|0:0,0:0:0:0:
177,353,48446,1,10,0:0:0:0:
343,239,48614,1,0,0:0:0:0:
203,109,48783,6,0,P|234:196|261:307,1,182.399994433594,2|10,3:2|0:0,0:0:0:0:
119,76,49288,2,0,P|136:35|177:18,1,91.199997216797,2|0,0:0|3:2,0:0:0:0:
378,119,49626,2,0,P|361:160|320:177,1,91.199997216797,2|8,0:0|0:0,0:0:0:0:
323,43,49963,5,2,0:0:0:0:
323,43,50047,1,2,0:0:0:0:
323,43,50131,2,0,B|434:52|376:129|499:135,2,182.399994433594,0|10|2,3:2|0:0|3:2,0:0:0:0:
141,142,50974,1,0,0:0:0:0:
224,12,51142,2,0,P|236:58|254:106,1,91.199997216797,10|2,0:0|0:0,0:0:0:0:
216,174,51395,5,2,0:0:0:0:
216,174,51479,2,0,P|170:173|136:119,1,91.199997216797,2|0,3:2|0:0,0:0:0:0:
13,337,51817,2,0,B|79:320|128:307|128:307|168:327|153:378,1,182.399994433594,8|0,0:0|3:2,0:0:0:0:
348,278,52322,1,2,0:0:0:0:
283,375,52491,1,10,0:0:0:0:
348,278,52659,1,2,0:0:0:0:
470,287,52828,6,0,P|400:269|376:164,1,182.399994433594,0|8,3:2|0:0,0:0:0:0:
225,47,53333,1,0,0:0:0:0:
183,153,53502,2,0,P|247:129|336:109,1,136.799995825195,2|0,3:2|0:0,0:0:0:0:
319,17,53839,2,0,P|367:24|399:60,1,91.199997216797,10|8,0:0|0:0,0:0:0:0:
494,29,54092,5,8,0:0:0:0:
494,29,54176,2,0,P|473:97|457:180,1,148.199993215943,14|0,0:0|0:0,0:0:0:0:
498,247,54513,1,2,3:2:0:0:
185,143,54682,6,0,P|262:154|315:108,1,148.199993215943,10|0,0:0|0:0,0:0:0:0:
345,34,55019,1,2,3:2:0:0:
269,229,55187,1,8,0:0:0:0:
413,322,55356,5,2,3:2:0:0:
413,322,55440,1,2,3:2:0:0:
413,322,55524,2,0,P|394:270|384:222,1,98.7999954772951,14|0,0:0|3:2,0:0:0:0:
269,229,55861,1,8,0:0:0:0:
71,357,56030,5,2,1:2:0:0:
186,239,56199,1,2,3:2:0:0:
12,167,56367,1,0,3:2:0:0:
97,271,56536,5,8,0:0:0:0:
97,271,56620,1,8,0:0:0:0:
97,271,56704,2,0,L|80:208,1,49.3999977386476,0|0,1:2|1:2,0:0:0:0:
149,101,56873,6,0,P|100:92|78:41,1,98.7999954772951,4|0,3:2|0:0,0:0:0:0:
313,28,57210,2,0,P|286:86|259:212,1,182.399994433594,10|2,0:0|3:2,0:0:0:0:
437,283,57715,1,2,0:0:0:0:
394,189,57884,1,8,0:0:0:0:
260,202,58052,1,2,0:0:0:0:
341,384,58221,6,0,B|352:305|307:330|329:235,1,136.799995825195,0|0,3:2|0:0,0:0:0:0:
394,189,58558,2,0,P|441:211|453:254,1,91.199997216797,10|0,0:0|0:0,0:0:0:0:
256,371,58895,2,0,P|208:352|159:345,1,91.199997216797,2|0,3:2|0:0,0:0:0:0:
43,136,59232,1,10,0:0:0:0:
175,250,59401,1,2,3:2:0:0:
45,377,59569,6,0,P|64:302|105:195,1,182.399994433594,2|10,3:2|0:0,0:0:0:0:
354,242,60075,2,0,P|326:281|273:287,1,91.199997216797,2|0,0:0|3:2,0:0:0:0:
144,50,60412,2,0,P|165:105|174:152,1,91.199997216797,2|8,0:0|0:0,0:0:0:0:
296,54,60749,5,2,0:0:0:0:
296,54,60833,1,2,0:0:0:0:
296,54,60918,2,0,P|362:37|438:126,1,182.399994433594,0|10,3:2|0:0,0:0:0:0:
379,259,61423,5,0,0:0:0:0:
379,259,61508,1,8,0:0:0:0:
379,259,61592,1,10,0:0:0:0:
298,211,61760,1,0,1:2:0:0:
203,338,61929,2,0,P|165:367|115:358,1,91.199997216797,2|0,1:2|3:2,0:0:0:0:
47,324,62182,5,0,3:2:0:0:
47,324,62266,2,0,P|28:252|2:174,1,152,6|0,3:2|0:0,0:0:0:0:
152,61,62772,1,0,3:2:0:0:
12,76,62940,2,0,B|104:95|44:139|165:158,1,152,8|2,0:0|0:0,0:0:0:0:
0,250,63446,1,10,0:0:0:0:
162,384,63614,5,0,3:2:0:0:
32,338,63783,1,8,0:0:0:0:
131,230,63951,2,0,P|116:276|108:314,1,76,0|0,3:2|0:0,0:0:0:0:
251,374,64288,2,0,P|296:324|389:336,1,152,10|2,0:0|3:2,0:0:0:0:
258,229,64794,1,0,0:0:0:0:
328,89,64963,6,0,P|340:155|369:251,1,152,6|2,3:2|0:0,0:0:0:0:
474,372,65468,1,2,3:2:0:0:
512,263,65637,2,0,P|457:278|365:339,1,152,8|0,0:0|0:0,0:0:0:0:
437,177,66142,1,10,0:0:0:0:
279,82,66311,5,0,3:2:0:0:
340,174,66479,1,8,0:0:0:0:
393,7,66648,2,0,P|404:51|423:87,1,76,0|2,3:2|0:0,0:0:0:0:
209,179,66985,6,0,P|168:164|123:148,1,76,10|0,0:0|3:2,0:0:0:0:
376,327,67322,2,0,P|417:312|462:296,1,76,8|2,0:0|0:0,0:0:0:0:
356,353,67575,5,2,0:0:0:0:
356,353,67659,2,0,P|291:344|275:229,1,182.399994433594,6|10,3:2|0:0,0:0:0:0:
420,190,68165,2,0,P|472:208|538:208,1,91.199997216797,10|8,0:0|0:0,0:0:0:0:
294,25,68502,2,0,P|311:66|319:111,1,91.199997216797,10|8,0:0|0:0,0:0:0:0:
142,245,68839,2,0,L|129:201,1,45.5999986083985,10|8,0:0|0:0,0:0:0:0:
134,40,69008,6,0,P|166:44|198:97,1,91.199997216797,8|8,0:0|0:0,0:0:0:0:
196,98,69260,1,8,0:0:0:0:
194,107,69345,1,8,0:0:0:0:
41,350,69513,5,10,0:0:0:0:
41,350,69597,1,8,0:0:0:0:
41,350,69682,2,0,P|29:301|13:255,1,91.199997216797,10|8,0:0|0:0,0:0:0:0:
22,255,69935,1,8,0:0:0:0:
26,247,70019,1,8,0:0:0:0:
295,197,70187,1,10,0:0:0:0:
185,133,70356,6,0,P|209:231|241:323,1,182.399994433594,10|10,0:0|0:0,0:0:0:0:
162,384,70861,2,0,P|125:374|94:334,1,91.199997216797,10|8,0:0|0:0,0:0:0:0:
319,156,71199,2,0,P|302:206|294:253,1,91.199997216797,10|8,0:0|0:0,0:0:0:0:
461,363,71535,2,0,L|449:320,1,45.5999986083985,10|8,0:0|0:0,0:0:0:0:
420,185,71704,6,0,P|424:153|477:121,1,91.199997216797,8|8,0:0|0:0,0:0:0:0:
476,126,71957,1,8,0:0:0:0:
483,130,72041,1,8,0:0:0:0:
247,134,72209,5,10,0:0:0:0:
247,134,72294,1,8,0:0:0:0:
247,134,72378,2,0,P|198:122|152:106,1,91.199997216797,10|8,0:0|0:0,0:0:0:0:
153,101,72631,1,8,0:0:0:0:
148,93,72715,1,8,0:0:0:0:
0,263,72883,1,10,0:0:0:0:
127,357,73052,6,0,P|107:281|60:176,1,182.399994433594,14|10,0:0|0:0,0:0:0:0:
80,78,73558,2,0,P|124:80|159:108,1,91.199997216797,10|8,0:0|0:0,0:0:0:0:
360,4,73895,2,0,P|349:48|331:89,1,91.199997216797,10|8,0:0|0:0,0:0:0:0:
434,154,74232,5,10,0:0:0:0:
434,154,74317,1,8,0:0:0:0:
434,154,74401,2,0,B|415:121|378:114|378:114|273:153,1,182.399994433594,8|10,0:0|0:0,0:0:0:0:
359,250,74906,1,8,0:0:0:0:
233,384,75075,2,0,P|219:337|205:286,1,91.199997216797,10|10,0:0|0:0,0:0:0:0:
202,288,75328,1,8,0:0:0:0:
197,280,75412,1,8,0:0:0:0:
25,210,75581,5,10,0:0:0:0:
25,210,75665,1,8,0:0:0:0:
25,210,75749,2,0,P|104:219|158:135,1,182.399994433594,8|8,0:0|0:0,0:0:0:0:
84,64,76255,5,8,0:0:0:0:
84,64,76339,1,8,0:0:0:0:
84,64,76423,1,8,0:0:0:0:
250,100,76592,1,8,0:0:0:0:
250,100,76676,1,8,0:0:0:0:
250,100,76760,1,8,0:0:0:0:
144,222,76929,5,8,0:0:0:0:
144,222,77013,1,8,0:0:0:0:
144,222,77097,1,8,0:0:0:0:
236,358,77266,1,8,0:0:0:0:
236,358,77350,1,8,0:0:0:0:
236,358,77434,1,8,0:0:0:0:
220,190,77603,6,0,P|249:198|280:207,1,45.5999986083985,8|8,0:0|0:0,0:0:0:0:
410,180,77772,5,10,0:0:0:0:
422,160,77856,1,8,0:0:0:0:
425,137,77940,1,8,0:0:0:0:
418,115,78024,1,8,0:0:0:0:
399,98,78109,6,0,L|355:112,1,45.5999986083985,8|8,0:0|0:0,0:0:0:0:
281,78,78277,2,0,L|237:64,1,45.5999986083985,8|8,0:0|0:0,0:0:0:0:
91,177,78446,6,0,B|51:151|51:151|21:87|95:51,1,148.199993215943,6|0,3:2|0:0,0:0:0:0:
140,0,78783,2,0,P|149:53|167:97,1,98.7999954772951,8|8,1:2|1:2,0:0:0:0:
410,180,79120,6,0,P|361:188|316:206,1,98.7999954772951,10|8,1:2|1:2,0:0:0:0:
206,384,79457,1,8,1:2:0:0:
35,283,79626,1,8,1:2:0:0:
229,158,79794,6,0,P|211:203|203:252,1,98.7999954772951,10|8,1:2|1:2,0:0:0:0:
379,365,80131,1,10,1:2:0:0:
510,212,80300,5,10,1:2:0:0:
388,252,80468,1,8,1:2:0:0:
229,158,80637,5,10,1:2:0:0:
438,78,80805,1,8,1:2:0:0:
291,341,80974,1,10,1:2:0:0:
291,341,81058,1,10,1:2:0:0:
291,341,81142,6,0,B|234:338|213:294|213:294|175:251|124:278,1,182.399994433594,12|0,0:0|3:2,0:0:0:0:
45,96,81648,2,0,P|106:93|148:154,1,136.799995825195,10|0,0:0|0:0,0:0:0:0:
147,149,81985,1,0,3:2:0:0:
292,49,82154,2,0,P|248:39|205:25,1,91.199997216797,8|0,0:0|3:2,0:0:0:0:
337,179,82491,5,0,3:2:0:0:
406,8,82659,2,0,P|456:64|444:140,1,136.799995825195,8|0,0:0|0:0,0:0:0:0:
453,122,82996,1,0,3:2:0:0:
400,270,83165,2,0,P|440:243|488:225,1,91.199997216797,8|0,0:0|1:2,0:0:0:0:
337,179,83502,1,0,1:2:0:0:
234,323,83670,5,0,3:2:0:0:
234,323,83755,1,0,3:2:0:0:
234,323,83839,2,0,P|305:340|369:381,1,136.799995825195,14|0,0:0|0:0,0:0:0:0:
359,375,84176,1,0,3:2:0:0:
175,244,84345,2,0,P|138:280|135:330,1,91.199997216797,10|0,0:0|3:2,0:0:0:0:
337,179,84682,1,0,3:2:0:0:
219,101,84850,2,0,P|245:168|264:246,1,136.799995825195,8|0,0:0|0:0,0:0:0:0:
262,231,85187,1,2,3:2:0:0:
32,299,85356,6,0,P|72:240|186:254,1,182.399994433594,8|2,0:0|3:2,0:0:0:0:
351,384,85861,1,10,0:0:0:0:
236,347,86030,1,2,1:2:0:0:
340,181,86199,5,8,0:0:0:0:
345,207,86283,1,8,0:0:0:0:
350,233,86367,1,8,0:0:0:0:
354,259,86451,1,8,0:0:0:0:
381,281,86536,6,0,B|479:267|425:184|518:168,1,182.399994433594,14|0,0:0|3:2,0:0:0:0:
306,35,87041,2,0,P|329:89|443:86,1,182.399994433594,8|0,0:0|3:2,0:0:0:0:
388,22,87547,1,8,0:0:0:0:
262,148,87715,5,0,3:2:0:0:
262,148,87800,1,0,3:2:0:0:
262,148,87884,2,0,P|215:174|162:184,1,91.199997216797,2|10,3:2|0:0,0:0:0:0:
0,180,88221,1,2,3:2:0:0:
124,39,88390,2,0,P|103:133|79:222,1,182.399994433594,2|0,3:2|1:2,0:0:0:0:
56,358,88895,2,0,P|20:319|24:267,1,91.199997216797,2|2,1:2|1:2,0:0:0:0:
178,182,89232,6,0,P|228:204|271:207,1,91.199997216797,14|2,0:0|3:2,0:0:0:0:
395,119,89569,1,2,3:2:0:0:
378,314,89738,2,0,P|365:231|310:139,1,182.399994433594,10|2,0:0|3:2,0:0:0:0:
396,12,90243,2,0,P|353:25|331:64,1,91.199997216797,10|2,0:0|3:2,0:0:0:0:
222,201,90581,6,0,P|156:173|125:171,1,91.199997216797,0|10,3:2|0:0,0:0:0:0:
3,221,90918,1,2,3:2:0:0:
41,97,91086,5,10,0:0:0:0:
46,114,91170,1,8,0:0:0:0:
51,131,91255,1,8,0:0:0:0:
3,221,91423,1,0,1:2:0:0:
85,304,91592,2,0,B|114:289|114:289|124:277|124:277|147:265,1,68.3999979125977,0|0,1:2|0:0,0:0:0:0:
208,335,91929,6,0,P|244:370|304:368,1,98.7999954772951,14|2,0:0|3:2,0:0:0:0:
456,226,92266,1,2,3:2:0:0:
383,380,92435,2,0,P|362:284|333:187,1,197.59999095459,10|2,0:0|3:2,0:0:0:0:
165,65,92940,1,10,0:0:0:0:
231,229,93109,6,0,P|184:213|135:205,1,98.7999954772951,2|0,3:2|3:2,0:0:0:0:
388,91,93446,1,10,0:0:0:0:
310,6,93614,2,0,P|274:46|279:92,1,98.7999954772951,2|0,3:2|3:2,0:0:0:0:
331,317,93951,1,10,0:0:0:0:
490,166,94120,1,2,1:2:0:0:
445,370,94288,2,0,P|418:299|397:227,1,148.199993215943,2|2,1:2|3:2,0:0:0:0:
313,208,94626,6,0,P|269:197|227:239,1,98.7999954772951,12|0,0:0|3:2,0:0:0:0:
129,369,94963,1,2,3:2:0:0:
0,237,95131,2,0,P|66:262|232:305,1,197.59999095459,10|2,0:0|3:2,0:0:0:0:
397,229,95637,6,0,B|454:276|428:358|428:358|409:332|361:325,1,197.59999095459,10|2,0:0|3:2,0:0:0:0:
264,154,96142,2,0,P|212:172|164:179,1,98.7999954772951,10|2,0:0|3:2,0:0:0:0:
0,237,96479,5,2,3:2:0:0:
53,119,96648,1,10,0:0:0:0:
131,362,96817,1,2,1:2:0:0:
266,306,96985,5,10,0:0:0:0:
294,285,97069,1,8,0:0:0:0:
329,282,97154,1,10,0:0:0:0:
357,304,97238,1,8,0:0:0:0:
381,329,97322,6,0,P|485:323|529:241,1,197.59999095459,14|0,0:0|3:2,0:0:0:0:
255,134,97828,2,0,B|302:100|344:129|344:129|367:187|429:187,1,197.59999095459,8|0,0:0|3:2,0:0:0:0:
288,330,98333,1,10,0:0:0:0:
171,312,98502,5,2,3:2:0:0:
171,312,98586,1,2,3:2:0:0:
171,312,98670,2,0,P|262:289|377:266,1,197.59999095459,2|2,3:2|3:2,0:0:0:0:
486,46,99176,2,0,P|519:93|503:145,1,98.7999954772951,2|8,3:2|0:0,0:0:0:0:
359,181,99513,1,0,1:2:0:0:
255,70,99682,2,0,P|311:87|352:98,1,98.7999954772951,2|0,1:2|3:2,0:0:0:0:
92,241,100019,6,0,P|71:143|44:41,1,197.59999095459,14|2,0:0|3:2,0:0:0:0:
325,246,100524,2,0,P|274:171|179:195,1,197.59999095459,10|0,0:0|3:2,0:0:0:0:
35,375,101030,2,0,P|79:357|144:345,1,98.7999954772951,10|2,0:0|3:2,0:0:0:0:
408,379,101367,5,2,3:2:0:0:
237,254,101536,1,10,0:0:0:0:
432,166,101704,1,2,3:2:0:0:
357,271,101873,1,2,3:2:0:0:
288,113,102041,5,10,0:0:0:0:
252,105,102126,1,8,0:0:0:0:
216,99,102210,1,10,0:0:0:0:
181,93,102294,1,8,0:0:0:0:
146,86,102378,2,0,L|91:74,1,49.3999977386476,2|0,1:2|1:2,0:0:0:0:
237,254,102547,5,6,3:2:0:0:
256,192,102631,12,0,110131,0:0:0:0:
