osu file format v14

[General]
AudioFilename: audio.ogg
AudioLeadIn: 0
PreviewTime: 46086
Countdown: 0
SampleSet: Soft
StackLeniency: 0.7
Mode: 0
LetterboxInBreaks: 0
WidescreenStoryboard: 1

[Editor]
DistanceSpacing: 1
BeatDivisor: 4
GridSize: 32
TimelineZoom: 1

[Metadata]
Title:Koisuru letter
TitleUnicode:恋するletter
Artist:Duca
ArtistUnicode:Duca
Creator:KennethBBG
Version:Love letters
Source:恋する気持ちのかさねかた 〜かさねた想いをずっと〜
Tags:Aurorance Natsume Shizuku Didah Ayesha Altugle vahn10 Shizuku- Kazato Asa Shikibe Mayu ensemble Koi Suru Kimochi no Kasanekata ~Kasaneta Omoi o Zutto~ OP opening visual novel eroge japanese j-pop j-rock pop rock
BeatmapID:3956467
BeatmapSetID:1917288

[Difficulty]
HPDrainRate:6
CircleSize:4
OverallDifficulty:8.7
ApproachRate:9.2
SliderMultiplier:1.72
SliderTickRate:1

[Events]
//Background and Video events
0,0,"Background2.jpg",0,0
//Break Periods
//Storyboard Layer 0 (Background)
//Storyboard Layer 1 (Fail)
//Storyboard Layer 2 (Pass)
//Storyboard Layer 3 (Foreground)
//Storyboard Layer 4 (Overlay)
//Storyboard Sound Samples

[TimingPoints]
244,337.078651685393,4,2,1,30,1,0
21142,-100,4,2,1,80,0,0
21648,-100,4,2,1,30,0,0
21817,-142.857142857143,4,2,1,50,0,0
28811,-142.857142857143,4,2,1,5,0,0
28896,-142.857142857143,4,2,1,50,0,0
29906,-142.857142857143,4,2,1,55,0,0
31929,-142.857142857143,4,2,1,45,0,0
32604,-117.647058823529,4,2,1,60,0,0
34878,-117.647058823529,4,2,1,5,0,0
34963,-117.647058823529,4,2,1,60,0,0
37912,-117.647058823529,4,2,1,5,0,0
37997,-111.111111111111,4,2,1,60,0,0
40693,-111.111111111111,4,2,1,65,0,0
43390,-111.111111111111,4,2,1,65,0,0
46086,-95.2380952380952,4,2,1,70,0,1
53080,-95.2380952380952,4,2,1,5,0,1
53165,-95.2380952380952,4,2,1,70,0,1
54177,-95.2380952380952,4,2,1,70,0,1
55777,-95.2380952380952,4,2,1,5,0,1
55862,-95.2380952380952,4,2,1,70,0,1
56873,-95.2380952380952,4,2,1,70,0,1
61255,-95.2380952380952,4,2,1,70,0,1
62266,-111.111111111111,4,2,1,65,0,1
64878,-111.111111111111,4,2,1,5,0,1
64963,-95.2380952380952,4,2,1,65,0,0
67660,-111.111111111111,4,2,1,55,0,0
75075,-95.2380952380952,4,2,1,55,0,0
75749,-95.2380952380952,4,2,1,60,0,0
77941,-95.2380952380952,4,2,1,60,0,0
78446,-95.2380952380952,4,2,1,65,0,0
78698,-95.2380952380952,4,2,1,5,0,0
78783,-95.2380952380952,4,2,1,65,0,0
81143,-95.2380952380952,4,2,1,70,0,0
85103,-95.2380952380952,4,2,1,5,0,0
85188,-95.2380952380952,4,2,1,70,0,0
87799,-95.2380952380952,4,2,1,70,0,0
87884,-95.2380952380952,4,2,1,70,0,0
91592,-133.333333333333,4,2,1,70,0,0
91844,-133.333333333333,4,2,1,5,0,0
91929,-83.3333333333333,4,2,1,75,0,0
95384,-83.3333333333333,4,2,1,5,0,0
95469,-83.3333333333333,4,2,1,75,0,0
96394,-83.3333333333333,4,2,1,5,0,0
96480,-83.3333333333333,4,2,1,75,0,0
97575,-83.3333333333333,4,2,1,5,0,0
97660,-83.3333333333333,4,2,1,75,0,0
102547,-83.3333333333333,4,2,1,70,0,0
102884,-83.3333333333333,4,2,1,65,0,0
103221,-83.3333333333333,4,2,1,60,0,0
103558,-83.3333333333333,4,2,1,55,0,0
103895,-83.3333333333333,4,2,1,50,0,0
104232,-83.3333333333333,4,2,1,45,0,0
104569,-83.3333333333333,4,2,1,40,0,0
104906,-83.3333333333333,4,2,1,35,0,0
105243,-83.3333333333333,4,2,1,30,0,0
105581,-83.3333333333333,4,2,1,25,0,0
105918,-83.3333333333333,4,2,1,20,0,0
106255,-83.3333333333333,4,2,1,15,0,0
106592,-83.3333333333333,4,2,1,10,0,0
106929,-83.3333333333333,4,2,1,5,0,0

[Colours]
Combo1 : 255,206,57
Combo2 : 247,159,168
Combo3 : 96,168,255
Combo4 : 177,92,92

[HitObjects]
256,192,19120,12,0,20974,0:0:0:0:
193,201,21143,5,10,1:2:0:0:
324,365,21311,1,10,1:2:0:0:
324,365,21817,6,0,P|293:374|266:384,1,60.1999981628419,6|2,3:2|0:0,0:0:0:0:
144,285,22154,2,0,P|175:294|201:304,1,60.1999981628419,2|2,3:2|0:0,0:0:0:0:
312,252,22491,1,2,3:2:0:0:
193,201,22660,1,2,0:0:0:0:
256,112,22828,2,0,P|267:140|275:169,1,60.1999981628419,2|2,3:2|0:0,0:0:0:0:
393,305,23165,6,0,P|402:274|412:247,1,60.1999981628419,2|2,3:2|0:0,0:0:0:0:
469,83,23502,1,2,3:2:0:0:
357,138,23671,2,0,P|388:147|414:157,1,60.1999981628419,2|0,0:0|3:2,0:0:0:0:
313,17,24008,2,0,P|282:26|255:36,1,60.1999981628419,2|0,0:0|3:2,0:0:0:0:
105,6,24345,1,2,0:0:0:0:
156,146,24514,6,0,P|165:115|175:88,1,60.1999981628419,2|2,3:2|0:0,0:0:0:0:
0,97,24851,2,0,P|31:106|57:116,1,60.1999981628419,2|2,3:2|0:0,0:0:0:0:
88,234,25188,1,2,3:2:0:0:
2,316,25356,1,2,0:0:0:0:
97,228,25525,1,2,3:2:0:0:
13,321,25693,1,2,0:0:0:0:
244,383,25862,6,0,P|253:352|263:325,1,60.1999981628419,2|2,3:2|0:0,0:0:0:0:
334,257,26199,1,2,3:2:0:0:
164,350,26368,2,0,P|135:338|106:330,1,60.1999981628419,2|0,0:0|3:2,0:0:0:0:
214,180,26705,2,0,P|225:208|233:237,1,60.1999981628419,2|0,0:0|3:2,0:0:0:0:
400,328,27042,6,0,P|433:275|423:217,1,120.399996325684,2|0,0:0|0:0,0:0:0:0:
357,141,27547,2,0,P|329:152|301:161,1,60.1999981628419,0|0,3:2|0:0,0:0:0:0:
458,33,27884,2,0,B|440:55|425:70|425:70|447:107|462:144,1,120.399996325684,2|0,3:2|3:2,0:0:0:0:
424,220,28390,1,0,0:0:0:0:
485,356,28559,6,0,P|434:341|390:323,1,90.2999972442628,2|0,3:2|0:0,0:0:0:0:
373,333,28896,2,0,P|344:344|315:352,1,60.1999981628419,2|0,3:2|0:0,0:0:0:0:
132,378,29233,1,2,3:2:0:0:
185,259,29401,2,0,P|196:287|204:316,1,60.1999981628419,2|0,0:0|3:2,0:0:0:0:
100,229,29738,1,2,0:0:0:0:
278,222,29907,6,0,P|336:203|393:180,1,120.399996325684,0|2,3:2|3:2,0:0:0:0:
512,77,30413,1,2,0:0:0:0:
507,231,30581,2,0,P|497:203|487:173,1,60.1999981628419,0|0,3:2|0:0,0:0:0:0:
392,88,30918,1,0,3:2:0:0:
286,220,31087,1,2,0:0:0:0:
191,48,31255,5,0,3:2:0:0:
360,165,31424,1,0,3:2:0:0:
194,249,31592,1,8,0:0:0:0:
249,128,31761,1,0,0:0:0:0:
0,235,31929,1,10,0:0:0:0:
31,241,32013,1,2,0:0:0:0:
60,255,32097,1,2,1:2:0:0:
85,277,32181,1,2,0:0:0:0:
102,304,32266,1,2,1:2:0:0:
123,330,32350,1,2,0:0:0:0:
150,349,32434,1,2,3:2:0:0:
182,359,32519,1,2,0:0:0:0:
210,356,32604,6,0,P|290:336|357:312,1,146.200002788544,6|0,3:2|0:0,0:0:0:0:
512,384,33109,1,2,3:2:0:0:
488,216,33278,2,0,P|470:258|457:303,1,73.1000013942719,8|0,0:0|0:0,0:0:0:0:
304,184,33615,1,2,0:0:0:0:
376,94,33783,2,0,P|390:128|401:163,1,73.1000013942719,8|2,0:0|3:2,0:0:0:0:
299,12,34120,2,0,P|284:46|273:81,1,73.1000013942719,8|0,0:0|0:0,0:0:0:0:
223,217,34458,1,2,3:2:0:0:
45,138,34626,2,0,P|97:123|172:106,1,109.650002091408,8|0,0:0|0:0,0:0:0:0:
231,149,34963,2,0,P|239:179|209:226,1,73.1000013942719,2|0,3:2|0:0,0:0:0:0:
35,384,35300,6,0,P|74:325|154:340,1,146.200002788544,2|2,3:2|0:0,0:0:0:0:
354,307,35806,1,2,3:2:0:0:
222,216,35974,1,8,0:0:0:0:
232,384,36143,2,0,P|243:348|257:314,1,73.1000013942719,2|0,0:0|0:0,0:0:0:0:
454,304,36480,2,0,P|439:338|428:373,1,73.1000013942719,10|0,0:0|3:2,0:0:0:0:
318,138,36817,2,0,P|332:172|343:207,1,73.1000013942719,8|0,0:0|0:0,0:0:0:0:
424,107,37154,1,0,3:2:0:0:
222,216,37323,2,0,P|186:204|152:190,1,73.1000013942719,8|0,0:0|0:0,0:0:0:0:
238,360,37659,2,0,P|292:337|348:319,1,109.650002091408,10|0,0:0|0:0,0:0:0:0:
454,304,37997,6,0,P|378:308|335:247,1,154.799995275879,6|2,3:2|3:2,0:0:0:0:
423,107,38502,2,0,P|388:121|340:132,1,77.3999976379395,2|0,0:0|3:2,0:0:0:0:
411,21,38839,1,2,0:0:0:0:
485,181,39008,1,0,3:2:0:0:
335,246,39177,1,2,0:0:0:0:
335,246,39260,1,2,0:0:0:0:
335,246,39345,6,0,P|346:210|363:169,1,77.3999976379395,0|0,3:2|0:0,0:0:0:0:
268,0,39682,2,0,P|282:34|294:76,1,77.3999976379395,0|0,3:2|0:0,0:0:0:0:
266,159,40019,1,0,3:2:0:0:
81,73,40188,1,2,0:0:0:0:
181,52,40356,2,0,P|167:86|155:128,1,77.3999976379395,2|2,3:2|0:0,0:0:0:0:
25,282,40693,6,0,B|112:276|71:329|187:333,1,154.799995275879,6|0,3:2|3:2,0:0:0:0:
317,249,41199,1,2,0:0:0:0:
143,158,41368,2,0,P|157:192|169:234,1,77.3999976379395,2|0,3:2|0:0,0:0:0:0:
253,311,41705,1,0,3:2:0:0:
376,189,41873,1,2,0:0:0:0:
448,337,42042,6,0,P|410:320|373:309,1,77.3999976379395,2|0,3:2|0:0,0:0:0:0:
168,230,42379,2,0,P|204:213|241:202,1,77.3999976379395,2|0,3:2|0:0,0:0:0:0:
403,116,42716,2,0,P|386:152|375:189,1,77.3999976379395,2|0,3:2|0:0,0:0:0:0:
280,384,43053,2,0,P|267:345|252:309,1,77.3999976379395,2|0,3:2|0:0,0:0:0:0:
130,196,43390,5,6,3:2:0:0:
203,251,43559,1,0,0:0:0:0:
29,228,43727,1,2,3:2:0:0:
157,106,43896,1,2,0:0:0:0:
109,293,44064,5,0,3:2:0:0:
277,92,44233,1,0,0:0:0:0:
58,56,44401,1,8,1:2:0:0:
220,243,44570,1,8,1:2:0:0:
335,0,44738,5,8,1:2:0:0:
106,92,44907,1,8,1:2:0:0:
354,236,45075,1,8,1:2:0:0:
45,177,45244,1,8,1:2:0:0:
409,94,45413,5,14,1:2:0:0:
330,364,45581,1,14,1:2:0:0:
330,364,46087,6,0,P|290:346|241:334,1,90.2999972442628,4|0,3:2|0:0,0:0:0:0:
42,321,46424,2,0,B|85:348|85:348|152:316|115:236,1,180.599994488526,10|2,0:0|3:2,0:0:0:0:
180,49,46929,1,2,0:0:0:0:
0,95,47098,2,0,P|42:106|97:128,1,90.2999972442628,8|2,0:0|0:0,0:0:0:0:
484,58,47435,6,0,B|432:73|395:87|395:87|343:72|351:19,1,180.599994488526,0|10,3:2|0:0,0:0:0:0:
225,202,47941,1,0,0:0:0:0:
421,248,48109,1,2,3:2:0:0:
257,107,48278,1,0,0:0:0:0:
300,302,48446,2,0,P|316:259|327:216,1,90.2999972442628,10|0,0:0|0:0,0:0:0:0:
174,296,48783,6,0,P|93:319|19:264,1,180.599994488526,2|10,3:2|0:0,0:0:0:0:
139,128,49289,2,0,B|122:170|111:213,1,90.2999972442628,2|0,0:0|3:2,0:0:0:0:
75,26,49626,1,2,0:0:0:0:
257,107,49795,2,0,P|299:96|354:74,1,90.2999972442628,8|2,0:0|0:0,0:0:0:0:
460,265,50132,6,0,P|408:204|314:213,2,180.599994488526,0|10|2,3:2|0:0|3:2,0:0:0:0:
512,154,50974,1,0,0:0:0:0:
365,298,51143,2,0,P|348:338|336:390,1,90.2999972442628,10|2,0:0|0:0,0:0:0:0:
200,317,51480,6,0,P|180:231|156:139,1,180.599994488526,2|8,3:2|0:0,0:0:0:0:
0,59,51985,2,0,P|56:75|123:91,1,90.2999972442628,0|0,0:0|3:2,0:0:0:0:
0,218,52323,1,2,0:0:0:0:
102,0,52491,1,10,0:0:0:0:
282,150,52660,1,2,0:0:0:0:
95,201,52828,6,0,B|183:205|138:234|228:242,1,135.449995866394,0|0,3:2|0:0,0:0:0:0:
247,261,53165,2,0,P|287:244|332:232,1,90.2999972442628,8|0,0:0|0:0,0:0:0:0:
312,65,53502,2,0,P|294:106|281:151,1,90.2999972442628,2|0,3:2|0:0,0:0:0:0:
345,315,53839,1,10,0:0:0:0:
512,123,54008,5,8,0:0:0:0:
512,123,54092,1,8,0:0:0:0:
512,123,54177,2,0,B|462:108|426:94|426:94|376:109|385:165,1,180.599994488526,14|2,0:0|3:2,0:0:0:0:
508,347,54682,1,10,0:0:0:0:
345,315,54851,1,0,3:2:0:0:
512,214,55019,1,2,3:2:0:0:
398,384,55188,1,8,0:0:0:0:
270,233,55356,1,2,3:2:0:0:
92,383,55525,6,0,P|164:362|234:336,1,135.449995866394,14|0,0:0|0:0,0:0:0:0:
243,329,55862,1,8,0:0:0:0:
146,160,56030,1,2,1:2:0:0:
146,160,56114,1,0,1:2:0:0:
146,160,56199,2,0,P|129:207|115:255,1,90.2999972442628,2|0,3:2|3:2,0:0:0:0:
43,118,56536,1,8,0:0:0:0:
43,118,56620,1,8,0:0:0:0:
43,118,56705,1,0,1:2:0:0:
270,233,56873,6,0,P|310:216|359:202,1,90.2999972442628,4|0,3:2|0:0,0:0:0:0:
232,0,57210,2,0,B|213:24|182:46|182:46|211:95|233:146,1,180.599994488526,10|2,0:0|3:2,0:0:0:0:
436,243,57716,1,2,0:0:0:0:
392,37,57885,2,0,P|374:77|361:125,1,90.2999972442628,8|2,0:0|0:0,0:0:0:0:
93,333,58222,6,0,B|142:318|183:304|183:304|209:344|256:346,1,180.599994488526,0|10,3:2|0:0,0:0:0:0:
344,249,58727,1,0,0:0:0:0:
159,146,58895,1,2,3:2:0:0:
286,344,59064,1,0,0:0:0:0:
284,168,59232,2,0,P|266:208|251:253,1,90.2999972442628,10|0,0:0|0:2,0:0:0:0:
0,209,59570,6,0,P|80:232|153:167,1,180.599994488526,2|10,3:2|0:0,0:0:0:0:
332,86,60076,2,0,P|289:75|244:56,1,90.2999972442628,2|0,0:0|3:2,0:0:0:0:
57,135,60413,1,2,0:0:0:0:
125,0,60581,2,0,P|141:40|154:88,1,90.2999972442628,8|2,0:0|0:0,0:0:0:0:
377,259,60918,6,0,P|402:175|439:86,2,180.599994488526,0|10|10,3:2|0:0|0:0,0:0:0:0:
187,196,61761,1,0,1:2:0:0:
262,276,61929,1,2,1:2:0:0:
255,383,62098,1,0,3:2:0:0:
0,371,62266,6,0,P|68:343|171:309,1,154.799995275879,6|0,3:2|0:0,0:0:0:0:
97,165,62772,1,0,3:2:0:0:
97,165,62941,2,0,P|80:205|69:247,1,77.3999976379395,8|2,0:0|0:0,0:0:0:0:
0,120,63278,1,2,0:0:0:0:
173,67,63446,1,10,0:0:0:0:
97,165,63615,5,0,3:2:0:0:
232,231,63783,1,8,0:0:0:0:
298,117,63952,1,0,3:2:0:0:
298,117,64289,2,0,P|286:74|269:40,1,77.3999976379395,10|0,0:0|0:0,0:0:0:0:
512,139,64626,2,0,P|457:123|409:151,1,116.099996456909,2|0,3:2|0:0,0:0:0:0:
388,181,64963,6,0,P|370:221|356:266,1,90.2999972442628,6|0,3:2|0:0,0:0:0:0:
432,384,65300,1,2,0:0:0:0:
254,384,65469,2,0,P|294:366|339:353,1,90.2999972442628,2|8,3:2|0:0,0:0:0:0:
211,280,65806,2,0,P|170:262|118:248,1,90.2999972442628,2|0,0:0|0:0,0:0:0:0:
0,353,66143,1,10,0:0:0:0:
130,236,66311,5,0,3:2:0:0:
0,143,66480,1,8,0:0:0:0:
108,334,66648,1,0,3:2:0:0:
249,191,66817,1,2,0:0:0:0:
130,236,66986,2,0,P|87:224|33:201,1,90.2999972442628,10|0,0:0|3:2,0:0:0:0:
0,0,67323,1,8,0:0:0:0:
116,135,67491,1,2,0:0:0:0:
248,0,67660,6,0,P|231:39|219:81,1,77.3999976379395,6|8,3:2|0:0,0:0:0:0:
214,96,67913,1,8,0:0:0:0:
214,96,67997,1,10,0:0:0:0:
332,244,68165,1,10,0:0:0:0:
332,244,68250,1,8,0:0:0:0:
332,244,68334,1,8,0:0:0:0:
395,103,68502,1,10,0:0:0:0:
249,191,68671,1,8,0:0:0:0:
422,293,68839,5,10,0:0:0:0:
422,293,68924,1,8,0:0:0:0:
422,293,69008,2,0,P|433:251|450:211,1,77.3999976379395,8|8,0:0|0:0,0:0:0:0:
454,200,69261,1,8,0:0:0:0:
454,200,69345,1,8,0:0:0:0:
299,110,69514,1,10,0:0:0:0:
332,244,69682,1,10,0:0:0:0:
468,78,69851,5,8,0:0:0:0:
468,78,69935,1,8,0:0:0:0:
468,78,70019,2,0,P|428:94|386:106,1,77.3999976379395,8|10,0:0|0:0,0:0:0:0:
249,191,70272,5,8,0:0:0:0:
249,191,70356,2,0,P|183:174|131:156,1,116.099996456909,10|8,0:0|0:0,0:0:0:0:
116,146,70693,1,10,0:0:0:0:
272,37,70862,2,0,P|288:76|300:118,1,77.3999976379395,10|8,0:0|0:0,0:0:0:0:
428,270,71199,2,0,P|439:232|454:197,1,77.3999976379395,10|8,0:0|0:0,0:0:0:0:
302,319,71536,5,10,0:0:0:0:
302,319,71620,1,8,0:0:0:0:
302,319,71705,2,0,P|248:274|205:280,1,116.099996456909,8|8,0:0|0:0,0:0:0:0:
180,295,72042,1,8,0:0:0:0:
2,253,72210,1,10,0:0:0:0:
129,182,72379,1,10,0:0:0:0:
93,375,72547,1,8,0:0:0:0:
93,375,72632,1,8,0:0:0:0:
93,375,72716,2,0,P|81:337|66:302,1,77.3999976379395,8|10,0:0|0:0,0:0:0:0:
2,253,72969,5,8,0:0:0:0:
2,253,73053,2,0,P|69:253|109:210,1,116.099996456909,14|8,0:0|0:0,0:0:0:0:
129,182,73390,1,10,0:0:0:0:
9,127,73558,1,10,0:0:0:0:
9,127,73643,1,8,0:0:0:0:
9,127,73727,1,8,0:0:0:0:
199,51,73896,1,10,0:0:0:0:
129,182,74064,1,8,0:0:0:0:
315,271,74233,5,10,0:0:0:0:
315,271,74317,1,8,0:0:0:0:
315,271,74401,2,0,L|498:235,1,154.799995275879,8|10,0:0|0:0,0:0:0:0:
500,111,74907,1,8,0:0:0:0:
500,111,74991,1,8,0:0:0:0:
500,111,75075,1,10,0:0:0:0:
362,0,75244,2,0,P|345:41|331:84,1,90.2999972442628,10|8,0:0|0:0,0:0:0:0:
210,293,75581,5,10,0:0:0:0:
210,293,75665,1,8,0:0:0:0:
210,293,75750,2,0,B|94:278|139:228|42:219,1,180.599994488526,8|8,0:0|0:0,0:0:0:0:
178,104,76255,1,8,0:0:0:0:
178,104,76339,1,8,0:0:0:0:
178,104,76424,1,8,0:0:0:0:
321,237,76592,1,8,0:0:0:0:
321,237,76677,1,8,0:0:0:0:
321,237,76761,6,0,P|369:226|426:215,1,90.2999972442628,8|8,0:0|0:0,0:0:0:0:
453,218,77014,1,8,0:0:0:0:
453,218,77098,1,8,0:0:0:0:
333,97,77266,1,8,0:0:0:0:
333,97,77351,1,8,0:0:0:0:
333,97,77435,1,8,0:0:0:0:
213,187,77604,1,8,0:0:0:0:
310,383,77772,5,10,0:0:0:0:
355,380,77856,1,8,0:0:0:0:
388,350,77940,1,8,0:0:0:0:
424,324,78024,1,8,0:0:0:0:
469,321,78109,2,0,P|495:326|519:336,1,45.1499986221314,8|8,0:0|0:0,0:0:0:0:
340,173,78278,2,0,P|313:181|286:185,1,45.1499986221314,8|8,0:0|0:0,0:0:0:0:
494,50,78446,6,0,P|478:115|467:182,1,135.449995866394,6|0,3:2|0:0,0:0:0:0:
453,218,78783,1,8,1:2:0:0:
252,109,78952,1,8,1:2:0:0:
343,271,79120,1,10,1:2:0:0:
391,107,79289,5,8,1:2:0:0:
179,255,79457,1,8,1:2:0:0:
375,190,79626,1,8,1:2:0:0:
186,46,79795,5,10,1:2:0:0:
267,205,79963,1,8,1:2:0:0:
439,7,80132,1,10,1:2:0:0:
339,293,80300,1,10,1:2:0:0:
132,160,80469,1,8,1:2:0:0:
391,107,80638,1,10,1:2:0:0:
240,333,80806,1,8,1:2:0:0:
132,160,80974,5,10,1:2:0:0:
132,160,81059,1,10,1:2:0:0:
132,160,81142,2,0,P|90:148|33:138,1,90.2999972442628,12|0,0:0|3:2,0:0:0:0:
191,53,81480,1,0,3:2:0:0:
258,286,81648,6,0,P|320:233|415:256,1,180.599994488526,10|0,0:0|3:2,0:0:0:0:
455,66,82154,2,0,P|443:108|433:165,1,90.2999972442628,8|0,0:0|3:2,0:0:0:0:
512,266,82491,1,0,3:2:0:0:
283,160,82660,6,0,B|187:144|212:218|103:191,1,180.599994488526,8|0,0:0|3:2,0:0:0:0:
0,331,83165,2,0,P|42:319|99:309,1,90.2999972442628,8|0,0:0|1:2,0:0:0:0:
272,274,83502,1,0,1:2:0:0:
146,115,83671,5,0,3:2:0:0:
146,115,83755,1,0,3:2:0:0:
146,115,83839,2,0,B|131:28|131:28|158:-22|214:2,1,180.599994488526,14|0,0:0|3:2,0:0:0:0:
398,134,84345,1,10,0:0:0:0:
201,221,84514,1,0,3:2:0:0:
315,54,84682,1,0,3:2:0:0:
452,242,84851,6,0,B|413:246|378:252|378:252|348:229|318:212,1,135.449995866394,8|0,0:0|0:0,0:0:0:0:
309,199,85188,1,2,3:2:0:0:
446,44,85356,1,8,0:0:0:0:
264,126,85525,6,0,P|217:118|170:106,1,90.2999972442628,0|2,3:2|3:2,0:0:0:0:
33,0,85862,1,10,0:0:0:0:
117,172,86030,1,2,1:2:0:0:
223,34,86199,1,8,0:0:0:0:
265,19,86283,1,8,0:0:0:0:
309,24,86367,1,8,0:0:0:0:
347,48,86451,1,8,0:0:0:0:
369,87,86536,6,0,P|355:133|345:198,1,90.2999972442628,14|0,0:0|3:2,0:0:0:0:
263,338,86873,1,0,3:2:0:0:
480,299,87042,2,0,P|436:286|388:275,1,90.2999972442628,8|0,0:0|3:2,0:0:0:0:
264,126,87379,1,0,3:2:0:0:
159,323,87547,2,0,P|151:255|133:190,1,135.449995866394,8|0,0:0|3:2,0:0:0:0:
123,146,87884,5,2,3:2:0:0:
317,46,88053,1,10,0:0:0:0:
249,212,88222,1,2,3:2:0:0:
106,62,88390,2,0,P|149:49|193:38,1,90.2999972442628,2|8,3:2|0:0,0:0:0:0:
70,213,88727,1,0,1:2:0:0:
0,11,88896,1,2,1:2:0:0:
123,146,89064,1,2,1:2:0:0:
294,14,89233,6,0,P|281:57|270:101,1,90.2999972442628,14|2,0:0|3:2,0:0:0:0:
465,46,89570,1,2,3:2:0:0:
313,225,89738,2,0,B|356:252|356:252|423:220|386:140,1,180.599994488526,10|2,0:0|3:2,0:0:0:0:
182,72,90244,1,10,0:0:0:0:
307,0,90413,1,2,3:2:0:0:
175,85,90581,5,0,3:2:0:0:
313,225,90750,2,0,P|356:214|401:209,1,90.2999972442628,10|2,0:0|3:2,0:0:0:0:
272,118,91086,1,10,0:0:0:0:
272,118,91171,1,8,0:0:0:0:
272,118,91255,1,8,0:0:0:0:
172,244,91424,1,0,1:2:0:0:
369,154,91592,2,0,P|381:106|359:67,1,96.7500036907198,0|0,1:2|0:0,0:0:0:0:
331,35,91929,5,14,0:0:0:0:
499,143,92098,1,2,3:2:0:0:
313,225,92266,1,2,3:2:0:0:
492,45,92435,5,10,0:0:0:0:
451,240,92604,1,2,3:2:0:0:
271,120,92772,1,2,3:2:0:0:
498,138,92941,5,10,0:0:0:0:
391,327,93109,2,0,P|347:316|285:302,1,103.199996850586,2|0,3:2|3:2,0:0:0:0:
185,118,93446,1,10,0:0:0:0:
50,269,93615,2,0,P|93:258|161:250,1,103.199996850586,2|0,3:2|3:2,0:0:0:0:
67,69,93952,5,10,0:0:0:0:
185,250,94120,1,2,1:2:0:0:
314,69,94288,1,2,1:2:0:0:
366,244,94457,5,2,3:2:0:0:
366,244,94542,1,2,3:2:0:0:
366,244,94626,2,0,P|358:199|342:138,1,103.199996850586,12|0,0:0|3:2,0:0:0:0:
495,203,94963,1,2,3:2:0:0:
316,365,95132,6,0,P|219:349|156:337,1,154.799995275879,10|0,0:0|0:0,0:0:0:0:
126,329,95469,1,2,3:2:0:0:
226,152,95637,2,0,P|236:197|251:258,1,103.199996850586,10|2,0:0|3:2,0:0:0:0:
83,162,95974,1,2,3:2:0:0:
243,7,96142,6,0,P|295:47|381:19,1,154.799995275879,10|0,0:0|0:0,0:0:0:0:
416,0,96480,2,0,P|401:43|387:104,1,103.199996850586,2|10,3:2|0:0,0:0:0:0:
434,276,96817,1,2,1:2:0:0:
463,186,96986,5,10,0:0:0:0:
430,177,97070,1,8,0:0:0:0:
397,181,97154,1,10,0:0:0:0:
362,201,97238,1,8,0:0:0:0:
344,231,97323,6,0,P|320:129|300:61,1,154.799995275879,14|0,0:0|0:0,0:0:0:0:
296,43,97660,1,0,3:2:0:0:
47,1,97828,1,8,0:0:0:0:
131,208,97997,1,0,3:2:0:0:
204,84,98165,1,0,3:2:0:0:
13,201,98334,1,10,0:0:0:0:
247,282,98502,5,2,3:2:0:0:
247,282,98586,1,2,3:2:0:0:
247,282,98671,1,2,3:2:0:0:
51,384,98839,2,0,P|63:333|76:284,1,103.199996850586,8|2,0:0|3:2,0:0:0:0:
221,174,99177,5,2,3:2:0:0:
351,362,99345,1,8,0:0:0:0:
160,328,99514,1,0,1:2:0:0:
359,170,99682,1,2,1:2:0:0:
151,104,99851,5,0,3:2:0:0:
151,104,99935,1,0,3:2:0:0:
151,104,100019,2,0,P|194:93|262:78,1,103.199996850586,14|0,0:0|3:2,0:0:0:0:
386,21,100356,1,2,3:2:0:0:
467,226,100525,2,0,B|351:251|351:251|316:204|370:158,1,206.399993701172,10|0,0:0|3:2,0:0:0:0:
490,342,101030,5,10,0:0:0:0:
434,146,101199,1,2,3:2:0:0:
263,302,101368,1,2,3:2:0:0:
307,103,101536,5,10,0:0:0:0:
351,362,101705,1,2,3:2:0:0:
97,193,101873,1,2,3:2:0:0:
296,11,102042,1,10,0:0:0:0:
345,23,102126,1,8,0:0:0:0:
385,56,102210,1,10,0:0:0:0:
426,86,102294,1,8,0:0:0:0:
476,98,102379,2,0,L|536:92,1,51.599998425293,2|0,1:2|1:2,0:0:0:0:
256,192,102547,5,6,3:2:0:0:
256,192,102632,12,0,110132,0:0:0:0:
