osu file format v14

[General]
AudioFilename: audio.ogg
AudioLeadIn: 0
PreviewTime: 46086
Countdown: 0
SampleSet: Soft
StackLeniency: 0.7
Mode: 0
LetterboxInBreaks: 0
WidescreenStoryboard: 1

[Editor]
DistanceSpacing: 1
BeatDivisor: 4
GridSize: 32
TimelineZoom: 2.1

[Metadata]
Title:Koisuru letter
TitleUnicode:恋するletter
Artist:Duca
ArtistUnicode:Duca
Creator:KennethBBG
Version:Hard
Source:恋する気持ちのかさねかた 〜かさねた想いをずっと〜
Tags:Aurorance Natsume Shizuku Didah Ayesha Altugle vahn10 Shizuku- Kazato Asa Shikibe Mayu ensemble Koi Suru Kimochi no Kasanekata ~Kasaneta Omoi o Zutto~ OP opening visual novel eroge japanese j-pop j-rock pop rock
BeatmapID:3978482
BeatmapSetID:1917288

[Difficulty]
HPDrainRate:4.5
CircleSize:3.8
OverallDifficulty:6.5
ApproachRate:7.5
SliderMultiplier:1.18
SliderTickRate:1

[Events]
//Background and Video events
0,0,"Background1.jpg",0,0
//Break Periods
//Storyboard Layer 0 (Background)
//Storyboard Layer 1 (Fail)
//Storyboard Layer 2 (Pass)
//Storyboard Layer 3 (Foreground)
//Storyboard Layer 4 (Overlay)
//Storyboard Sound Samples

[TimingPoints]
244,337.078651685393,4,2,1,30,1,0
21142,-100,4,2,1,80,0,0
21648,-117.647058823529,4,2,1,30,0,0
21817,-117.647058823529,4,2,1,50,0,0
28979,-117.647058823529,4,2,1,50,0,0
29232,-117.647058823529,4,2,1,50,0,0
29822,-117.647058823529,4,2,1,50,0,0
29906,-117.647058823529,4,2,1,55,0,0
31929,-117.647058823529,4,2,1,45,0,0
32603,-117.647058823529,4,2,1,60,0,0
32940,-117.647058823529,4,2,1,60,0,0
35215,-100,4,2,1,60,0,0
35300,-100,4,2,1,60,0,0
37996,-90.9090909090909,4,2,1,60,0,0
40693,-133.333333333333,4,2,1,65,0,0
41367,-117.647058823529,4,2,1,65,0,0
42041,-100,4,2,1,65,0,0
46086,-83.3333333333333,4,2,1,70,0,0
46423,-83.3333333333333,4,2,1,70,0,0
51479,-83.3333333333333,4,2,1,70,0,0
54176,-76.9230769230769,4,2,1,70,0,0
56873,-83.3333333333333,4,2,1,70,0,0
62266,-100,4,2,1,65,0,0
67659,-83.3333333333333,4,2,1,55,0,0
75749,-83.3333333333333,4,2,1,60,0,0
78446,-76.9230769230769,4,2,1,65,0,0
81142,-83.3333333333333,4,2,1,70,0,0
91929,-76.9230769230769,4,2,1,75,0,0
102547,-100,4,2,1,70,0,0
102884,-100,4,2,1,65,0,0
103221,-100,4,2,1,60,0,0
103558,-100,4,2,1,55,0,0
103895,-100,4,2,1,50,0,0
104232,-100,4,2,1,45,0,0
104569,-100,4,2,1,40,0,0
104906,-100,4,2,1,35,0,0
105243,-100,4,2,1,30,0,0
105581,-100,4,2,1,25,0,0
105918,-100,4,2,1,20,0,0
106255,-100,4,2,1,15,0,0
106592,-100,4,2,1,10,0,0
106929,-100,4,2,1,5,0,0

[Colours]
Combo1 : 255,206,57
Combo2 : 247,159,168
Combo3 : 96,168,255
Combo4 : 177,92,92

[HitObjects]
256,192,19120,12,0,20805,0:0:0:0:
39,56,21142,5,10,1:2:0:0:
39,56,21311,1,10,1:2:0:0:
154,148,21817,6,0,P|191:105|253:112,1,100.300001913071,6|2,3:2|3:2,0:0:0:0:
304,153,22322,1,2,0:0:0:0:
304,153,22491,2,0,P|308:120|319:89,1,50.1500009565354,2|2,3:2|0:0,0:0:0:0:
392,51,22828,2,0,P|399:75|404:102,1,50.1500009565354,2|2,3:2|0:0,0:0:0:0:
475,140,23165,6,0,P|438:174|378:171,1,100.300001913071,2|2,3:2|3:2,0:0:0:0:
323,226,23671,2,0,P|327:258|337:289,1,50.1500009565354,2|0,0:0|3:2,0:0:0:0:
403,357,24008,2,0,P|410:330|414:304,1,50.1500009565354,2|0,0:0|3:2,0:0:0:0:
231,333,24513,6,0,P|182:321|115:296,1,100.300001913071,2|2,3:2|3:2,0:0:0:0:
79,251,25019,1,2,0:0:0:0:
79,251,25187,2,0,P|93:223|105:185,1,50.1500009565354,2|2,3:2|0:0,0:0:0:0:
48,143,25524,2,0,P|33:116|21:77,1,50.1500009565354,2|2,3:2|0:0,0:0:0:0:
101,50,25861,6,0,B|159:59|132:83|206:97,1,100.300001913071,2|2,3:2|3:2,0:0:0:0:
249,149,26367,2,0,P|266:120|266:90,1,50.1500009565354,2|0,0:0|3:2,0:0:0:0:
343,48,26704,2,0,P|346:73|361:94,1,50.1500009565354,2|0,0:0|3:2,0:0:0:0:
406,174,27041,1,2,0:0:0:0:
406,174,27210,6,0,P|352:191|293:222,1,100.300001913071,0|0,3:2|3:2,0:0:0:0:
155,183,27884,2,0,P|201:206|219:257,1,100.300001913071,2|0,3:2|3:2,0:0:0:0:
143,301,28390,1,0,0:0:0:0:
229,347,28558,6,0,P|272:357|335:377,1,100.300001913071,2|2,3:2|3:2,0:0:0:0:
417,276,29232,1,2,3:2:0:0:
474,367,29401,2,0,P|486:317|507:260,1,100.300001913071,2|2,0:0|0:0,0:0:0:0:
494,163,29906,6,0,P|467:166|443:179,1,50.1500009565354,0|0,3:2|0:0,0:0:0:0:
360,148,30243,2,0,P|333:142|309:129,1,50.1500009565354,2|2,3:2|0:0,0:0:0:0:
237,174,30581,2,0,P|251:208|252:234,1,50.1500009565354,0|0,3:2|0:0,0:0:0:0:
204,291,30918,1,0,3:2:0:0:
128,252,31086,6,0,P|101:247|78:234,1,50.1500009565354,2|0,0:0|3:2,0:0:0:0:
52,160,31423,1,0,3:2:0:0:
51,159,31592,2,0,P|62:128|65:92,1,50.1500009565354,8|0,0:0|0:0,0:0:0:0:
143,51,31929,6,0,L|186:61,3,25.0750004782677,10|2|2|2,0:0|0:0|1:2|0:0,0:0:0:0:
204,51,32266,2,0,L|248:40,3,25.0750004782677,2|2|2|2,1:2|0:0|3:2|0:0,0:0:0:0:
261,71,32603,6,0,P|288:88|276:159,1,100.300001913071,6|0,3:2|0:0,0:0:0:0:
212,173,33109,1,2,3:2:0:0:
182,263,33277,2,0,P|202:311|215:362,1,100.300001913071,8|2,0:0|0:0,0:0:0:0:
284,289,33783,1,8,0:0:0:0:
350,346,33951,1,2,3:2:0:0:
350,346,34120,6,0,P|373:313|446:320,1,100.300001913071,8|2,0:0|3:2,0:0:0:0:
476,242,34626,2,0,P|466:213|457:175,1,50.1500009565354,8|0,0:0|0:0,0:0:0:0:
378,154,34963,2,0,P|386:125|395:87,1,50.1500009565354,2|0,3:2|0:0,0:0:0:0:
419,13,35300,6,0,P|378:10|316:65,1,118,2|2,3:2|0:0,0:0:0:0:
271,143,35805,1,2,3:2:0:0:
197,93,35974,2,0,P|140:108|72:119,1,118,8|0,0:0|0:0,0:0:0:0:
46,199,36479,6,0,P|26:137|14:65,2,118,10|8|0,0:0|0:0|3:2,0:0:0:0:
35,291,37322,2,0,P|62:255|146:272,1,118,8|10,0:0|0:0,0:0:0:0:
303,349,37996,6,0,B|326:321|360:324|360:324|390:366|443:355,1,129.800003961182,6|2,3:2|3:2,0:0:0:0:
429,266,38502,2,0,P|423:233|411:203,1,64.9000019805909,2|0,0:0|3:2,0:0:0:0:
471,135,38839,2,0,P|481:91|496:61,1,64.9000019805909,2|0,0:0|3:2,0:0:0:0:
402,43,39176,6,0,P|372:65|271:56,1,129.800003961182,2|0,0:0|0:0,0:0:0:0:
191,18,39682,2,0,P|200:74|214:155,1,129.800003961182,0|0,3:2|3:2,0:0:0:0:
188,222,40187,1,2,0:0:0:0:
116,262,40356,2,0,L|36:236,1,64.9000019805909,2|2,3:2|0:0,0:0:0:0:
34,326,40693,6,0,P|76:338|138:359,1,88.5000033760072,6|0,3:2|3:2,0:0:0:0:
194,306,41199,1,2,0:0:0:0:
251,384,41367,2,0,P|303:357|362:341,1,100.300001913071,2|0,3:2|3:2,0:0:0:0:
367,268,41873,5,2,0:0:0:0:
450,312,42041,2,0,P|459:271|475:240,1,59,2|0,3:2|0:0,0:0:0:0:
444,163,42378,2,0,P|434:122|419:91,1,59,2|0,3:2|0:0,0:0:0:0:
340,70,42715,2,0,P|298:109|241:99,1,118,2|2,3:2|3:2,0:0:0:0:
159,54,43221,1,0,0:0:0:0:
134,148,43390,6,0,P|165:265|169:281,1,118,6|2,3:2|3:2,0:0:0:0:
104,334,43895,1,2,0:0:0:0:
104,334,44064,2,0,P|72:321|39:314,1,59,0|0,3:2|0:0,0:0:0:0:
16,226,44401,2,0,P|28:194|35:161,1,59,8|8,1:2|1:2,0:0:0:0:
96,100,44738,5,8,1:2:0:0:
96,100,44906,1,8,1:2:0:0:
180,124,45075,1,8,1:2:0:0:
180,124,45243,1,8,1:2:0:0:
247,48,45412,5,14,1:2:0:0:
307,119,45581,1,14,1:2:0:0:
444,370,46086,6,0,P|449:330|425:296,1,70.7999978393555,4|0,3:2|0:0,0:0:0:0:
416,199,46423,2,0,P|367:246|272:225,1,141.599995678711,10|2,0:0|3:2,0:0:0:0:
210,272,46929,1,2,0:0:0:0:
210,272,47097,1,8,0:0:0:0:
135,358,47266,6,0,L|108:197,1,141.599995678711,2|0,0:0|0:0,0:0:0:0:
112,117,47772,2,0,P|147:130|201:112,1,70.7999978393555,10|0,0:0|0:0,0:0:0:0:
267,93,48109,2,0,P|302:79|356:97,1,70.7999978393555,2|0,3:2|0:0,0:0:0:0:
378,180,48446,2,0,L|364:270,1,70.7999978393555,10|0,0:0|0:0,0:0:0:0:
471,224,48783,6,0,P|420:166|447:99,1,141.599995678711,2|10,3:2|0:0,0:0:0:0:
405,8,49288,2,0,P|369:-5|315:12,1,70.7999978393555,2|0,0:0|3:2,0:0:0:0:
253,70,49626,1,2,0:0:0:0:
253,70,49794,1,8,0:0:0:0:
156,42,49963,1,2,0:0:0:0:
70,162,50131,6,0,L|50:2,2,141.599995678711,0|10|2,3:2|0:0|3:2,0:0:0:0:
140,350,51142,2,0,P|180:341|227:338,1,70.7999978393555,10|2,0:0|0:0,0:0:0:0:
294,274,51479,6,0,P|346:278|385:363,2,141.599995678711,2|8|0,3:2|0:0|3:2,0:0:0:0:
194,234,52322,1,2,0:0:0:0:
269,159,52491,2,0,L|247:74,1,70.7999978393555,10|2,0:0|0:0,0:0:0:0:
336,25,52828,2,0,L|375:186,1,141.599995678711,0|8,3:2|0:0,0:0:0:0:
194,234,53502,2,0,L|109:212,1,70.7999978393555,2|0,3:2|0:0,0:0:0:0:
18,215,53839,2,0,L|34:283,1,70.7999978393555,10|8,0:0|0:0,0:0:0:0:
115,366,54176,6,0,P|151:376|200:351,1,76.6999964889528,14|0,0:0|3:2,0:0:0:0:
268,294,54513,1,2,3:2:0:0:
205,216,54682,2,0,L|200:104,1,76.6999964889528,10|0,0:0|3:2,0:0:0:0:
145,47,55019,1,2,3:2:0:0:
145,47,55187,1,8,0:0:0:0:
255,0,55356,1,2,3:2:0:0:
301,96,55524,6,0,P|346:92|458:88,1,153.399992977906,14|8,0:0|0:0,0:0:0:0:
503,175,56030,1,2,1:2:0:0:
434,248,56199,2,0,L|351:234,1,76.6999964889528,2|0,3:2|3:2,0:0:0:0:
280,272,56536,1,8,0:0:0:0:
280,272,56620,1,8,0:0:0:0:
280,272,56704,1,0,1:2:0:0:
183,178,56873,6,0,P|202:211|197:248,1,70.7999978393555,4|0,3:2|0:0,0:0:0:0:
126,344,57210,2,0,P|117:270|100:201,1,141.599995678711,10|2,0:0|3:2,0:0:0:0:
84,108,57715,1,2,0:0:0:0:
84,108,57884,1,8,0:0:0:0:
140,27,58053,6,0,B|220:32|177:75|269:83,1,141.599995678711,2|0,0:0|0:0,0:0:0:0:
308,164,58559,2,0,P|311:198|298:230,1,70.7999978393555,10|0,0:0|0:0,0:0:0:0:
224,286,58895,2,0,P|219:320|232:352,1,70.7999978393555,2|0,3:2|0:0,0:0:0:0:
321,379,59232,2,0,L|411:365,1,70.7999978393555,10|0,0:0|0:2,0:0:0:0:
493,323,59570,6,0,P|443:266|470:199,1,141.599995678711,2|10,3:2|0:0,0:0:0:0:
500,127,60075,2,0,P|464:113|410:131,1,70.7999978393555,2|0,0:0|3:2,0:0:0:0:
350,177,60412,1,2,0:0:0:0:
350,177,60581,1,8,0:0:0:0:
250,152,60750,1,2,0:0:0:0:
153,202,60918,6,0,L|130:344,2,141.599995678711,0|10|10,3:2|0:0|0:0,0:0:0:0:
106,112,61760,1,0,1:2:0:0:
182,47,61929,2,0,P|223:55|269:58,1,70.7999978393555,2|0,1:2|3:2,0:0:0:0:
307,136,62266,6,0,P|370:118|439:96,1,118,6|0,3:2|0:0,0:0:0:0:
480,176,62772,1,0,3:2:0:0:
480,176,62940,2,0,B|467:235|436:217|418:295,1,118,8|2,0:0|0:0,0:0:0:0:
410,366,63446,1,10,0:0:0:0:
332,310,63614,2,0,P|292:324|257:331,1,59,0|8,3:2|0:0,0:0:0:0:
194,297,63951,1,0,3:2:0:0:
18,186,64288,6,0,P|74:174|87:103,1,118,10|2,0:0|3:2,0:0:0:0:
125,31,64794,1,0,0:0:0:0:
200,87,64963,6,0,P|210:146|224:223,1,118,6|2,3:2|0:0,0:0:0:0:
214,292,65468,1,2,3:2:0:0:
296,307,65637,2,0,B|362:325|323:353|419:373,1,118,8|0,0:0|0:0,0:0:0:0:
473,311,66142,1,10,0:0:0:0:
421,242,66311,6,0,P|409:214|403:185,1,59,0|8,3:2|0:0,0:0:0:0:
442,96,66648,1,0,3:2:0:0:
358,84,66816,1,2,0:0:0:0:
358,84,66985,2,0,P|316:79|277:67,1,59,10|0,0:0|3:2,0:0:0:0:
220,104,67322,2,0,P|178:109|139:121,1,59,8|2,0:0|0:0,0:0:0:0:
86,79,67659,6,0,P|74:136|138:198,1,141.599995678711,6|10,3:2|0:0,0:0:0:0:
216,211,68165,2,0,P|200:290|186:372,1,141.599995678711,10|10,0:0|0:0,0:0:0:0:
283,340,68670,1,8,0:0:0:0:
283,340,68839,1,10,0:0:0:0:
368,384,69008,6,0,P|395:321|462:314,1,141.599995678711,8|8,0:0|0:0,0:0:0:0:
493,226,69513,1,10,0:0:0:0:
493,226,69597,1,8,0:0:0:0:
493,226,69682,2,0,P|484:155|470:81,1,141.599995678711,10|8,0:0|0:0,0:0:0:0:
390,41,70187,1,10,0:0:0:0:
347,127,70356,6,0,P|260:106|179:78,1,141.599995678711,10|10,0:0|0:0,0:0:0:0:
125,139,70861,2,0,P|148:165|181:174,1,70.7999978393555,10|8,0:0|0:0,0:0:0:0:
302,225,71199,2,0,P|267:231|233:244,1,70.7999978393555,10|8,0:0|0:0,0:0:0:0:
200,325,71536,1,10,0:0:0:0:
125,276,71704,6,0,P|62:303|56:370,1,141.599995678711,8|8,0:0|0:0,0:0:0:0:
42,283,72209,1,10,0:0:0:0:
42,283,72293,1,8,0:0:0:0:
42,283,72378,2,0,P|33:213|19:139,1,141.599995678711,10|8,0:0|0:0,0:0:0:0:
71,69,72883,1,10,0:0:0:0:
153,125,73052,6,0,B|232:104|201:76|282:66,1,141.599995678711,14|10,0:0|0:0,0:0:0:0:
361,60,73558,2,0,P|360:99|334:129,1,70.7999978393555,10|8,0:0|0:0,0:0:0:0:
277,179,73895,2,0,P|290:212|299:246,1,70.7999978393555,10|8,0:0|0:0,0:0:0:0:
285,354,74232,5,10,0:0:0:0:
285,354,74317,1,8,0:0:0:0:
285,354,74401,2,0,B|314:333|334:319|334:319|427:353,1,141.599995678711,8|10,0:0|0:0,0:0:0:0:
470,296,74906,1,8,0:0:0:0:
409,228,75075,2,0,P|403:185|398:142,1,70.7999978393555,10|10,0:0|0:0,0:0:0:0:
443,80,75412,1,8,0:0:0:0:
342,65,75581,5,10,0:0:0:0:
342,65,75665,1,8,0:0:0:0:
342,65,75749,2,0,P|272:73|225:-1,1,141.599995678711,8|8,0:0|0:0,0:0:0:0:
143,40,76255,1,8,0:0:0:0:
143,40,76339,1,8,0:0:0:0:
143,40,76423,2,0,L|158:164,1,106.199996759033,8|8,0:0|0:0,0:0:0:0:
164,192,76760,1,8,0:0:0:0:
86,218,76929,5,8,0:0:0:0:
86,218,77013,1,8,0:0:0:0:
86,218,77097,2,0,L|72:342,1,106.199996759033,8|8,0:0|0:0,0:0:0:0:
66,370,77434,1,8,0:0:0:0:
158,359,77603,1,8,0:0:0:0:
158,359,77687,1,8,0:0:0:0:
158,359,77772,2,0,L|209:340,3,35.3999989196778,10|8|8|8,0:0|0:0|0:0|0:0,0:0:0:0:
227,325,78109,2,0,L|278:344,3,35.3999989196778,8|8|8|8,0:0|0:0|0:0|0:0,0:0:0:0:
299,350,78446,6,0,P|333:308|282:216,1,153.399992977906,6|8,3:2|1:2,0:0:0:0:
244,147,78951,1,8,1:2:0:0:
313,100,79120,2,0,P|357:108|396:124,1,76.6999964889528,10|8,1:2|1:2,0:0:0:0:
474,89,79457,1,8,1:2:0:0:
474,89,79626,1,8,1:2:0:0:
467,187,79794,6,0,P|454:223|448:261,1,76.6999964889528,10|8,1:2|1:2,0:0:0:0:
493,339,80131,1,10,1:2:0:0:
392,351,80300,2,0,P|353:357|317:370,1,76.6999964889528,10|8,1:2|1:2,0:0:0:0:
234,299,80637,2,0,P|246:262|253:224,1,76.6999964889528,10|8,1:2|1:2,0:0:0:0:
256,138,80974,5,10,1:2:0:0:
256,138,81058,1,10,1:2:0:0:
256,138,81142,2,0,B|176:145|209:182|133:206,1,141.599995678711,12|0,0:0|3:2,0:0:0:0:
53,125,81648,2,0,P|107:127|149:48,1,141.599995678711,10|0,0:0|3:2,0:0:0:0:
227,13,82154,2,0,P|266:26|312:35,1,70.7999978393555,8|0,0:0|3:2,0:0:0:0:
357,88,82491,5,0,3:2:0:0:
412,21,82659,2,0,P|450:57|433:149,1,141.599995678711,8|0,0:0|3:2,0:0:0:0:
377,205,83165,2,0,P|338:192|292:183,1,70.7999978393555,8|0,0:0|1:2,0:0:0:0:
233,154,83502,1,0,1:2:0:0:
175,209,83670,5,0,3:2:0:0:
175,209,83755,1,0,3:2:0:0:
175,209,83839,2,0,P|190:265|210:352,1,141.599995678711,14|0,0:0|3:2,0:0:0:0:
301,362,84345,2,0,P|340:349|386:340,1,70.7999978393555,10|0,0:0|3:2,0:0:0:0:
454,323,84682,1,0,3:2:0:0:
454,323,84850,2,0,P|461:267|481:168,1,141.599995678711,8|2,0:0|3:2,0:0:0:0:
398,127,85356,6,0,P|356:182|287:185,1,141.599995678711,8|2,0:0|3:2,0:0:0:0:
227,257,85861,2,0,P|191:248|158:236,1,70.7999978393555,10|2,0:0|1:2,0:0:0:0:
68,204,86199,2,0,L|62:164,3,35.3999989196778,8|8|8|8,0:0|0:0|0:0|0:0,0:0:0:0:
54,126,86536,6,0,P|122:125|157:66,1,141.599995678711,14|0,0:0|3:2,0:0:0:0:
238,26,87041,2,0,P|297:38|389:45,1,141.599995678711,8|0,0:0|3:2,0:0:0:0:
471,35,87547,1,8,0:0:0:0:
422,126,87715,5,0,3:2:0:0:
422,126,87800,1,0,3:2:0:0:
422,126,87884,2,0,P|410:160|405:195,1,70.7999978393555,2|10,3:2|0:0,0:0:0:0:
334,249,88221,1,2,3:2:0:0:
239,225,88390,2,0,P|257:294|269:363,1,141.599995678711,2|0,3:2|1:2,0:0:0:0:
373,370,88895,2,0,P|409:338|454:342,1,70.7999978393555,2|2,1:2|1:2,0:0:0:0:
493,287,89232,6,0,P|486:252|478:214,1,70.7999978393555,14|2,0:0|3:2,0:0:0:0:
493,125,89569,1,2,3:2:0:0:
413,75,89738,2,0,P|350:110|280:120,1,141.599995678711,10|2,0:0|3:2,0:0:0:0:
265,41,90243,2,0,P|227:53|208:88,1,70.7999978393555,10|2,0:0|3:2,0:0:0:0:
200,183,90581,6,0,P|141:158|114:157,1,70.7999978393555,0|10,3:2|0:0,0:0:0:0:
54,118,90918,1,2,3:2:0:0:
23,199,91086,1,10,0:0:0:0:
23,199,91170,1,8,0:0:0:0:
23,199,91255,1,8,0:0:0:0:
75,280,91423,1,0,1:2:0:0:
75,280,91592,2,0,L|82:365,1,70.7999978393555,0|0,1:2|0:0,0:0:0:0:
178,372,91929,6,0,P|209:341|262:343,1,76.6999964889528,14|2,0:0|3:2,0:0:0:0:
331,294,92266,1,2,3:2:0:0:
398,367,92435,2,0,P|416:282|441:196,1,153.399992977906,10|2,0:0|3:2,0:0:0:0:
504,146,92940,1,10,0:0:0:0:
436,71,93109,6,0,P|394:85|350:92,1,76.6999964889528,2|0,3:2|3:2,0:0:0:0:
301,18,93446,1,10,0:0:0:0:
301,19,93614,2,0,P|269:55|273:95,1,76.6999964889528,2|0,3:2|3:2,0:0:0:0:
295,178,93951,1,10,0:0:0:0:
227,252,94120,1,2,1:2:0:0:
227,252,94288,2,0,P|177:233|127:223,1,76.6999964889528,2|2,1:2|3:2,0:0:0:0:
54,240,94626,6,0,P|53:202|83:158,1,76.6999964889528,12|0,0:0|3:2,0:0:0:0:
140,96,94963,1,2,3:2:0:0:
112,0,95131,2,0,P|170:10|273:20,1,153.399992977906,10|2,0:0|3:2,0:0:0:0:
349,70,95637,6,0,P|366:158|304:188,1,153.399992977906,10|2,0:0|3:2,0:0:0:0:
227,219,96142,2,0,P|240:254|247:292,1,76.6999964889528,10|2,0:0|3:2,0:0:0:0:
217,384,96479,1,2,3:2:0:0:
316,384,96648,2,0,P|351:370|389:363,1,76.6999964889528,10|2,0:0|1:2,0:0:0:0:
498,343,96985,5,10,0:0:0:0:
498,343,97069,1,8,0:0:0:0:
498,343,97154,1,10,0:0:0:0:
498,343,97238,1,8,0:0:0:0:
498,343,97322,2,0,P|492:251|419:212,1,153.399992977906,14|0,0:0|3:2,0:0:0:0:
348,212,97828,2,0,P|262:224|174:248,1,153.399992977906,8|0,0:0|3:2,0:0:0:0:
109,193,98333,1,10,0:0:0:0:
44,248,98502,5,2,3:2:0:0:
44,248,98586,1,2,3:2:0:0:
44,248,98670,2,0,P|64:168|84:65,1,153.399992977906,2|2,3:2|3:2,0:0:0:0:
126,10,99176,2,0,P|157:30|178:76,1,76.6999964889528,2|8,3:2|0:0,0:0:0:0:
252,128,99513,1,0,1:2:0:0:
323,57,99682,2,0,P|372:41|408:31,1,76.6999964889528,2|0,1:2|3:2,0:0:0:0:
488,72,100019,6,0,P|469:146|453:221,1,153.399992977906,14|2,0:0|3:2,0:0:0:0:
419,314,100524,2,0,B|324:305|367:275|274:251,1,153.399992977906,10|0,0:0|3:2,0:0:0:0:
182,243,101030,2,0,P|196:207|205:170,1,76.6999964889528,10|2,0:0|3:2,0:0:0:0:
234,77,101367,5,2,3:2:0:0:
234,77,101536,1,10,0:0:0:0:
155,24,101704,1,2,3:2:0:0:
155,24,101873,1,2,3:2:0:0:
92,101,102041,1,10,0:0:0:0:
92,100,102126,1,8,0:0:0:0:
92,100,102210,2,0,L|103:149,3,38.3499982444764,10|8|2|0,0:0|0:0|1:2|1:2,0:0:0:0:
113,184,102547,5,6,3:2:0:0:
256,192,102631,12,0,110131,0:0:0:0:
