osu file format v14

[General]
AudioFilename: audio.ogg
AudioLeadIn: 0
PreviewTime: 46086
Countdown: 0
SampleSet: Soft
StackLeniency: 0.7
Mode: 0
LetterboxInBreaks: 0
WidescreenStoryboard: 1

[Editor]
Bookmarks: 28895
DistanceSpacing: 1
BeatDivisor: 6
GridSize: 32
TimelineZoom: 2

[Metadata]
Title:Koisuru letter
TitleUnicode:恋するletter
Artist:Duca
ArtistUnicode:Duca
Creator:KennethBBG
Version:Didah's Insane
Source:恋する気持ちのかさねかた 〜かさねた想いをずっと〜
Tags:Aurorance Natsume Shizuku Didah Ayesha Altugle vahn10 Shizuku- Kazato Asa Shikibe Mayu ensemble Koi Suru Kimochi no Kasanekata ~Kasaneta Omoi o Zutto~ OP opening visual novel eroge japanese j-pop j-rock pop rock
BeatmapID:4024924
BeatmapSetID:1917288

[Difficulty]
HPDrainRate:5
CircleSize:4
OverallDifficulty:7.2
ApproachRate:8.8
SliderMultiplier:1.72
SliderTickRate:1

[Events]
//Background and Video events
0,0,"Background3.jpg",0,0
//Break Periods
//Storyboard Layer 0 (Background)
//Storyboard Layer 1 (Fail)
//Storyboard Layer 2 (Pass)
//Storyboard Layer 3 (Foreground)
//Storyboard Layer 4 (Overlay)
//Storyboard Sound Samples

[TimingPoints]
244,337.078651685393,4,2,1,30,1,0
21058,-100,4,2,1,5,0,0
21142,-100,4,2,1,80,0,0
21648,-100,4,2,1,30,0,0
21817,-133.333333333333,4,2,1,50,0,0
29906,-133.333333333333,4,2,1,55,0,0
31929,-133.333333333333,4,2,1,45,0,0
32603,-111.111111111111,4,2,1,60,0,0
39597,-111.111111111111,4,2,1,5,0,0
39682,-111.111111111111,4,2,1,60,0,0
40693,-111.111111111111,4,2,1,65,0,0
43304,-111.111111111111,4,2,1,5,0,0
43390,-111.111111111111,4,2,1,65,0,0
46086,-100,4,2,1,70,0,0
47687,-100,4,2,1,5,0,0
47772,-100,4,2,1,70,0,0
62266,-100,4,2,1,65,0,0
67659,-100,4,2,1,55,0,0
75749,-100,4,2,1,60,0,0
78446,-100,4,2,1,65,0,0
81142,-100,4,2,1,70,0,0
91929,-100,4,2,1,75,0,0
102547,-100,4,2,1,70,0,0
102884,-100,4,2,1,65,0,0
103221,-100,4,2,1,60,0,0
103558,-100,4,2,1,55,0,0
103895,-100,4,2,1,50,0,0
104232,-100,4,2,1,45,0,0
104569,-100,4,2,1,40,0,0
104906,-100,4,2,1,35,0,0
105243,-100,4,2,1,30,0,0
105581,-100,4,2,1,25,0,0
105918,-100,4,2,1,20,0,0
106255,-100,4,2,1,15,0,0
106592,-100,4,2,1,10,0,0
106929,-100,4,2,1,5,0,0

[Colours]
Combo1 : 255,206,57
Combo2 : 247,159,168
Combo3 : 96,168,255
Combo4 : 177,92,92

[HitObjects]
256,192,19120,12,0,21058,0:0:0:0:
124,198,21142,5,10,1:2:0:0:
315,251,21311,1,10,1:2:0:0:
315,251,21817,6,0,P|283:257|251:262,1,64.5000024604798,6|2,3:2|0:0,0:0:0:0:
124,198,22154,2,0,P|155:191|187:186,1,64.5000024604798,2|2,3:2|0:0,0:0:0:0:
255,125,22491,2,0,P|260:93|268:62,2,64.5000024604798,2|2|2,3:2|0:0|3:2,0:0:0:0:
327,187,22996,1,2,0:0:0:0:
327,187,23165,2,0,P|321:218|314:250,2,64.5000024604798,2|2|2,3:2|0:0|3:2,0:0:0:0:
396,139,23670,2,0,P|429:114|515:123,1,129.00000492096,2|2,0:0|0:0,0:0:0:0:
313,250,24345,5,2,0:0:0:0:
313,250,24513,2,0,P|319:281|324:313,1,64.5000024604798,2|2,3:2|0:0,0:0:0:0:
239,384,24850,2,0,P|232:352|227:320,1,64.5000024604798,2|2,3:2|0:0,0:0:0:0:
156,257,25187,2,0,P|125:251|93:245,2,64.5000024604798,2|2|2,3:2|0:0|3:2,0:0:0:0:
208,184,25693,1,2,0:0:0:0:
208,184,25861,2,0,P|239:190|271:196,2,64.5000024604798,2|2|2,3:2|0:0|3:2,0:0:0:0:
136,126,26367,2,0,P|124:62|110:0,1,129.00000492096,2|2,0:0|0:0,0:0:0:0:
331,92,27041,5,2,0:0:0:0:
381,36,27210,2,0,B|482:58|411:55|503:75,1,129.00000492096,0|0,3:2|3:2,0:0:0:0:
277,217,27884,2,0,B|176:239|247:236|154:256,1,129.00000492096,2|0,3:2|3:2,0:0:0:0:
327,101,28558,2,0,P|336:137|342:168,1,64.5000024604798,2|0,3:2|0:0,0:0:0:0:
381,315,28895,2,0,B|403:214|400:285|420:192,1,129.00000492096,2|2,3:2|3:2,0:0:0:0:
305,361,29401,2,0,P|273:352|242:346,1,64.5000024604798,2|0,0:0|3:2,0:0:0:0:
81,288,29738,5,2,0:0:0:0:
96,195,29906,2,0,P|63:195|34:208,1,64.5000024604798,0|0,3:2|0:0,0:0:0:0:
153,119,30243,2,0,P|124:103|92:99,1,64.5000024604798,2|2,3:2|0:0,0:0:0:0:
241,80,30581,2,0,P|224:52|198:33,1,64.5000024604798,0|0,3:2|0:0,0:0:0:0:
337,93,30918,2,0,P|336:60|323:31,1,64.5000024604798,0|2,3:2|0:0,0:0:0:0:
198,33,31255,5,0,3:2:0:0:
262,216,31423,1,0,3:2:0:0:
422,76,31592,5,8,0:0:0:0:
248,121,31760,1,0,0:0:0:0:
386,241,31929,5,10,0:0:0:0:
417,246,32013,1,2,0:0:0:0:
449,252,32097,1,2,1:2:0:0:
481,258,32181,1,2,0:0:0:0:
512,264,32266,2,0,L|502:216,3,32.2500012302399,2|2|2|2,1:2|0:0|3:2|0:0,0:0:0:0:
479,346,32603,6,0,P|433:375|325:357,1,154.799995275879,6|0,3:2|0:0,0:0:0:0:
399,280,33109,1,2,3:2:0:0:
246,256,33277,2,0,L|412:282,1,154.799995275879,8|2,0:0|0:0,0:0:0:0:
512,183,33783,6,0,P|504:145|497:106,1,77.3999976379395,8|2,0:0|3:2,0:0:0:0:
392,68,34120,2,0,P|399:105|406:144,1,77.3999976379395,8|0,0:0|0:0,0:0:0:0:
461,0,34457,1,2,3:2:0:0:
300,122,34626,2,0,P|235:81|161:94,1,154.799995275879,8|2,0:0|3:2,0:0:0:0:
9,127,35300,6,0,L|171:92,1,154.799995275879,2|2,3:2|0:0,0:0:0:0:
61,19,35805,1,2,3:2:0:0:
215,176,35974,2,0,P|227:250|187:314,1,154.799995275879,8|0,0:0|0:0,0:0:0:0:
339,384,36479,6,0,P|316:338|313:295,1,77.3999976379395,10|0,0:0|3:2,0:0:0:0:
481,256,36817,2,0,P|504:302|507:345,1,77.3999976379395,8|0,0:0|0:0,0:0:0:0:
410,319,37154,1,0,3:2:0:0:
509,103,37322,2,0,L|480:255,1,154.799995275879,8|10,0:0|0:0,0:0:0:0:
368,125,37996,6,0,P|433:87|508:101,2,154.799995275879,6|2|0,3:2|3:2|3:2,0:0:0:0:
448,181,38839,1,2,0:0:0:0:
368,125,39008,2,0,P|374:86|379:48,1,77.3999976379395,0|2,3:2|0:0,0:0:0:0:
448,181,39345,2,0,P|458:238|465:295,1,116.099996456909,0|0,3:2|0:0,0:0:0:0:
469,314,39682,2,0,P|430:319|392:325,1,77.3999976379395,0|0,3:2|0:0,0:0:0:0:
275,244,40019,2,0,P|313:237|351:233,1,77.3999976379395,0|2,3:2|0:0,0:0:0:0:
277,348,40356,2,0,P|227:376|170:369,1,116.099996456909,2|2,3:2|0:0,0:0:0:0:
150,377,40693,6,0,P|155:338|161:300,1,77.3999976379395,6|0,3:2|0:0,0:0:0:0:
362,156,41030,2,0,P|357:195|351:233,1,77.3999976379395,0|2,3:2|0:0,0:0:0:0:
192,56,41367,2,0,P|185:94|181:132,1,77.3999976379395,2|0,3:2|0:0,0:0:0:0:
308,0,41704,2,0,P|303:38|297:76,1,77.3999976379395,0|2,3:2|0:0,0:0:0:0:
0,109,42041,6,0,P|5:70|11:32,1,77.3999976379395,2|0,3:2|0:0,0:0:0:0:
170,209,42378,2,0,P|177:171|181:133,1,77.3999976379395,2|0,3:2|0:0,0:0:0:0:
54,265,42715,2,0,P|59:227|65:189,1,77.3999976379395,2|0,3:2|0:0,0:0:0:0:
166,371,43052,2,0,P|223:377|273:350,1,116.099996456909,2|0,3:2|0:0,0:0:0:0:
293,340,43390,6,0,L|403:363,1,77.3999976379395,6|0,3:2|0:0,0:0:0:0:
477,203,43727,2,0,P|418:182|330:238,1,154.799995275879,2|0,3:2|3:2,0:0:0:0:
501,342,44232,1,0,0:0:0:0:
399,353,44401,2,0,L|414:277,1,77.3999976379395,8|8,1:2|1:2,0:0:0:0:
485,104,44738,5,8,1:2:0:0:
403,153,44906,1,8,1:2:0:0:
340,64,45075,1,8,1:2:0:0:
510,27,45243,1,8,1:2:0:0:
443,232,45412,1,14,1:2:0:0:
272,151,45581,1,14,1:2:0:0:
272,151,46086,6,0,B|181:144|190:182|105:179,1,172,4|10,3:2|0:0,0:0:0:0:
309,294,46592,1,0,0:0:0:0:
175,350,46760,2,0,P|184:308|191:266,1,86,2|2,3:2|0:0,0:0:0:0:
393,277,47097,2,0,P|350:284|308:293,1,86,8|2,0:0|0:0,0:0:0:0:
155,122,47435,6,0,P|208:156|271:150,1,129,0|0,3:2|0:0,0:0:0:0:
297,131,47772,2,0,P|287:88|280:46,1,86,10|0,0:0|0:0,0:0:0:0:
456,158,48109,2,0,P|423:188|390:215,1,86,2|0,3:2|0:0,0:0:0:0:
415,15,48446,2,0,P|457:27|497:42,1,86,10|0,0:0|0:0,0:0:0:0:
482,264,48783,6,0,P|412:311|329:298,1,172,2|10,3:2|0:0,0:0:0:0:
138,260,49288,2,0,L|154:175,1,86,2|0,0:0|3:2,0:0:0:0:
340,98,49626,2,0,L|356:182,1,86,2|8,0:0|0:0,0:0:0:0:
83,125,49963,6,0,B|174:118|165:156|250:153,1,172,2|0,0:0|0:0,0:0:0:0:
420,119,50468,2,0,P|382:98|339:97,1,86,10|0,0:0|0:0,0:0:0:0:
454,269,50805,2,0,P|490:246|512:210,1,86,2|0,3:2|0:0,0:0:0:0:
307,218,51142,2,0,P|308:260|328:297,1,86,10|2,0:0|0:0,0:0:0:0:
339,97,51479,6,0,P|297:63|177:82,2,172,2|8|0,3:2|0:0|3:2,0:0:0:0:
275,18,52322,1,2,0:0:0:0:
250,152,52491,2,0,L|140:172,1,86,10|2,0:0|0:0,0:0:0:0:
74,29,52828,6,0,P|23:1|20:84,1,172,0|8,3:2|0:0,0:0:0:0:
165,167,53333,1,0,0:0:0:0:
98,234,53502,2,0,P|72:184|77:139,1,86,2|0,3:2|0:0,0:0:0:0:
232,101,53839,2,0,P|258:151|253:196,1,86,10|8,0:0|0:0,0:0:0:0:
131,320,54176,5,14,0:0:0:0:
165,167,54345,1,0,3:2:0:0:
278,273,54513,1,2,3:2:0:0:
83,240,54682,5,10,0:0:0:0:
189,124,54851,1,0,3:2:0:0:
234,273,55019,1,2,3:2:0:0:
82,146,55187,6,0,L|101:54,1,86,8|2,0:0|3:2,0:0:0:0:
257,179,55524,6,0,L|341:161,1,86,14|0,0:0|3:2,0:0:0:0:
475,84,55861,1,8,0:0:0:0:
329,28,56030,1,2,1:2:0:0:
445,175,56199,2,0,L|427:259,1,86,2|0,3:2|3:2,0:0:0:0:
341,161,56536,1,8,0:0:0:0:
341,161,56620,1,8,0:0:0:0:
341,161,56704,1,0,1:2:0:0:
511,314,56873,6,0,P|432:290|362:336,1,172,4|10,3:2|0:0,0:0:0:0:
183,242,57378,1,0,0:0:0:0:
253,384,57547,2,0,L|274:283,1,86,2|2,3:2|0:0,0:0:0:0:
341,161,57884,1,8,0:0:0:0:
183,242,58052,6,0,B|92:235|101:273|16:270,1,172,2|0,0:0|0:0,0:0:0:0:
256,143,58558,2,0,L|352:163,1,86,10|0,0:0|0:0,0:0:0:0:
160,81,58895,2,0,L|129:-12,1,86,2|0,3:2|0:0,0:0:0:0:
155,190,59232,2,0,L|89:263,1,86,10|0,0:0|0:2,0:0:0:0:
340,160,59569,6,0,P|361:108|323:-1,1,172,2|10,3:2|0:0,0:0:0:0:
400,233,60075,2,0,P|458:225|488:203,1,86,2|0,0:0|3:2,0:0:0:0:
366,324,60412,2,0,P|412:361|448:367,1,86,2|8,0:0|0:0,0:0:0:0:
340,160,60749,6,0,L|168:135,1,172,2|0,0:0|0:0,0:0:0:0:
125,245,61255,2,0,L|211:232,1,86,10|0,0:0|0:0,0:0:0:0:
210,232,61508,1,8,0:0:0:0:
210,232,61592,1,10,0:0:0:0:
53,123,61760,1,0,1:2:0:0:
182,50,61929,2,0,L|169:136,1,86,2|0,1:2|3:2,0:0:0:0:
35,298,62266,6,0,P|82:335|190:323,1,172,6|0,3:2|0:0,0:0:0:0:
378,252,62772,1,0,3:2:0:0:
298,384,62940,2,0,L|273:212,1,172,8|2,0:0|0:0,0:0:0:0:
328,134,63446,1,10,0:0:0:0:
302,42,63614,6,0,P|344:38|383:55,1,86,0|8,3:2|0:0,0:0:0:0:
354,227,63951,2,0,P|311:230|272:213,1,86,0|0,3:2|0:0,0:0:0:0:
160,106,64288,2,0,B|251:99|242:137|327:134,1,172,10|2,0:0|3:2,0:0:0:0:
182,268,64963,6,0,P|116:246|33:299,1,172,6|2,3:2|0:0,0:0:0:0:
121,342,65468,1,2,3:2:0:0:
0,194,65637,2,0,L|25:22,1,172,8|0,0:0|0:0,0:0:0:0:
161,107,66142,1,10,0:0:0:0:
24,23,66311,6,0,L|110:10,1,86,0|8,3:2|0:0,0:0:0:0:
246,95,66648,2,0,L|160:107,1,86,0|2,3:2|0:0,0:0:0:0:
67,166,66985,2,0,P|25:238|54:316,1,172,10|8,0:0|0:0,0:0:0:0:
324,365,67659,6,0,L|308:273,1,86,6|8,3:2|0:0,0:0:0:0:
309,280,67912,1,8,0:0:0:0:
309,280,67996,1,10,0:0:0:0:
388,222,68165,2,0,L|395:179,2,43,10|8|8,0:0|0:0|0:0,0:0:0:0:
428,308,68502,2,0,L|512:322,1,86,10|8,0:0|0:0,0:0:0:0:
466,107,68839,5,10,0:0:0:0:
466,107,68923,1,8,0:0:0:0:
466,107,69008,2,0,P|383:86|310:128,1,172,8|8,0:0|0:0,0:0:0:0:
196,20,69513,2,0,L|153:13,2,43,10|8|10,0:0|0:0|0:0,0:0:0:0:
305,49,69850,1,8,0:0:0:0:
305,49,69935,1,8,0:0:0:0:
305,49,70019,2,0,L|319:133,1,86,8|10,0:0|0:0,0:0:0:0:
319,133,70272,1,8,0:0:0:0:
319,133,70356,6,0,L|305:217,1,86,10|8,0:0|0:0,0:0:0:0:
234,345,70693,1,10,0:0:0:0:
176,269,70861,2,0,L|133:276,2,43,10|8|8,0:0|0:0|0:0,0:0:0:0:
234,345,71199,2,0,L|318:331,1,86,10|8,0:0|0:0,0:0:0:0:
167,169,71536,5,10,0:0:0:0:
167,169,71620,1,8,0:0:0:0:
167,169,71704,2,0,B|76:162|85:200|0:197,1,172,8|8,0:0|0:0,0:0:0:0:
182,49,72210,1,10,0:0:0:0:
87,0,72378,2,0,P|71:39|78:81,1,86,10|8,0:0|0:0,0:0:0:0:
277,99,72715,2,0,P|292:59|285:17,1,86,8|10,0:0|0:0,0:0:0:0:
167,169,73052,6,0,L|185:278,1,86,14|8,0:0|0:0,0:0:0:0:
181,253,73305,1,8,0:0:0:0:
181,253,73390,1,10,0:0:0:0:
279,342,73558,2,0,L|271:384,2,43,10|8|8,0:0|0:0|0:0,0:0:0:0:
351,279,73895,2,0,L|435:293,1,86,10|8,0:0|0:0,0:0:0:0:
271,384,74232,2,0,L|186:369,1,86,10|8,0:0|0:0,0:0:0:0:
80,301,74569,5,8,0:0:0:0:
80,301,74654,1,8,0:0:0:0:
80,301,74738,2,0,P|66:262|72:220,1,86,10|8,0:0|0:0,0:0:0:0:
186,369,75075,1,10,0:0:0:0:
271,203,75243,2,0,P|287:242|278:283,1,86,10|8,0:0|0:0,0:0:0:0:
176,147,75581,5,10,0:0:0:0:
176,147,75665,1,8,0:0:0:0:
176,147,75749,2,0,P|243:96|326:107,1,172,8|8,0:0|0:0,0:0:0:0:
477,200,76255,1,8,0:0:0:0:
319,291,76423,2,0,L|277:283,2,43,8|0|8,0:0|0:0|0:0,0:0:0:0:
437,384,76760,2,0,L|423:300,1,86,8|8,0:0|0:0,0:0:0:0:
477,200,77097,6,0,L|485:158,2,43,8|0|8,0:0|0:0|0:0,0:0:0:0:
325,106,77435,2,0,L|317:64,2,43,8|0|8,0:0|0:0|0:0,0:0:0:0:
437,51,77772,1,10,0:0:0:0:
437,51,77856,1,8,0:0:0:0:
437,51,77940,2,0,L|479:59,1,43,8|8,0:0|0:0,0:0:0:0:
381,204,78109,1,8,0:0:0:0:
381,204,78193,1,8,0:0:0:0:
381,204,78277,2,0,L|339:196,1,43,8|8,0:0|0:0,0:0:0:0:
216,97,78446,6,0,P|167:83|63:140,1,172,6|8,3:2|1:2,0:0:0:0:
251,239,78951,1,8,1:2:0:0:
142,278,79120,2,0,L|159:194,1,86,10|8,1:2|1:2,0:0:0:0:
354,111,79457,2,0,L|337:195,1,86,8|8,1:2|1:2,0:0:0:0:
357,305,79794,5,10,1:2:0:0:
253,264,79963,1,8,1:2:0:0:
338,195,80131,1,10,1:2:0:0:
440,233,80300,1,10,1:2:0:0:
333,334,80468,5,8,1:2:0:0:
238,178,80637,1,10,1:2:0:0:
418,266,80805,1,8,1:2:0:0:
218,379,80974,1,10,1:2:0:0:
338,194,81142,6,0,L|318:87,1,86,12|0,0:0|3:2,0:0:0:0:
406,41,81479,1,0,3:2:0:0:
209,158,81648,2,0,B|118:151|127:189|42:186,1,172,10|0,0:0|3:2,0:0:0:0:
161,29,82154,2,0,L|245:44,1,86,8|0,0:0|3:2,0:0:0:0:
390,199,82491,1,0,3:2:0:0:
452,116,82659,6,0,P|369:99|299:145,1,172,8|0,0:0|3:2,0:0:0:0:
375,284,83165,2,0,L|390:200,1,86,8|0,0:0|1:2,0:0:0:0:
195,81,83502,2,0,L|180:165,1,86,0|0,1:2|3:2,0:0:0:0:
66,356,83839,6,0,B|171:336|171:336|185:368|217:378,1,172,14|0,0:0|3:2,0:0:0:0:
180,166,84345,1,10,0:0:0:0:
375,284,84513,2,0,L|291:299,1,86,0|0,3:2|3:2,0:0:0:0:
95,181,84850,2,0,L|179:166,1,86,8|0,0:0|3:2,0:0:0:0:
415,98,85187,5,2,3:2:0:0:
319,22,85356,2,0,L|288:191,1,172,8|2,0:0|3:2,0:0:0:0:
383,283,85861,2,0,L|467:268,1,86,10|2,0:0|1:2,0:0:0:0:
260,177,86199,2,0,L|218:184,3,43,8|8|8|8,0:0|0:0|0:0|0:0,0:0:0:0:
415,98,86536,6,0,L|430:14,1,86,14|0,0:0|3:2,0:0:0:0:
319,22,86873,1,0,3:2:0:0:
504,144,87041,2,0,P|421:128|351:174,1,172,8|0,0:0|3:2,0:0:0:0:
298,267,87547,2,0,L|382:282,1,86,8|0,0:0|3:2,0:0:0:0:
452,379,87884,5,2,3:2:0:0:
382,282,88052,1,10,0:0:0:0:
497,278,88221,1,2,3:2:0:0:
341,384,88390,2,0,L|172:353,1,172,2|0,3:2|1:2,0:0:0:0:
282,182,88895,2,0,L|297:266,1,86,2|2,1:2|1:2,0:0:0:0:
79,384,89232,2,0,L|64:300,1,86,14|2,0:0|3:2,0:0:0:0:
0,221,89569,1,2,3:2:0:0:
205,283,89738,6,0,B|296:276|287:314|372:311,1,172,10|2,0:0|3:2,0:0:0:0:
363,103,90243,1,10,0:0:0:0:
512,183,90412,2,0,B|421:176|430:214|345:211,1,172,2|10,3:2|0:0,0:0:0:0:
254,84,90918,1,2,3:2:0:0:
344,21,91086,1,10,0:0:0:0:
344,21,91170,1,8,0:0:0:0:
344,21,91255,2,0,P|361:60|363:102,1,86,8|0,0:0|1:2,0:0:0:0:
165,150,91592,2,0,P|148:111|146:69,1,86,0|0,1:2|0:0,0:0:0:0:
262,78,91929,5,14,0:0:0:0:
251,163,92097,1,2,3:2:0:0:
240,248,92266,1,2,3:2:0:0:
78,174,92435,5,10,0:0:0:0:
89,259,92603,1,2,3:2:0:0:
100,344,92772,1,2,3:2:0:0:
324,263,92940,6,0,L|222:244,1,86,10|2,0:0|3:2,0:0:0:0:
377,167,93277,1,0,3:2:0:0:
457,361,93446,2,0,P|497:287|481:205,1,172,10|0,0:0|3:2,0:0:0:0:
361,82,93951,2,0,L|376:166,1,86,10|2,0:0|1:2,0:0:0:0:
511,16,94288,2,0,L|426:0,1,86,2|2,1:2|3:2,0:0:0:0:
262,78,94626,5,12,0:0:0:0:
181,108,94794,1,0,3:2:0:0:
114,53,94963,1,2,3:2:0:0:
149,206,95131,5,10,0:0:0:0:
68,176,95299,1,2,3:2:0:0:
1,231,95468,1,2,3:2:0:0:
133,290,95637,6,0,L|149:205,1,86,10|2,0:0|3:2,0:0:0:0:
52,143,95974,1,2,3:2:0:0:
248,259,96142,2,0,B|339:252|330:290|415:287,1,172,10|2,0:0|3:2,0:0:0:0:
289,117,96648,2,0,L|204:133,1,86,10|2,0:0|1:2,0:0:0:0:
133,290,96985,2,0,L|125:332,3,43,10|8|10|8,0:0|0:0|0:0|0:0,0:0:0:0:
1,231,97322,6,0,L|17:146,1,86,14|0,0:0|3:2,0:0:0:0:
204,132,97659,1,0,3:2:0:0:
127,0,97828,2,0,L|111:85,1,86,8|0,0:0|3:2,0:0:0:0:
265,222,98165,1,0,3:2:0:0:
289,117,98333,2,0,L|204:133,1,86,10|2,0:0|3:2,0:0:0:0:
359,31,98670,6,0,P|428:13|527:91,1,172,2|2,3:2|3:2,0:0:0:0:
448,289,99176,2,0,B|455:198|417:207|420:122,1,172,2|0,3:2|1:2,0:0:0:0:
249,14,99682,2,0,L|265:99,1,86,2|0,1:2|3:2,0:0:0:0:
85,246,100019,6,0,L|0:230,1,86,14|0,0:0|3:2,0:0:0:0:
152,159,100356,1,2,3:2:0:0:
23,338,100524,2,0,P|105:354|176:309,1,172,10|0,0:0|3:2,0:0:0:0:
264,98,101030,2,0,L|280:183,1,86,10|2,0:0|3:2,0:0:0:0:
380,330,101367,5,2,3:2:0:0:
278,286,101536,1,10,0:0:0:0:
481,182,101704,5,2,3:2:0:0:
379,226,101873,1,2,3:2:0:0:
409,85,102041,5,10,0:0:0:0:
378,55,102125,1,8,0:0:0:0:
338,39,102209,1,10,0:0:0:0:
295,39,102293,1,8,0:0:0:0:
256,55,102378,2,0,L|264:97,1,43,2|0,1:2|1:2,0:0:0:0:
279,182,102547,1,6,3:2:0:0:
256,192,102631,12,0,110300,0:0:0:0:
