osu file format v14

[General]
AudioFilename: audio.ogg
AudioLeadIn: 0
PreviewTime: 46086
Countdown: 0
SampleSet: Soft
StackLeniency: 0.7
Mode: 0
LetterboxInBreaks: 0
WidescreenStoryboard: 1

[Editor]
DistanceSpacing: 1
BeatDivisor: 4
GridSize: 8
TimelineZoom: 1

[Metadata]
Title:Koisuru letter
TitleUnicode:恋するletter
Artist:Duca
ArtistUnicode:Duca
Creator:KennethBBG
Version:Ayesha's Expert
Source:恋する気持ちのかさねかた 〜かさねた想いをずっと〜
Tags:Aurorance Natsume Shizuku Didah Ayesha Altugle vahn10 Shizuku- Kazato Asa Shikibe Mayu ensemble Koi Suru Kimochi no Kasanekata ~Kasaneta Omoi o Zutto~ OP opening visual novel eroge japanese j-pop j-rock pop rock
BeatmapID:3958155
BeatmapSetID:1917288

[Difficulty]
HPDrainRate:6
CircleSize:4
OverallDifficulty:8.5
ApproachRate:9.2
SliderMultiplier:1.72
SliderTickRate:1

[Events]
//Background and Video events
0,0,"Background6.jpg",0,0
//Break Periods
//Storyboard Layer 0 (Background)
//Storyboard Layer 1 (Fail)
//Storyboard Layer 2 (Pass)
//Storyboard Layer 3 (Foreground)
//Storyboard Layer 4 (Overlay)
//Storyboard Sound Samples

[TimingPoints]
244,337.078651685393,4,2,1,30,1,0
21142,-100,4,2,1,80,0,0
21648,-100,4,2,1,30,0,0
21817,-125,4,2,1,50,0,0
28811,-125,4,2,1,5,0,0
28896,-125,4,2,1,50,0,0
29906,-125,4,2,1,55,0,0
31844,-125,4,2,1,5,0,0
31929,-125,4,2,1,45,0,0
32604,-117.647058823529,4,2,1,60,0,0
35215,-117.647058823529,4,2,1,5,0,0
35300,-117.647058823529,4,2,1,60,0,0
37575,-117.647058823529,4,2,1,5,0,0
37660,-117.647058823529,4,2,1,60,0,0
37997,-111.111111111111,4,2,1,60,0,0
40693,-111.111111111111,4,2,1,65,0,0
43305,-111.111111111111,4,2,1,5,0,0
43390,-111.111111111111,4,2,1,65,0,0
46086,-95.2380952380952,4,2,1,70,0,1
46676,-95.2380952380952,4,2,1,5,0,1
46761,-95.2380952380952,4,2,1,70,0,1
50721,-95.2380952380952,4,2,1,5,0,1
50806,-95.2380952380952,4,2,1,70,0,1
54177,-95.2380952380952,4,2,1,70,0,1
56114,-95.2380952380952,4,2,1,70,0,1
56199,-95.2380952380952,4,2,1,70,0,1
56873,-95.2380952380952,4,2,1,70,0,1
57125,-95.2380952380952,4,2,1,5,0,1
57210,-95.2380952380952,4,2,1,70,0,1
58811,-95.2380952380952,4,2,1,5,0,1
58896,-95.2380952380952,4,2,1,70,0,1
61255,-95.2380952380952,4,2,1,70,0,1
62266,-111.111111111111,4,2,1,65,0,1
67659,-90.9090909090909,4,2,1,55,0,0
75075,-95.2380952380952,4,2,1,55,0,0
75749,-95.2380952380952,4,2,1,60,0,0
77941,-95.2380952380952,4,2,1,60,0,0
78446,-95.2380952380952,4,2,1,65,0,0
78698,-95.2380952380952,4,2,1,5,0,0
78783,-95.2380952380952,4,2,1,65,0,0
81143,-95.2380952380952,4,2,1,70,0,0
81900,-95.2380952380952,4,2,1,5,0,0
81986,-95.2380952380952,4,2,1,70,0,0
85103,-95.2380952380952,4,2,1,5,0,0
85188,-95.2380952380952,4,2,1,70,0,0
87799,-95.2380952380952,4,2,1,70,0,0
87884,-95.2380952380952,4,2,1,70,0,0
91844,-95.2380952380952,4,2,1,5,0,0
91929,-95.2380952380952,4,2,1,75,0,0
95384,-95.2380952380952,4,2,1,5,0,0
95469,-95.2380952380952,4,2,1,75,0,0
96395,-95.2380952380952,4,2,1,5,0,0
96480,-95.2380952380952,4,2,1,75,0,0
102547,-95.2380952380952,4,2,1,70,0,0
102884,-95.2380952380952,4,2,1,65,0,0
103221,-95.2380952380952,4,2,1,60,0,0
103558,-95.2380952380952,4,2,1,55,0,0
103895,-95.2380952380952,4,2,1,50,0,0
104232,-95.2380952380952,4,2,1,45,0,0
104569,-95.2380952380952,4,2,1,40,0,0
104906,-95.2380952380952,4,2,1,35,0,0
105243,-95.2380952380952,4,2,1,30,0,0
105581,-95.2380952380952,4,2,1,25,0,0
105918,-95.2380952380952,4,2,1,20,0,0
106255,-95.2380952380952,4,2,1,15,0,0
106592,-95.2380952380952,4,2,1,10,0,0
106929,-95.2380952380952,4,2,1,5,0,0

[Colours]
Combo1 : 255,206,57
Combo2 : 247,159,168
Combo3 : 96,168,255
Combo4 : 177,92,92

[HitObjects]
256,192,19120,12,0,20974,0:0:0:0:
404,7,21143,5,10,1:2:0:0:
352,204,21311,1,10,1:2:0:0:
352,204,21648,5,2,0:0:0:0:
352,204,21733,1,2,0:0:0:0:
352,204,21817,2,0,P|384:197|420:192,1,68.8,6|2,3:2|0:0,0:0:0:0:
478,270,22154,2,0,P|446:277|410:282,1,68.8,2|2,3:2|0:0,0:0:0:0:
313,371,22491,2,0,P|318:331|328:296,1,68.8,2|2,3:2|0:0,0:0:0:0:
236,204,22828,2,0,P|231:244|221:279,1,68.8,2|2,3:2|0:0,0:0:0:0:
136,347,23165,6,0,P|96:355|67:364,1,68.8,2|2,3:2|0:0,0:0:0:0:
42,201,23502,1,2,3:2:0:0:
0,279,23671,2,0,P|68:280|129:231,1,137.6,2|2,0:0|0:0,0:0:0:0:
226,141,24177,2,0,L|208:212,1,68.8,0|2,3:2|0:0,0:0:0:0:
139,153,24514,5,2,3:2:0:0:
139,153,24682,1,2,0:0:0:0:
239,52,24851,2,0,P|205:63|165:71,1,68.8,2|2,3:2|0:0,0:0:0:0:
294,187,25188,5,2,3:2:0:0:
294,187,25356,1,2,0:0:0:0:
222,275,25525,2,0,P|215:239|208:205,1,68.8,2|2,3:2|0:0,0:0:0:0:
346,115,25862,5,2,3:2:0:0:
416,151,26030,2,0,P|452:167|492:172,1,68.8,2|2,0:0|3:2,0:0:0:0:
385,36,26368,2,0,P|327:69|251:59,1,137.6,2|2,0:0|0:0,0:0:0:0:
164,33,26873,2,0,P|173:66|180:101,1,68.8,0|2,3:2|0:0,0:0:0:0:
103,166,27210,2,0,P|89:98|71:32,2,137.6,0|0|2,3:2|3:2|3:2,0:0:0:0:
170,215,28053,1,0,0:0:0:0:
47,258,28222,2,0,P|83:263|113:278,1,68.8,0|0,3:2|0:0,0:0:0:0:
366,174,28559,6,0,L|259:199,1,103.2,2|0,3:2|0:0,0:0:0:0:
252,200,28896,2,0,L|265:126,1,68.8,2|0,3:2|0:0,0:0:0:0:
348,276,29233,1,2,3:2:0:0:
289,384,29401,2,0,P|283:348|276:310,1,68.8,2|0,0:0|3:2,0:0:0:0:
165,236,29738,1,2,0:0:0:0:
89,271,29907,6,0,P|26:253|0:178,1,137.6,0|2,3:2|3:2,0:0:0:0:
0,191,30413,1,2,0:0:0:0:
108,55,30581,2,0,P|93:127|79:207,1,137.6,0|0,3:2|3:2,0:0:0:0:
81,190,31087,1,2,0:0:0:0:
209,186,31255,5,0,3:2:0:0:
256,318,31424,1,0,3:2:0:0:
386,210,31592,2,0,P|329:226|271:239,1,103.2,8|0,0:0|0:0,0:0:0:0:
286,235,31929,1,10,0:0:0:0:
173,108,32098,5,2,1:2:0:0:
173,108,32266,2,0,L|189:38,1,68.8,2|2,1:2|3:2,0:0:0:0:
188,40,32604,6,0,B|135:63|135:63|88:64|33:20,1,146.200002788544,6|0,3:2|0:0,0:0:0:0:
224,136,33109,1,2,3:2:0:0:
298,94,33278,2,0,P|304:54|315:18,1,73.1000013942719,8|0,0:0|0:0,0:0:0:0:
438,195,33615,2,0,P|405:178|370:167,1,73.1000013942719,2|8,0:0|0:0,0:0:0:0:
200,299,33952,5,2,3:2:0:0:
200,299,34120,2,0,P|266:305|329:260,1,146.200002788544,8|2,0:0|3:2,0:0:0:0:
384,321,34626,2,0,P|419:331|454:340,1,73.1000013942719,8|0,0:0|0:0,0:0:0:0:
512,201,34963,2,0,P|458:197|400:233,1,109.650002091408,2|0,3:2|0:0,0:0:0:0:
404,227,35300,6,0,P|394:196|391:155,1,73.1000013942719,2|0,3:2|0:0,0:0:0:0:
296,11,35637,1,2,0:0:0:0:
240,86,35806,2,0,P|278:94|320:107,1,73.1000013942719,2|8,3:2|0:0,0:0:0:0:
191,192,36143,2,0,P|153:200|111:213,1,73.1000013942719,2|0,0:0|0:0,0:0:0:0:
12,144,36480,6,0,P|27:70|34:-2,2,146.200002788544,10|8|0,0:0|0:0|3:2,0:0:0:0:
0,282,37323,2,0,P|57:282|117:329,1,109.650002091408,8|0,0:0|0:0,0:0:0:0:
111,317,37660,2,0,L|188:301,1,73.1000013942719,10|2,0:0|0:0,0:0:0:0:
320,362,37997,6,0,P|328:279|352:195,1,154.799995275879,6|2,3:2|3:2,0:0:0:0:
288,135,38502,2,0,P|326:129|364:118,1,77.3999976379395,2|0,0:0|3:2,0:0:0:0:
443,276,38839,2,0,P|405:282|367:293,1,77.3999976379395,2|0,0:0|3:2,0:0:0:0:
277,267,39176,1,2,0:0:0:0:
229,340,39345,6,0,B|136:336|170:298|78:303,1,154.799995275879,0|0,3:2|3:2,0:0:0:0:
203,215,39851,1,0,0:0:0:0:
108,148,40019,2,0,P|115:191|128:238,1,77.3999976379395,0|2,3:2|0:0,0:0:0:0:
247,140,40356,1,2,3:2:0:0:
306,283,40525,1,2,0:0:0:0:
469,238,40693,6,0,P|419:195|317:202,1,154.799995275879,6|0,3:2|3:2,0:0:0:0:
172,115,41199,1,2,0:0:0:0:
286,28,41368,2,0,P|278:69|270:120,1,77.3999976379395,2|0,3:2|0:0,0:0:0:0:
131,205,41705,1,0,3:2:0:0:
66,57,41873,1,2,0:0:0:0:
227,184,42042,6,0,P|269:193|315:213,1,77.3999976379395,2|0,3:2|0:0,0:0:0:0:
428,125,42379,1,2,3:2:0:0:
428,125,42547,1,0,0:0:0:0:
327,63,42716,2,0,B|333:105|345:142|345:142,1,77.3999976379395,2|0,3:2|0:0,0:0:0:0:
469,245,43053,2,0,P|428:243|357:277,1,116.099996456909,2|0,3:2|0:0,0:0:0:0:
342,286,43390,6,0,B|310:283|281:273|281:273|250:279|250:279|220:271|179:263,1,154.799995275879,6|2,3:2|3:2,0:0:0:0:
42,176,43896,1,2,0:0:0:0:
25,263,44064,2,0,P|65:253|113:246,1,77.3999976379395,0|0,3:2|0:0,0:0:0:0:
208,162,44401,1,8,1:2:0:0:
270,368,44570,1,8,1:2:0:0:
415,263,44738,5,8,1:2:0:0:
473,59,44907,1,8,1:2:0:0:
208,162,45075,1,8,1:2:0:0:
447,384,45244,5,8,1:2:0:0:
447,384,45328,1,8,1:2:0:0:
447,384,45413,1,14,1:2:0:0:
104,316,45581,1,14,1:2:0:0:
104,316,46087,6,0,P|96:272|84:225,1,90.2999972442628,4|0,3:2|0:0,0:0:0:0:
170,70,46424,2,0,P|136:110|28:117,1,135.449995866394,10|0,0:0|0:0,0:0:0:0:
27,117,46761,1,2,3:2:0:0:
183,192,46929,1,2,0:0:0:0:
249,41,47098,1,8,0:0:0:0:
183,192,47266,1,2,0:0:0:0:
338,298,47435,6,0,P|331:247|314:198,1,90.2999972442628,0|0,3:2|0:0,0:0:0:0:
408,0,47772,2,0,P|415:51|432:100,1,90.2999972442628,10|0,0:0|0:0,0:0:0:0:
338,298,48109,5,2,3:2:0:0:
283,111,48278,1,0,0:0:0:0:
165,329,48446,2,0,P|207:343|252:349,1,90.2999972442628,10|0,0:0|0:0,0:0:0:0:
165,157,48783,6,0,P|117:205|-7:200,1,180.599994488526,2|10,3:2|0:0,0:0:0:0:
44,38,49289,2,0,P|57:83|67:132,1,90.2999972442628,2|0,0:0|3:2,0:0:0:0:
249,57,49626,1,2,0:0:0:0:
209,229,49795,1,8,0:0:0:0:
249,57,49963,1,2,0:0:0:0:
381,121,50132,6,0,P|336:137|282:146,1,90.2999972442628,0|0,3:2|0:0,0:0:0:0:
112,334,50469,2,0,P|166:366|238:354,1,135.449995866394,10|0,0:0|0:0,0:0:0:0:
250,366,50806,2,0,P|254:319|265:273,1,90.2999972442628,2|0,3:2|0:0,0:0:0:0:
84,163,51143,1,10,0:0:0:0:
33,232,51311,5,2,0:0:0:0:
33,232,51396,1,2,0:0:0:0:
33,232,51479,2,0,B|77:249|77:249|144:248|206:179,1,180.599994488526,2|8,3:2|0:0,0:0:0:0:
291,108,51986,1,0,0:0:0:0:
459,266,52154,5,0,3:2:0:0:
336,232,52323,1,2,0:0:0:0:
428,160,52491,1,10,0:0:0:0:
376,339,52660,1,2,0:0:0:0:
193,276,52828,6,0,B|101:266|121:328|0:311,1,180.599994488526,0|8,3:2|0:0,0:0:0:0:
166,364,53334,1,0,0:0:0:0:
299,241,53502,2,0,P|286:282|277:328,1,90.2999972442628,2|0,3:2|0:0,0:0:0:0:
150,187,53839,2,0,P|118:141|148:57,1,135.449995866394,10|0,0:0|0:0,0:0:0:0:
152,51,54177,5,14,0:0:0:0:
292,126,54345,1,0,3:2:0:0:
67,230,54514,1,2,3:2:0:0:
255,298,54682,5,10,0:0:0:0:
198,123,54851,1,0,3:2:0:0:
132,353,55019,1,2,3:2:0:0:
266,202,55188,1,8,0:0:0:0:
380,358,55356,5,2,3:2:0:0:
380,358,55441,1,2,3:2:0:0:
380,358,55525,2,0,P|423:348|469:338,1,90.2999972442628,14|0,0:0|3:2,0:0:0:0:
160,254,55862,2,0,P|110:260|26:203,1,135.449995866394,8|0,0:0|1:2,0:0:0:0:
28,201,56199,2,0,L|41:142,1,45.1499986221314,2|0,3:2|3:2,0:0:0:0:
214,44,56368,2,0,L|201:-15,1,45.1499986221314,0|0,3:2|3:2,0:0:0:0:
0,89,56536,5,8,0:0:0:0:
31,78,56620,1,8,0:0:0:0:
65,78,56704,1,0,1:2:0:0:
96,91,56788,1,0,1:2:0:0:
122,113,56873,6,0,B|171:109|209:134|209:134|277:117,1,135.449995866394,4|0,3:2|0:0,0:0:0:0:
322,88,57210,2,0,P|330:39|341:-8,1,90.2999972442628,10|0,0:0|0:0,0:0:0:0:
439,264,57547,5,2,3:2:0:0:
321,224,57716,1,2,0:0:0:0:
416,142,57884,1,8,0:0:0:0:
355,335,58053,1,2,0:0:0:0:
188,247,58222,6,0,P|173:202|165:154,1,90.2999972442628,0|0,3:2|0:0,0:0:0:0:
25,341,58559,2,0,P|107:344|166:376,1,135.449995866394,10|0,0:0|0:0,0:0:0:0:
176,378,58896,2,0,L|266:357,1,90.2999972442628,2|0,3:2|0:0,0:0:0:0:
426,183,59233,1,10,0:0:0:0:
482,279,59401,5,2,3:2:0:0:
482,279,59485,1,2,3:2:0:0:
482,279,59569,2,0,B|399:263|399:263|361:308|297:293,1,180.599994488526,2|10,3:2|0:0,0:0:0:0:
171,211,60075,2,0,P|185:259|193:306,1,90.2999972442628,2|0,0:0|3:2,0:0:0:0:
215,51,60413,5,2,0:0:0:0:
75,180,60581,1,8,0:0:0:0:
271,228,60750,1,2,0:0:0:0:
94,83,60918,6,0,P|51:97|5:104,1,90.2999972442628,0|0,3:2|0:0,0:0:0:0:
156,240,61255,1,10,0:0:0:0:
276,34,61424,5,0,0:0:0:0:
276,34,61508,1,8,0:0:0:0:
276,34,61592,1,10,0:0:0:0:
308,184,61761,1,0,1:2:0:0:
368,78,61929,1,2,1:2:0:0:
204,113,62098,1,0,3:2:0:0:
397,246,62266,5,6,3:2:0:0:
397,246,62435,2,0,P|436:253|481:264,1,77.3999976379395
289,103,62772,1,0,3:2:0:0:
218,207,62941,2,0,P|141:214|72:167,1,154.799995275879,8|2,0:0|0:0,0:0:0:0:
108,91,63446,2,0,P|98:50|90:13,1,77.3999976379395,10|0,0:0|3:2,0:0:0:0:
289,103,63783,6,0,B|345:89|345:89|386:92|386:92|456:72,1,154.799995275879,8|0,0:0|0:0,0:0:0:0:
509,144,64289,2,0,P|502:185|495:221,1,77.3999976379395,10|0,0:0|0:0,0:0:0:0:
352,305,64626,2,0,P|359:264|366:228,1,77.3999976379395,2|0,3:2|0:0,0:0:0:0:
235,42,64963,6,0,B|183:65|183:65|128:70|71:22,1,154.799995275879,6|2,3:2|0:0,0:0:0:0:
14,157,65469,2,0,L|93:137,1,77.3999976379395,2|8,3:2|0:0,0:0:0:0:
201,208,65806,2,0,B|217:123|245:159|258:65,1,154.799995275879,2|10,0:0|0:0,0:0:0:0:
340,154,66311,6,0,P|374:142|424:131,1,77.3999976379395,0|8,3:2|0:0,0:0:0:0:
345,315,66648,1,0,3:2:0:0:
512,234,66817,5,2,0:0:0:0:
512,234,66986,2,0,B|428:210|441:261|332:232,1,154.799995275879,10|8,0:0|0:0,0:0:0:0:
162,312,67491,1,2,0:0:0:0:
211,384,67659,6,0,P|245:322|223:246,1,141.900004330444,6|0,3:2|0:0,0:0:0:0:
146,225,67996,2,0,P|97:236|41:245,1,94.600002886963,10|10,0:0|0:0,0:0:0:0:
53,243,68250,1,8,0:0:0:0:
53,243,68333,1,8,0:0:0:0:
250,166,68502,6,0,L|306:178,1,47.3000014434815,10|8,0:0|0:0,0:0:0:0:
373,234,68671,1,8,0:0:0:0:
471,127,68839,5,10,0:0:0:0:
471,127,68924,1,8,0:0:0:0:
471,127,69008,2,0,P|426:139|377:149,1,94.600002886963,8|8,0:0|0:0,0:0:0:0:
378,148,69261,1,8,0:0:0:0:
378,148,69345,1,8,0:0:0:0:
287,276,69514,6,0,L|276:328,1,47.3000014434815,10|8,0:0|0:0,0:0:0:0:
350,379,69682,2,0,L|369:286,1,94.600002886963,10|8,0:0|0:0,0:0:0:0:
257,173,70019,1,8,0:0:0:0:
185,327,70188,5,10,0:0:0:0:
185,327,70272,1,8,0:0:0:0:
185,327,70356,2,0,B|146:351|146:351|83:356|27:318,1,141.900004330444,10|8,0:0|0:0,0:0:0:0:
17,269,70693,2,0,P|10:223|-1:171,1,94.600002886963,10|10,0:0|0:0,0:0:0:0:
0,175,70946,1,8,0:0:0:0:
0,175,71030,1,8,0:0:0:0:
121,112,71199,1,10,0:0:0:0:
121,112,71283,1,8,0:0:0:0:
121,112,71368,1,8,0:0:0:0:
184,225,71536,2,0,L|138:213,1,47.3000014434815,10|8,0:0|0:0,0:0:0:0:
262,132,71705,6,0,P|274:89|285:41,1,94.600002886963,8|8,0:0|0:0,0:0:0:0:
289,32,71957,1,8,0:0:0:0:
292,19,72042,1,8,0:0:0:0:
411,113,72210,6,0,L|464:102,1,47.3000014434815,10|8,0:0|0:0,0:0:0:0:
188,80,72379,2,0,P|142:95|86:105,1,94.600002886963,10|8,0:0|0:0,0:0:0:0:
96,103,72632,1,8,0:0:0:0:
96,103,72716,1,8,0:0:0:0:
29,23,72884,6,0,L|77:32,1,47.3000014434815,10|8,0:0|0:0,0:0:0:0:
263,22,73052,6,0,B|233:70|233:70|259:173,1,141.900004330444,14|0,0:0|0:0,0:0:0:0:
211,223,73390,2,0,P|259:232|305:242,1,94.600002886963,10|10,0:0|0:0,0:0:0:0:
303,241,73643,1,8,0:0:0:0:
303,241,73727,1,8,0:0:0:0:
414,140,73896,2,0,L|363:154,1,47.3000014434815,10|8,0:0|0:0,0:0:0:0:
220,347,74064,5,8,0:0:0:0:
251,339,74148,1,8,0:0:0:0:
281,341,74232,1,10,0:0:0:0:
310,357,74317,1,8,0:0:0:0:
331,384,74401,6,0,P|351:377|377:371,3,47.3000014434815,8|0|8|8,0:0|0:0|0:0|0:0,0:0:0:0:
486,284,74738,2,0,P|462:278|440:271,3,47.3000014434815,10|0|8|8,0:0|0:0|0:0|0:0,0:0:0:0:
295,181,75075,1,10,0:0:0:0:
347,293,75244,1,10,0:0:0:0:
347,293,75328,1,8,0:0:0:0:
347,293,75413,2,0,L|358:249,1,45.1499986221314,8|8,0:0|0:0,0:0:0:0:
221,132,75581,2,0,L|210:176,1,45.1499986221314,10|8,0:0|0:0,0:0:0:0:
155,339,75750,6,0,P|107:348|55:360,1,90.2999972442628,8|8,0:0|0:0,0:0:0:0:
66,357,76002,1,8,0:0:0:0:
66,357,76087,1,8,0:0:0:0:
4,210,76255,1,8,0:0:0:0:
4,210,76339,1,8,0:0:0:0:
4,210,76424,1,8,0:0:0:0:
138,114,76592,2,0,L|127:167,1,45.1499986221314,8|8,0:0|0:0,0:0:0:0:
92,259,76761,6,0,P|140:248|197:237,1,90.2999972442628,8|8,0:0|0:0,0:0:0:0:
186,239,77014,1,8,0:0:0:0:
192,238,77098,1,8,0:0:0:0:
286,162,77266,2,0,L|298:118,2,45.1499986221314,8|8|8,0:0|0:0|0:0,0:0:0:0:
395,367,77604,1,8,0:0:0:0:
319,339,77772,5,10,0:0:0:0:
342,306,77856,1,8,0:0:0:0:
378,287,77940,1,8,0:0:0:0:
418,287,78024,1,8,0:0:0:0:
455,303,78109,5,8,0:0:0:0:
507,275,78193,1,8,0:0:0:0:
512,222,78278,1,8,0:0:0:0:
487,178,78362,1,8,0:0:0:0:
440,156,78446,6,0,P|376:171|307:183,1,135.449995866394,6|0,3:2|0:0,0:0:0:0:
307,182,78783,5,8,1:2:0:0:
182,145,78952,1,8,1:2:0:0:
281,59,79120,1,10,1:2:0:0:
229,246,79289,5,8,1:2:0:0:
160,56,79457,1,8,1:2:0:0:
119,310,79626,1,8,1:2:0:0:
326,153,79795,5,10,1:2:0:0:
382,363,79963,1,8,1:2:0:0:
157,298,80132,1,10,1:2:0:0:
409,219,80300,5,10,1:2:0:0:
256,384,80469,1,8,1:2:0:0:
191,156,80638,1,10,1:2:0:0:
272,263,80806,1,8,1:2:0:0:
124,383,80974,5,10,1:2:0:0:
124,383,81059,1,10,1:2:0:0:
124,383,81143,2,0,P|82:371|25:361,1,90.2999972442628,12|0,0:0|3:2,0:0:0:0:
223,231,81480,1,0,3:2:0:0:
87,135,81648,2,0,P|100:203|115:300,1,135.449995866394,10|0,0:0|0:0,0:0:0:0:
110,268,81986,1,0,3:2:0:0:
291,150,82154,2,0,P|247:150|197:128,1,90.2999972442628,8|0,0:0|3:2,0:0:0:0:
394,279,82491,1,0,3:2:0:0:
368,79,82660,6,0,P|321:139|322:245,1,180.599994488526,8|0,0:0|3:2,0:0:0:0:
478,367,83165,1,8,0:0:0:0:
433,172,83334,1,0,1:2:0:0:
298,333,83502,1,0,1:2:0:0:
182,185,83671,5,0,3:2:0:0:
182,185,83755,1,0,3:2:0:0:
182,185,83839,2,0,B|84:188|111:230|2:230,1,180.599994488526,14|0,0:0|3:2,0:0:0:0:
134,313,84345,1,10,0:0:0:0:
78,128,84514,1,0,3:2:0:0:
134,313,84682,1,0,3:2:0:0:
302,230,84851,6,0,P|284:298|272:364,1,135.449995866394,8|0,0:0|0:0,0:0:0:0:
272,362,85188,1,2,3:2:0:0:
206,204,85356,1,8,0:0:0:0:
406,249,85525,6,0,P|452:239|497:227,1,90.2999972442628,0|2,3:2|3:2,0:0:0:0:
271,127,85862,5,10,0:0:0:0:
212,299,86030,1,2,1:2:0:0:
42,252,86199,1,8,0:0:0:0:
38,235,86283,1,8,0:0:0:0:
34,218,86367,1,8,0:0:0:0:
30,202,86451,1,8,0:0:0:0:
25,186,86536,5,14,0:0:0:0:
145,131,86705,1,0,3:2:0:0:
227,231,86873,1,0,3:2:0:0:
363,101,87042,6,0,P|376:57|387:9,1,90.2999972442628,8|0,0:0|3:2,0:0:0:0:
256,125,87379,1,0,3:2:0:0:
460,181,87547,2,0,P|397:188|326:207,1,135.449995866394,8|0,0:0|3:2,0:0:0:0:
327,206,87884,5,2,3:2:0:0:
162,139,88053,1,10,0:0:0:0:
304,28,88222,1,2,3:2:0:0:
223,232,88390,1,2,3:2:0:0:
39,131,88559,5,8,0:0:0:0:
90,328,88727,1,0,1:2:0:0:
130,213,88896,1,2,1:2:0:0:
1,243,89064,1,2,1:2:0:0:
189,372,89233,6,0,P|237:361|283:354,1,90.2999972442628,14|2,0:0|3:2,0:0:0:0:
357,211,89570,1,2,3:2:0:0:
203,265,89738,6,0,B|244:279|244:279|293:272|293:272|329:299|399:299,1,180.599994488526,10|2,0:0|3:2,0:0:0:0:
441,107,90244,1,10,0:0:0:0:
250,193,90413,1,2,3:2:0:0:
461,223,90581,5,0,3:2:0:0:
322,97,90750,2,0,P|311:53|306:5,1,90.2999972442628,10|2,0:0|3:2,0:0:0:0:
360,202,91087,5,10,0:0:0:0:
355,221,91171,1,8,0:0:0:0:
350,237,91255,1,8,0:0:0:0:
396,66,91424,1,0,1:2:0:0:
392,313,91592,2,0,P|334:281|263:290,1,135.449995866394,0|0,1:2|0:0,0:0:0:0:
243,272,91929,5,14,0:0:0:0:
82,372,92098,2,0,P|35:358|-15:350,1,90.2999972442628,2|2,3:2|3:2,0:0:0:0:
186,367,92435,5,10,0:0:0:0:
67,275,92604,1,2,3:2:0:0:
137,153,92772,1,2,3:2:0:0:
271,226,92941,6,0,P|227:236|176:251,1,90.2999972442628,10|2,0:0|3:2,0:0:0:0:
183,248,93193,1,2,3:2:0:0:
183,248,93278,1,0,3:2:0:0:
69,70,93446,5,10,0:0:0:0:
245,134,93615,1,2,3:2:0:0:
93,234,93783,1,0,3:2:0:0:
172,87,93952,6,0,P|183:41|199:-14,1,90.2999972442628,10|2,0:0|1:2,0:0:0:0:
325,218,94289,1,2,1:2:0:0:
493,26,94457,5,2,3:2:0:0:
493,26,94542,1,2,3:2:0:0:
493,26,94626,2,0,P|447:39|391:47,1,90.2999972442628,12|0,0:0|3:2,0:0:0:0:
241,168,94963,1,2,3:2:0:0:
443,129,95132,6,0,P|389:90|309:95,1,135.449995866394,10|0,0:0|0:0,0:0:0:0:
322,89,95469,1,2,3:2:0:0:
106,147,95637,2,0,P|116:102|129:44,1,90.2999972442628,10|2,0:0|3:2,0:0:0:0:
125,58,95890,1,2,3:2:0:0:
125,58,95974,1,2,3:2:0:0:
24,190,96143,2,0,P|91:191|148:227,1,135.449995866394,10|0,0:0|0:0,0:0:0:0:
283,123,96480,2,0,P|240:138|196:147,1,90.2999972442628,2|10,3:2|0:0,0:0:0:0:
232,379,96817,6,0,L|244:330,1,45.1499986221314,2|0,1:2|0:0,0:0:0:0:
148,227,96986,1,10,0:0:0:0:
115,217,97070,1,8,0:0:0:0:
82,221,97154,1,10,0:0:0:0:
47,241,97238,1,8,0:0:0:0:
29,271,97323,5,14,0:0:0:0:
122,384,97491,2,0,P|116:339|102:291,1,90.2999972442628,0|0,3:2|3:2,0:0:0:0:
263,164,97828,5,8,0:0:0:0:
225,311,97997,1,0,3:2:0:0:
375,271,98165,1,0,3:2:0:0:
285,248,98334,1,10,0:0:0:0:
474,320,98502,5,2,3:2:0:0:
474,320,98587,1,2,3:2:0:0:
474,320,98671,1,2,3:2:0:0:
361,99,98839,2,0,P|350:139|341:190,1,90.2999972442628,8|2,0:0|3:2,0:0:0:0:
282,366,99177,1,2,3:2:0:0:
292,270,99345,5,8,0:0:0:0:
389,354,99514,1,0,1:2:0:0:
421,236,99682,1,2,1:2:0:0:
175,337,99851,5,0,3:2:0:0:
175,337,99935,1,0,3:2:0:0:
175,337,100019,2,0,P|132:326|84:318,1,90.2999972442628,14|0,0:0|3:2,0:0:0:0:
63,131,100356,1,2,3:2:0:0:
0,205,100525,2,0,B|43:224|43:224|116:228|168:175,1,180.599994488526,10|0,0:0|3:2,0:0:0:0:
306,20,101030,5,10,0:0:0:0:
287,113,101199,1,2,3:2:0:0:
262,211,101368,1,2,3:2:0:0:
205,39,101536,5,10,0:0:0:0:
400,174,101705,1,2,3:2:0:0:
182,270,101873,1,2,3:2:0:0:
431,384,102042,5,10,0:0:0:0:
454,359,102127,1,8,0:0:0:0:
467,328,102211,1,10,0:0:0:0:
469,294,102295,1,8,0:0:0:0:
459,262,102379,1,2,1:2:0:0:
287,113,102547,5,6,3:2:0:0:
256,192,102631,12,0,110131,0:0:0:0:
