osu file format v14

[General]
AudioFilename: audio.ogg
AudioLeadIn: 0
PreviewTime: 46086
Countdown: 0
SampleSet: Soft
StackLeniency: 0.7
Mode: 0
LetterboxInBreaks: 0
WidescreenStoryboard: 1

[Editor]
Bookmarks: 21817
DistanceSpacing: 1
BeatDivisor: 2
GridSize: 32
TimelineZoom: 1.8

[Metadata]
Title:Koisuru letter
TitleUnicode:恋するletter
Artist:Duca
ArtistUnicode:Duca
Creator:KennethBBG
Version:Aurorance's Normal
Source:恋する気持ちのかさねかた 〜かさねた想いをずっと〜
Tags:Aurorance Natsume Shizuku Didah Ayesha Altugle vahn10 Shizuku- Kazato Asa Shikibe Mayu ensemble Koi Suru Kimochi no Kasanekata ~Kasaneta Omoi o Zutto~ OP opening visual novel eroge japanese j-pop j-rock pop rock
BeatmapID:3961414
BeatmapSetID:1917288

[Difficulty]
HPDrainRate:4
CircleSize:3
OverallDifficulty:4.4
ApproachRate:5.4
SliderMultiplier:0.999999999999999
SliderTickRate:1

[Events]
//Background and Video events
0,0,"Background5.jpg",0,0
//Break Periods
//Storyboard Layer 0 (Background)
//Storyboard Layer 1 (Fail)
//Storyboard Layer 2 (Pass)
//Storyboard Layer 3 (Foreground)
//Storyboard Layer 4 (Overlay)
//Storyboard Sound Samples

[TimingPoints]
244,337.078651685393,4,2,1,30,1,0
21142,-100,4,2,1,80,0,0
21648,-100,4,2,1,30,0,0
21817,-100,4,2,1,50,0,0
29906,-100,4,2,1,55,0,0
31929,-100,4,2,1,45,0,0
32603,-100,4,2,1,60,0,0
40693,-100,4,2,1,65,0,0
46086,-100,4,2,1,70,0,0
62266,-100,4,2,1,65,0,0
67659,-100,4,2,1,55,0,0
75749,-100,4,2,1,60,0,0
78446,-100,4,2,1,65,0,0
81142,-100,4,2,1,70,0,0
91929,-100,4,2,1,75,0,0
102547,-100,4,2,1,70,0,0
102884,-100,4,2,1,65,0,0
103221,-100,4,2,1,60,0,0
103558,-100,4,2,1,55,0,0
103895,-100,4,2,1,50,0,0
104232,-100,4,2,1,45,0,0
104569,-100,4,2,1,40,0,0
104906,-100,4,2,1,35,0,0
105243,-100,4,2,1,30,0,0
105581,-100,4,2,1,25,0,0
105918,-100,4,2,1,20,0,0
106255,-100,4,2,1,15,0,0
106592,-100,4,2,1,10,0,0
106929,-100,4,2,1,5,0,0

[Colours]
Combo1 : 255,206,57
Combo2 : 247,159,168
Combo3 : 96,168,255
Combo4 : 177,92,92

[HitObjects]
49,337,21817,6,0,P|108:318|182:311,1,99.9999999999999,6|2,3:2|3:2,0:0:0:0:
224,251,22491,1,2,3:2:0:0:
156,177,22828,1,2,3:2:0:0:
229,108,23165,2,0,L|220:44,2,50,2|2|2,3:2|0:0|3:2,0:0:0:0:
269,136,23670,2,0,P|310:149|367:108,1,99.9999999999999,2|2,0:0|0:0,0:0:0:0:
430,54,24345,1,2,0:0:0:0:
430,54,24513,6,0,P|480:66|490:129,1,99.9999999999999,2|2,3:2|3:2,0:0:0:0:
436,187,25187,1,2,3:2:0:0:
483,275,25524,1,2,3:2:0:0:
395,323,25861,2,0,L|384:386,2,50,2|2|2,3:2|0:0|3:2,0:0:0:0:
350,299,26367,2,0,L|329:171,2,99.9999999999999,2|2|2,0:0|0:0|0:0,0:0:0:0:
306,323,27210,5,0,3:2:0:0:
224,265,27547,1,0,3:2:0:0:
158,340,27884,2,0,P|104:322|37:311,1,99.9999999999999,2|0,3:2|3:2,0:0:0:0:
4,231,28558,1,2,3:2:0:0:
87,175,28895,1,2,3:2:0:0:
39,93,29232,1,2,3:2:0:0:
39,93,29401,2,0,P|91:76|150:50,1,99.9999999999999,2|2,0:0|0:0,0:0:0:0:
166,22,29906,5,0,3:2:0:0:
252,83,30243,1,2,3:2:0:0:
252,83,30412,2,0,P|225:160|213:234,1,150,2|0,0:0|3:2,0:0:0:0:
182,266,31086,1,2,0:0:0:0:
182,266,31255,1,0,3:2:0:0:
229,353,31592,1,8,0:0:0:0:
318,308,31929,2,0,L|391:299,1,50,10|2,0:0|1:2,0:0:0:0:
409,329,32266,2,0,L|482:341,1,50,2|2,1:2|3:2,0:0:0:0:
503,315,32603,6,0,P|524:228|488:181,1,150,6|2,3:2|3:2,0:0:0:0:
448,158,33277,1,8,0:0:0:0:
357,200,33614,2,0,L|284:215,1,50,2|8,0:0|0:0,0:0:0:0:
273,182,33951,1,2,3:2:0:0:
273,182,34120,2,0,P|220:167|150:158,1,99.9999999999999,8|2,0:0|3:2,0:0:0:0:
130,182,34626,1,8,0:0:0:0:
51,120,34963,1,2,3:2:0:0:
109,38,35300,5,2,3:2:0:0:
210,63,35637,1,2,0:0:0:0:
210,63,35805,2,0,P|260:50|335:42,2,99.9999999999999,2|2|10,3:2|0:0|0:0,0:0:0:0:
186,108,36648,1,0,3:2:0:0:
186,108,36817,2,0,P|177:190|241:229,1,150,8|8,0:0|0:0,0:0:0:0:
321,251,37659,1,10,0:0:0:0:
386,175,37996,5,6,3:2:0:0:
487,203,38333,1,2,3:2:0:0:
487,203,38502,2,0,P|509:254|479:296,1,99.9999999999999,2|2,0:0|0:0,0:0:0:0:
398,326,39176,1,2,0:0:0:0:
398,326,39345,2,0,L|384:392,2,50,0|0|0,3:2|0:0|3:2,0:0:0:0:
372,283,39850,1,0,0:0:0:0:
275,309,40187,1,2,0:0:0:0:
275,309,40356,2,0,L|202:292,1,50,2|2,3:2|0:0,0:0:0:0:
192,334,40693,6,0,P|142:358|80:343,1,99.9999999999999,6|0,3:2|3:2,0:0:0:0:
20,290,41367,2,0,L|35:173,1,99.9999999999999,2|0,3:2|3:2,0:0:0:0:
74,161,41873,1,2,0:0:0:0:
74,161,42041,1,2,3:2:0:0:
52,63,42378,1,2,3:2:0:0:
142,21,42715,1,2,3:2:0:0:
222,86,43052,1,2,3:2:0:0:
173,173,43390,6,0,P|189:223|199:274,1,99.9999999999999,6|2,3:2|3:2,0:0:0:0:
274,333,44064,2,0,L|343:346,1,50,0|0,3:2|0:0,0:0:0:0:
371,323,44401,1,8,1:2:0:0:
371,323,44569,2,0,P|399:285|377:216,1,99.9999999999999,8|8,1:2|1:2,0:0:0:0:
354,203,45075,2,0,L|345:143,1,50,8|8,1:2|1:2,0:0:0:0:
372,112,45412,1,14,1:2:0:0:
372,112,45581,1,14,1:2:0:0:
263,8,46086,5,4,3:2:0:0:
180,63,46423,1,10,0:0:0:0:
243,140,46760,2,0,L|247:211,1,50,2|2,3:2|0:0,0:0:0:0:
223,236,47097,1,8,0:0:0:0:
223,236,47266,2,0,P|171:218|110:207,1,99.9999999999999,2|0,0:0|0:0,0:0:0:0:
81,229,47772,2,0,P|57:274|83:326,2,99.9999999999999,10|2|10,0:0|3:2|0:0,0:0:0:0:
56,132,48783,5,2,3:2:0:0:
121,57,49120,1,10,0:0:0:0:
121,57,49288,2,0,P|175:66|237:84,1,99.9999999999999,2|2,0:0|0:0,0:0:0:0:
258,117,49794,1,8,0:0:0:0:
258,117,49963,2,0,P|312:108|374:90,1,99.9999999999999,2|0,0:0|0:0,0:0:0:0:
388,57,50468,1,10,0:0:0:0:
477,102,50805,1,2,3:2:0:0:
412,178,51142,1,10,0:0:0:0:
334,240,51479,6,0,P|279:224|210:213,2,99.9999999999999,2|8|0,3:2|0:0|3:2,0:0:0:0:
368,283,52322,1,2,0:0:0:0:
368,283,52491,2,0,L|355:351,1,50,10|2,0:0|0:0,0:0:0:0:
311,347,52828,2,0,P|261:337|214:323,1,99.9999999999999,0|8,3:2|0:0,0:0:0:0:
144,250,53502,1,2,3:2:0:0:
76,323,53839,1,10,0:0:0:0:
24,237,54176,6,0,L|35:153,1,50,14|0,0:0|3:2,0:0:0:0:
6,150,54513,1,2,3:2:0:0:
6,150,54682,2,0,L|-6:69,1,50,10|0,0:0|3:2,0:0:0:0:
31,62,55019,2,0,L|112:50,1,50,2|8,3:2|0:0,0:0:0:0:
131,76,55356,1,2,3:2:0:0:
131,76,55524,1,14,0:0:0:0:
214,20,55861,1,8,0:0:0:0:
287,88,56199,2,0,L|276:164,1,50,2|0,3:2|3:2,0:0:0:0:
237,164,56536,2,0,L|248:240,1,50,8|0,0:0|1:2,0:0:0:0:
284,243,56873,5,4,3:2:0:0:
226,324,57210,1,10,0:0:0:0:
312,374,57547,2,0,L|386:363,1,50,2|2,3:2|0:0,0:0:0:0:
404,339,57884,1,8,0:0:0:0:
404,339,58052,2,0,P|437:300|423:234,1,99.9999999999999,2|0,0:0|0:0,0:0:0:0:
400,216,58558,2,0,P|346:222|302:241,2,99.9999999999999,10|2|10,0:0|3:2|0:0,0:0:0:0:
487,167,59569,5,2,3:2:0:0:
438,86,59906,1,10,0:0:0:0:
438,86,60075,2,0,P|380:76|322:55,1,99.9999999999999,2|2,0:0|0:0,0:0:0:0:
309,31,60581,1,8,0:0:0:0:
309,31,60749,2,0,P|251:41|193:62,1,99.9999999999999,2|0,0:0|0:0,0:0:0:0:
183,94,61255,1,10,0:0:0:0:
235,179,61592,2,0,L|305:190,2,50,10|0|2,0:0|1:2|1:2,0:0:0:0:
153,237,62266,6,0,P|54:236|20:141,1,200,6|8,3:2|0:0,0:0:0:0:
46,112,63109,2,0,L|99:119,2,50,2|2|10,0:0|0:0|0:0,0:0:0:0:
22,68,63614,2,0,P|41:26|110:23,1,99.9999999999999,0|0,3:2|3:2,0:0:0:0:
176,63,64288,1,10,0:0:0:0:
271,31,64626,1,2,3:2:0:0:
326,114,64963,6,0,L|314:187,1,50,6|0,3:2|0:0,0:0:0:0:
277,191,65300,1,2,0:0:0:0:
277,191,65468,2,0,L|163:174,1,99.9999999999999,2|2,3:2|0:0,0:0:0:0:
96,128,66142,1,10,0:0:0:0:
96,128,66311,2,0,L|90:75,2,50,0|8|0,3:2|0:0|3:2,0:0:0:0:
21,194,66985,2,0,L|33:269,1,50,10|0,0:0|3:2,0:0:0:0:
58,284,67322,2,0,L|133:273,1,50,8|2,0:0|0:0,0:0:0:0:
149,249,67659,6,0,P|201:253|239:290,1,99.9999999999999,6|10,3:2|0:0,0:0:0:0:
259,327,68165,1,10,0:0:0:0:
337,264,68502,2,0,L|398:253,1,50,10|8,0:0|0:0,0:0:0:0:
436,280,68839,1,10,0:0:0:0:
436,280,69008,2,0,P|473:252|467:187,1,99.9999999999999,8|8,0:0|0:0,0:0:0:0:
444,170,69513,1,10,0:0:0:0:
444,170,69682,1,10,0:0:0:0:
344,178,70019,2,0,L|283:167,1,50,8|10,0:0|0:0,0:0:0:0:
255,137,70356,6,0,P|236:93|261:41,1,99.9999999999999,10|10,0:0|0:0,0:0:0:0:
299,23,70861,2,0,L|411:45,1,99.9999999999999,10|10,0:0|0:0,0:0:0:0:
479,100,71536,2,0,P|492:184|448:234,1,150,10|8,0:0|0:0,0:0:0:0:
415,261,72210,1,10,0:0:0:0:
415,261,72378,2,0,L|425:324,2,50,10|8|8,0:0|0:0|0:0,0:0:0:0:
373,244,72884,1,10,0:0:0:0:
373,244,73052,5,14,0:0:0:0:
296,307,73390,1,10,0:0:0:0:
296,307,73558,2,0,L|172:282,1,99.9999999999999,10|10,0:0|0:0,0:0:0:0:
161,262,74064,1,8,0:0:0:0:
161,262,74232,2,0,L|37:287,1,99.9999999999999,10|8,0:0|0:0,0:0:0:0:
18,259,74738,1,10,0:0:0:0:
64,172,75075,1,10,0:0:0:0:
64,172,75243,2,0,L|135:158,1,50,10|8,0:0|0:0,0:0:0:0:
166,175,75581,1,10,0:0:0:0:
166,175,75749,5,8,0:0:0:0:
234,101,76086,1,8,0:0:0:0:
320,150,76423,2,0,L|395:161,1,50,8|8,0:0|0:0,0:0:0:0:
402,194,76760,2,0,L|391:269,1,50,8|8,0:0|0:0,0:0:0:0:
359,279,77097,1,8,0:0:0:0:
267,237,77435,2,0,L|210:245,1,50,8|8,0:0|0:0,0:0:0:0:
194,288,77772,2,0,L|137:280,2,50,10|8|8,0:0|0:0|0:0,0:0:0:0:
222,335,78277,1,8,0:0:0:0:
222,335,78446,5,6,3:2:0:0:
321,321,78783,2,0,L|381:329,1,50,8|8,1:2|1:2,0:0:0:0:
417,309,79120,2,0,L|428:234,1,50,10|8,1:2|1:2,0:0:0:0:
394,218,79457,2,0,L|383:143,1,50,8|8,1:2|1:2,0:0:0:0:
412,125,79794,1,10,1:2:0:0:
343,52,80131,1,10,1:2:0:0:
343,52,80300,2,0,P|284:72|240:78,1,99.9999999999999,10|10,1:2|1:2,0:0:0:0:
201,57,80805,1,8,1:2:0:0:
119,114,81142,6,0,L|45:99,2,50,12|0|0,0:0|3:2|3:2,0:0:0:0:
143,154,81648,2,0,P|152:202|111:238,1,99.9999999999999,10|0,0:0|3:2,0:0:0:0:
75,260,82154,2,0,L|86:331,1,50,8|0,0:0|3:2,0:0:0:0:
125,335,82491,2,0,L|114:402,2,50,0|8|0,3:2|0:0|3:2,0:0:0:0:
172,319,82996,2,0,P|219:305|283:316,1,99.9999999999999,0|0,3:2|1:2,0:0:0:0:
316,327,83502,1,0,1:2:0:0:
405,282,83839,6,0,L|465:294,2,50,14|0|0,0:0|3:2|3:2,0:0:0:0:
373,243,84345,2,0,P|360:202|400:145,1,99.9999999999999,10|0,0:0|3:2,0:0:0:0:
426,126,84850,2,0,L|436:70,1,50,8|0,0:0|3:2,0:0:0:0:
411,38,85187,1,2,3:2:0:0:
411,38,85356,1,8,0:0:0:0:
321,77,85693,1,2,3:2:0:0:
321,77,85861,2,0,P|263:94|185:105,1,99.9999999999999,10|8,0:0|0:0,0:0:0:0:
132,59,86536,6,0,L|117:1,2,50,14|0|0,0:0|3:2|3:2,0:0:0:0:
111,104,87041,1,8,0:0:0:0:
185,179,87378,1,0,3:2:0:0:
185,179,87547,2,0,L|171:246,1,50,8|0,0:0|3:2,0:0:0:0:
156,274,87884,2,0,L|164:331,2,50,2|10|2,3:2|0:0|3:2,0:0:0:0:
107,286,88390,2,0,P|55:261|53:201,1,99.9999999999999,2|0,3:2|1:2,0:0:0:0:
71,180,88895,1,2,1:2:0:0:
47,82,89232,6,0,L|-14:68,2,50,14|2|2,0:0|3:2|3:2,0:0:0:0:
90,56,89738,2,0,P|136:43|201:28,1,99.9999999999999,10|2,0:0|3:2,0:0:0:0:
237,51,90243,1,10,0:0:0:0:
237,51,90412,1,2,3:2:0:0:
324,1,90749,2,0,L|397:13,1,50,10|2,0:0|3:2,0:0:0:0:
417,32,91086,2,0,P|427:81|390:141,1,99.9999999999999,10|0,0:0|1:2,0:0:0:0:
375,163,91592,1,0,1:2:0:0:
415,254,91929,6,0,L|427:316,2,50,14|2|2,0:0|3:2|3:2,0:0:0:0:
459,231,92435,1,10,0:0:0:0:
495,141,92772,1,2,3:2:0:0:
495,141,92940,2,0,L|485:85,1,50,10|2,0:0|3:2,0:0:0:0:
453,61,93277,1,0,3:2:0:0:
453,61,93446,2,0,L|397:71,1,50,10|2,0:0|3:2,0:0:0:0:
376,113,93783,1,0,3:2:0:0:
376,113,93951,2,0,L|386:169,2,50,10|2|2,0:0|1:2|1:2,0:0:0:0:
289,62,94626,6,0,L|279:6,2,50,12|0|2,0:0|3:2|3:2,0:0:0:0:
261,103,95131,1,10,0:0:0:0:
167,67,95468,1,2,3:2:0:0:
167,67,95637,2,0,L|106:73,1,50,10|2,0:0|3:2,0:0:0:0:
69,56,95974,2,0,L|59:-4,2,50,2|10|2,3:2|0:0|3:2,0:0:0:0:
36,94,96479,2,0,P|24:138|54:189,1,99.9999999999999,2|2,3:2|1:2,0:0:0:0:
91,208,96985,2,0,L|156:195,1,50,10|10,0:0|0:0,0:0:0:0:
181,169,97322,5,14,0:0:0:0:
261,228,97659,1,0,3:2:0:0:
261,228,97828,2,0,P|272:271|238:326,1,99.9999999999999,8|0,0:0|3:2,0:0:0:0:
207,348,98333,2,0,L|151:339,1,50,10|2,0:0|3:2,0:0:0:0:
112,361,98670,2,0,P|55:345|44:294,1,99.9999999999999,2|2,3:2|3:2,0:0:0:0:
12,270,99176,2,0,L|37:139,1,99.9999999999999,2|0,3:2|1:2,0:0:0:0:
65,136,99682,1,2,1:2:0:0:
142,72,100019,6,0,L|130:5,2,50,14|0|2,0:0|3:2|3:2,0:0:0:0:
184,99,100524,2,0,L|203:206,1,99.9999999999999,10|0,0:0|3:2,0:0:0:0:
242,226,101030,2,0,L|315:215,1,50,10|2,0:0|3:2,0:0:0:0:
333,189,101367,1,2,3:2:0:0:
333,189,101536,1,10,0:0:0:0:
422,244,101873,1,2,3:2:0:0:
422,244,102041,1,10,0:0:0:0:
497,177,102378,1,2,1:2:0:0:
497,177,102547,1,6,3:2:0:0:
256,192,102715,12,0,110131,0:0:0:0:
