osu file format v14

[General]
AudioFilename: audio.mp3
AudioLeadIn: 0
PreviewTime: 193927
Countdown: 0
SampleSet: Soft
StackLeniency: 0.7
Mode: 0
LetterboxInBreaks: 0
WidescreenStoryboard: 1

[Editor]
Bookmarks: 12604,23899,35192,46486,57780,63427,91662,102957,114251,125545,136839,142486,170721,182015,194721,197545,217309,222957,228604,239898,242545
DistanceSpacing: 1
BeatDivisor: 4
GridSize: 32
TimelineZoom: 1

[Metadata]
Title:Koiiro Sekai
TitleUnicode:コイイロセカイ
Artist:Duca
ArtistUnicode:Duca
Creator:Shirahane Suou
Version:Normal
Source:銀色、遥か
Tags:gin'iro giniro haruka japanese visual novel eroge insert song video game videogame tone work's meis clauson rock pop
BeatmapID:2791538
BeatmapSetID:1348040

[Difficulty]
HPDrainRate:3
CircleSize:3
OverallDifficulty:4
ApproachRate:5
SliderMultiplier:0.999999999999999
SliderTickRate:1

[Events]
//Background and Video events
0,0,"koi.jpg",0,0
//Break Periods
2,103157,111462
2,170721,179227
//Storyboard Layer 0 (Background)
//Storyboard Layer 1 (Fail)
//Storyboard Layer 2 (Pass)
//Storyboard Layer 3 (Foreground)
//Storyboard Layer 4 (Overlay)
//Storyboard Sound Samples

[TimingPoints]
1310,352.941176470588,4,2,1,40,1,0
1310,-111.111111111111,4,2,1,40,0,0
11898,-100,4,2,1,40,0,0
12604,-100,4,2,1,60,0,0
23898,-100,4,2,1,40,0,0
33604,-100,4,2,1,50,0,0
57780,-100,4,2,1,60,0,0
63427,-100,4,2,1,70,0,1
86015,-100,4,2,1,60,0,0
88839,-100,4,2,1,70,0,1
90692,-100,4,2,1,50,0,0
91662,-100,4,2,1,60,0,0
102957,-100,4,2,1,40,0,0
112662,-100,4,2,1,50,0,0
136839,-100,4,2,1,60,0,0
142486,-100,4,2,1,70,0,1
165074,-100,4,2,1,60,0,0
167898,-100,4,2,1,70,0,1
169751,-100,4,2,1,50,0,0
180427,-100,4,2,1,60,0,0
191898,-111.111111111111,4,2,1,50,0,0
194015,-111.111111111111,4,2,1,40,0,0
194721,-100,4,2,1,40,0,0
196839,-100,4,2,1,60,0,0
197545,-100,4,2,1,70,0,1
217309,-100,4,2,1,60,0,0
222957,-100,4,2,1,70,0,1
227633,-100,4,2,1,60,0,0
239898,-100,4,2,1,40,0,0

[Colours]
Combo1 : 255,232,91
Combo2 : 189,43,20
Combo3 : 186,211,93
Combo4 : 242,108,57

[HitObjects]
34,280,1310,6,0,B|225:226|167:375|380:298,1,359.999989013672,2|2,1:2|1:2,0:0:0:0:
470,102,4133,6,0,P|451:57|408:182,1,359.999989013672,2|2,1:2|1:2,0:0:0:0:
346,354,6251,1,2,1:2:0:0:
179,285,6957,6,0,B|171:225|221:171|221:171|161:142|162:72|162:72|210:34|267:59,1,359.999989013672,2|2,1:2|1:2,0:0:0:0:
510,325,9780,6,0,B|318:271|376:420|163:343,1,359.999989013672,2|2,1:2|1:2,0:0:0:0:
19,206,11898,2,0,B|72:195|72:195|103:211|103:211|165:200,1,150,2|2,0:2|0:2,0:0:0:0:
204,172,12604,6,0,L|323:187,1,99.9999999999999,6|8,3:2|0:2,0:0:0:0:
361,265,13309,2,0,L|420:257,1,50,0|0,3:2|3:2,0:0:0:0:
460,250,13662,1,10,0:2:0:0:
506,161,14015,2,0,B|480:119|480:119|500:67,1,99.9999999999999,0|8,3:2|0:2,0:0:0:0:
409,25,14721,2,0,L|338:41,1,50,0|2,3:2|3:2,0:0:0:0:
320,66,15074,2,0,L|249:50,1,50,10|2,0:2|0:2,0:0:0:0:
221,49,15427,5,2,3:2:0:0:
157,126,15780,1,10,0:2:0:0:
157,126,15957,2,0,P|166:177|171:224,1,99.9999999999999,2|2,0:2|3:2,0:0:0:0:
140,320,16662,2,0,P|104:299|41:305,2,99.9999999999999,2|2|2,0:2|0:2|0:2,0:0:0:0:
233,369,17721,1,2,3:2:0:0:
233,369,17898,1,8,0:2:0:0:
296,291,18251,6,0,B|306:238|306:238|278:183,1,99.9999999999999,6|8,3:2|0:2,0:0:0:0:
201,141,18957,2,0,L|146:154,1,50,0|0,3:2|3:2,0:0:0:0:
111,181,19309,1,10,0:2:0:0:
17,145,19662,2,0,P|-2:114|31:46,1,99.9999999999999,0|8,3:2|0:2,0:0:0:0:
101,4,20368,2,0,L|161:15,1,50,0|2,3:2|3:2,0:0:0:0:
192,40,20722,2,0,L|176:111,1,50,10|2,0:2|0:2,0:0:0:0:
173,138,21074,5,2,3:2:0:0:
234,223,21427,1,10,0:2:0:0:
234,223,21604,2,0,L|340:208,1,99.9999999999999,2|2,0:2|3:2,0:0:0:0:
419,270,22309,2,0,L|433:171,1,99.9999999999999,2|2,0:2|0:2,0:0:0:0:
448,122,22840,1,12,0:2:0:0:
373,56,23193,2,0,L|318:64,1,50,8|8,0:2|0:3,0:0:0:0:
287,98,23545,2,0,L|232:90,1,50,8|8,0:3|0:3,0:0:0:0:
188,82,23898,6,0,B|209:132|209:132|190:187,1,99.9999999999999,6|2,1:2|0:2,0:0:0:0:
169,219,24427,1,2,0:2:0:0:
241,287,24780,2,0,L|344:270,1,99.9999999999999,2|0,0:2|0:0,0:0:0:0:
376,237,25309,2,0,L|479:254,1,99.9999999999999,2|2,1:2|0:2,0:0:0:0:
505,293,25839,1,2,0:2:0:0:
329,384,26545,1,0,0:0:0:0:
329,384,26721,6,0,L|230:367,1,99.9999999999999,2|2,1:2|0:2,0:0:0:0:
183,348,27250,1,2,0:2:0:0:
233,261,27604,2,0,B|251:215|251:215|225:150,1,99.9999999999999,2|2,0:2|0:2,0:0:0:0:
195,133,28133,1,2,1:2:0:0:
119,198,28486,1,2,0:2:0:0:
29,152,28839,1,2,1:2:0:0:
17,52,29192,1,2,0:2:0:0:
106,6,29545,6,0,L|208:18,1,99.9999999999999,2|2,1:2|0:2,0:0:0:0:
254,29,30074,1,2,0:2:0:0:
297,119,30427,2,0,B|272:162|272:162|289:223,1,99.9999999999999,2|0,0:2|0:0,0:0:0:0:
295,259,30957,2,0,L|397:246,1,99.9999999999999,2|2,1:2|0:2,0:0:0:0:
444,242,31487,1,2,0:2:0:0:
484,49,32193,1,0,0:0:0:0:
484,49,32369,6,0,P|434:44|384:43,1,99.9999999999999,2|2,1:2|0:2,0:0:0:0:
335,55,32898,1,2,0:2:0:0:
243,13,33251,2,0,L|235:73,1,50,2|0,0:2|0:0,0:0:0:0:
234,112,33604,2,0,L|121:102,1,99.9999999999999,14|10,0:2|0:2,0:0:0:0:
88,99,34133,1,10,0:2:0:0:
88,99,34309,2,0,B|61:144|61:144|78:212,1,99.9999999999999,10|0,0:2|3:2,0:0:0:0:
88,238,34840,1,8,0:2:0:0:
156,310,35192,6,0,L|276:289,1,99.9999999999999,6|10,3:2|0:2,0:0:0:0:
295,263,35721,2,0,P|316:218|307:170,1,99.9999999999999,2|2,0:2|3:2,0:0:0:0:
277,129,36251,1,10,0:2:0:0:
329,43,36604,2,0,L|396:44,1,50,0|2,3:2|0:2,0:0:0:0:
427,24,36957,1,10,0:2:0:0:
427,24,37133,2,0,B|410:72|410:72|444:121,1,99.9999999999999,2|0,0:2|3:2,0:0:0:0:
469,151,37662,1,8,0:2:0:0:
410,232,38015,6,0,L|428:330,1,99.9999999999999,2|10,3:2|0:2,0:0:0:0:
421,380,38545,2,0,P|392:359|322:376,1,99.9999999999999,2|2,0:2|3:2,0:0:0:0:
282,380,39074,1,10,0:2:0:0:
213,306,39427,1,0,3:2:0:0:
121,346,39780,2,0,L|3:325,1,99.9999999999999,10|2,0:2|3:2,0:0:0:0:
8,229,40486,1,10,0:2:0:0:
93,177,40839,6,0,B|140:162|140:162|188:176,1,99.9999999999999,6|8,3:2|0:2,0:0:0:0:
262,244,41545,2,0,L|266:301,1,50,0|0,3:2|3:2,0:0:0:0:
283,340,41898,1,10,0:2:0:0:
377,372,42251,2,0,P|399:351|394:275,1,99.9999999999999,0|10,3:2|0:2,0:0:0:0:
379,239,42780,2,0,L|392:127,1,99.9999999999999,2|0,0:2|3:2,0:0:0:0:
418,98,43309,1,8,0:2:0:0:
345,29,43662,6,0,P|295:36|245:42,1,99.9999999999999,2|10,3:2|0:2,0:0:0:0:
207,74,44192,2,0,P|233:94|236:169,1,99.9999999999999,2|2,0:2|3:2,0:0:0:0:
219,203,44721,1,10,0:2:0:0:
219,203,44898,2,0,B|134:180|153:241|69:215,1,150,2|10,3:2|0:2,0:0:0:0:
7,142,45780,2,0,L|20:82,1,50,8|8,0:2|0:3,0:0:0:0:
20,43,46133,2,0,L|80:32,1,50,8|8,0:3|0:3,0:0:0:0:
118,44,46486,5,4,3:2:0:0:
193,110,46839,2,0,L|178:215,1,99.9999999999999,2|10,3:2|0:2,0:0:0:0:
164,311,47545,1,2,3:2:0:0:
164,311,47721,2,0,L|282:287,1,99.9999999999999,2|10,0:2|0:2,0:0:0:0:
336,224,48427,1,2,0:2:0:0:
336,224,48604,2,0,P|362:252|469:247,1,150,8|0,0:2|3:2,0:0:0:0:
488,204,49309,5,2,3:2:0:0:
420,130,49662,2,0,L|434:31,1,99.9999999999999,2|10,3:2|0:2,0:0:0:0:
340,59,50368,1,2,3:2:0:0:
340,59,50545,2,0,L|222:35,1,99.9999999999999,2|10,0:2|0:2,0:0:0:0:
205,3,51074,1,2,3:2:0:0:
136,75,51427,2,0,P|157:129|167:238,1,150,8|0,0:2|3:2,0:0:0:0:
163,269,52133,5,4,3:2:0:0:
245,325,52486,2,0,L|357:308,1,99.9999999999999,2|10,3:2|0:2,0:0:0:0:
402,230,53192,1,2,3:2:0:0:
402,231,53368,2,0,L|385:119,1,99.9999999999999,2|10,0:2|0:2,0:0:0:0:
305,84,54074,1,2,0:2:0:0:
305,84,54251,2,0,B|261:107|261:107|209:101,1,99.9999999999999,8|2,0:2|3:2,0:0:0:0:
177,71,54780,1,2,3:2:0:0:
177,71,54957,6,0,L|152:190,1,99.9999999999999,0|2,3:2|3:2,0:0:0:0:
205,255,55662,1,8,0:2:0:0:
156,344,56015,1,0,3:2:0:0:
156,344,56192,2,0,L|46:331,1,99.9999999999999,2|10,0:2|0:2,0:0:0:0:
13,306,56721,1,2,3:2:0:0:
35,208,57074,2,0,L|35:149,1,50,8|8,0:2|0:3,0:0:0:0:
9,114,57427,2,0,L|9:46,1,50,8|8,0:3|0:3,0:0:0:0:
47,32,57780,6,0,B|95:49|95:49|154:28,1,99.9999999999999,6|10,3:2|0:2,0:0:0:0:
190,20,58309,1,2,0:2:0:0:
229,111,58662,2,0,L|221:175,1,50,2|8,3:2|0:2,0:0:0:0:
187,195,59015,2,0,P|193:244|196:294,1,99.9999999999999,2|2,3:2|3:2,0:0:0:0:
226,334,59545,1,10,0:2:0:0:
307,276,59898,2,0,L|374:282,1,50,0|0,3:2|3:2,0:0:0:0:
399,306,60251,1,8,0:2:0:0:
455,223,60604,6,0,B|471:178|471:178|446:107,1,99.9999999999999,2|10,3:2|0:2,0:0:0:0:
418,93,61133,2,0,L|311:92,1,99.9999999999999,2|2,0:2|3:2,0:0:0:0:
270,93,61662,1,8,0:2:0:0:
270,93,61839,1,14,0:2:0:0:
210,174,62192,1,8,0:2:0:0:
210,174,62368,1,12,0:2:0:0:
15,15,63427,6,0,P|40:41|32:105,1,99.9999999999999,6|10,3:2|0:2,0:0:0:0:
7,143,63957,2,0,L|25:245,1,99.9999999999999,2|2,0:2|3:2,0:0:0:0:
63,281,64486,1,8,0:2:0:0:
63,281,64662,2,0,B|148:258|129:319|213:293,1,150,2|8,0:2|0:2,0:0:0:0:
280,225,65545,1,2,3:2:0:0:
223,142,65898,1,10,0:2:0:0:
279,59,66251,6,0,P|318:42|381:54,1,99.9999999999999,2|10,3:2|0:2,0:0:0:0:
414,79,66780,2,0,L|398:189,1,99.9999999999999,2|2,0:2|3:2,0:0:0:0:
425,227,67309,1,8,0:2:0:0:
425,227,67486,2,0,B|365:218|365:218|337:233|337:233|273:224,1,150,2|8,0:2|0:2,0:0:0:0:
202,161,68368,1,2,3:2:0:0:
150,246,68721,2,0,L|159:306,1,50,10|0,0:2|0:0,0:0:0:0:
166,344,69074,6,0,P|196:324|276:342,1,99.9999999999999,6|10,3:2|0:2,0:0:0:0:
299,356,69604,2,0,L|417:345,1,99.9999999999999,2|2,0:2|3:2,0:0:0:0:
436,313,70133,1,8,0:2:0:0:
436,313,70309,2,0,B|385:280|385:280|402:184,1,150,2|8,0:2|0:2,0:0:0:0:
462,113,71192,1,2,3:2:0:0:
394,39,71545,1,10,0:2:0:0:
317,102,71898,6,0,P|271:120|208:93,1,99.9999999999999,2|10,3:2|0:2,0:0:0:0:
193,67,72427,2,0,P|143:75|94:85,1,99.9999999999999,2|2,0:2|3:2,0:0:0:0:
50,61,72957,1,8,0:2:0:0:
50,61,73133,2,0,L|80:227,1,150,2|8,0:2|0:2,0:0:0:0:
53,305,74015,2,0,L|106:314,1,50,10|8,0:2|0:2,0:0:0:0:
142,343,74368,2,0,L|195:334,1,50,10|8,0:2|0:2,0:0:0:0:
230,303,74721,6,0,L|346:316,1,99.9999999999999,6|10,3:2|0:2,0:0:0:0:
375,335,75251,2,0,P|397:309|384:237,1,99.9999999999999,2|2,0:2|3:2,0:0:0:0:
371,206,75780,1,8,0:2:0:0:
371,206,75957,2,0,B|376:172|398:138|398:138|363:104|359:73,1,150,2|8,0:2|0:2,0:0:0:0:
280,12,76839,1,2,3:2:0:0:
213,86,77192,1,10,0:2:0:0:
122,44,77545,6,0,B|96:87|96:87|115:135,1,99.9999999999999,2|10,3:2|0:2,0:0:0:0:
140,176,78074,2,0,L|125:288,1,99.9999999999999,2|2,0:2|3:2,0:0:0:0:
98,318,78604,1,8,0:2:0:0:
98,318,78780,2,0,B|181:297|156:365|258:328,1,150,2|8,0:2|0:2,0:0:0:0:
327,282,79662,1,2,3:2:0:0:
391,358,80015,2,0,L|458:352,1,50,10|0,0:2|0:0,0:0:0:0:
489,363,80368,6,0,L|474:252,1,99.9999999999999,6|10,3:2|0:2,0:0:0:0:
446,222,80898,2,0,P|469:199|453:128,1,99.9999999999999,2|2,0:2|3:2,0:0:0:0:
444,94,81427,1,8,0:2:0:0:
444,94,81604,2,0,P|376:63|294:95,1,150,2|8,0:2|0:2,0:0:0:0:
243,161,82486,1,2,3:2:0:0:
169,93,82839,1,10,0:2:0:0:
124,182,83192,6,0,L|149:297,1,99.9999999999999,2|10,3:2|0:2,0:0:0:0:
165,325,83721,2,0,P|117:314|76:341,1,99.9999999999999,2|2,0:2|3:2,0:0:0:0:
28,358,84251,1,8,0:2:0:0:
28,358,84427,2,0,B|40:310|40:310|19:256,1,99.9999999999999,2|0,0:2|0:2,0:0:0:0:
11,213,84957,1,12,0:2:0:0:
81,142,85309,2,0,L|141:132,1,50,10|8,0:2|0:2,0:0:0:0:
178,147,85662,2,0,L|238:137,1,50,10|8,0:2|0:2,0:0:0:0:
271,117,86015,6,0,L|290:221,1,99.9999999999999,6|2,3:2|3:2,0:0:0:0:
297,265,86545,1,2,3:2:0:0:
297,265,86721,2,0,P|329:245|390:255,1,99.9999999999999,8|0,0:2|3:2,0:0:0:0:
481,290,87427,2,0,L|494:228,2,50,2|8|0,3:2|0:2|3:2,0:0:0:0:
434,378,88133,2,0,L|329:368,1,99.9999999999999,10|2,0:2|3:2,0:0:0:0:
234,365,88839,6,0,L|248:254,1,99.9999999999999,10|8,0:2|0:2,0:0:0:0:
255,219,89368,1,8,0:2:0:0:
255,219,89545,2,0,P|297:190|359:203,1,99.9999999999999,10|8,0:2|0:2,0:0:0:0:
397,189,90074,1,8,0:2:0:0:
397,189,90251,2,0,L|387:118,1,50,14|12,0:2|0:2,0:0:0:0:
365,95,90604,1,12,0:2:0:0:
73,25,91662,6,0,L|60:125,1,99.9999999999999,6|8,3:2|0:2,0:0:0:0:
5,200,92368,1,0,3:2:0:0:
81,264,92721,2,0,L|130:255,1,50,10|2,0:2|0:2,0:0:0:0:
179,245,93074,1,0,3:2:0:0:
256,181,93427,2,0,L|365:200,1,99.9999999999999,8|0,0:2|3:2,0:0:0:0:
385,244,93957,1,2,0:2:0:0:
385,244,94133,2,0,L|372:313,1,50,10|2,0:2|0:2,0:0:0:0:
367,342,94486,5,2,3:2:0:0:
278,384,94839,1,10,0:2:0:0:
278,384,95015,2,0,L|171:366,1,99.9999999999999,2|2,0:2|0:2,0:0:0:0:
102,303,95721,2,0,B|52:294|52:294|9:328,2,99.9999999999999,2|2|2,0:2|0:2|0:2,0:0:0:0:
161,223,96780,1,2,0:2:0:0:
161,223,96957,1,8,0:2:0:0:
256,250,97309,6,0,B|303:271|303:271|361:247,1,99.9999999999999,6|8,3:2|0:2,0:0:0:0:
421,320,98015,1,0,3:2:0:0:
489,247,98368,2,0,L|493:196,1,50,10|2,0:2|0:2,0:0:0:0:
501,147,98721,1,0,3:2:0:0:
429,77,99074,2,0,B|385:104|385:104|318:90,1,99.9999999999999,8|0,0:2|3:2,0:0:0:0:
301,68,99604,1,2,0:2:0:0:
301,68,99780,2,0,L|241:79,1,50,10|2,0:2|0:2,0:0:0:0:
205,98,100133,5,2,3:2:0:0:
251,192,100486,1,10,0:2:0:0:
251,192,100662,2,0,L|240:299,1,99.9999999999999,2|2,0:2|0:2,0:0:0:0:
159,350,101368,2,0,P|117:367|60:347,1,99.9999999999999,2|2,0:2|0:2,0:0:0:0:
38,310,101898,1,12,0:2:0:0:
75,217,102251,2,0,L|66:162,1,50,8|8,0:2|0:3,0:0:0:0:
35,128,102604,2,0,L|44:73,1,50,8|8,0:3|0:3,0:0:0:0:
77,41,102957,5,6,3:2:0:0:
256,193,112662,6,0,L|256:81,1,99.9999999999999,14|10,0:2|0:2,0:0:0:0:
268,44,113192,2,0,L|327:43,1,50,10|10,0:2|0:2,0:0:0:0:
362,66,113545,2,0,L|421:65,1,50,8|0,0:2|3:2,0:0:0:0:
454,38,113898,1,8,0:2:0:0:
512,119,114251,6,0,L|499:234,1,99.9999999999999,6|10,3:2|0:2,0:0:0:0:
476,262,114780,1,2,0:2:0:0:
384,220,115133,2,0,L|334:228,1,50,2|10,3:2|0:2,0:0:0:0:
305,269,115485,1,2,0:2:0:0:
305,269,115662,2,0,L|193:253,1,99.9999999999999,0|10,3:2|0:2,0:0:0:0:
165,224,116192,1,2,0:2:0:0:
214,137,116545,2,0,L|199:82,1,50,0|8,3:2|0:2,0:0:0:0:
183,47,116898,1,2,0:2:0:0:
183,47,117074,6,0,B|137:68|137:68|78:56,1,99.9999999999999,2|10,3:2|0:2,0:0:0:0:
39,46,117604,1,2,0:2:0:0:
7,140,117957,2,0,L|16:202,1,50,2|10,3:2|0:2,0:0:0:0:
61,219,118309,1,2,0:2:0:0:
61,219,118486,2,0,L|44:321,1,99.9999999999999,0|10,3:2|0:2,0:0:0:0:
135,359,119192,2,0,L|196:347,1,50,2|0,3:2|3:2,0:0:0:0:
226,323,119545,1,10,0:2:0:0:
312,374,119898,6,0,P|334:330|323:282,1,99.9999999999999,6|8,3:2|0:2,0:0:0:0:
291,244,120427,1,0,0:0:0:0:
348,163,120780,1,0,3:2:0:0:
348,163,120957,2,0,L|397:155,1,50,10|2,0:2|0:2,0:0:0:0:
447,151,121309,2,0,L|432:254,1,99.9999999999999,0|10,3:2|0:2,0:0:0:0:
423,299,121839,1,2,0:2:0:0:
342,357,122192,2,0,L|282:351,1,50,0|8,3:2|0:2,0:0:0:0:
255,326,122545,1,2,0:2:0:0:
255,326,122721,6,0,L|145:341,1,99.9999999999999,2|10,3:2|0:2,0:0:0:0:
106,347,123251,1,2,0:2:0:0:
43,268,123604,2,0,L|53:209,1,50,2|10,3:2|0:2,0:0:0:0:
67,171,123957,2,0,P|99:194|168:183,1,99.9999999999999,2|10,3:2|0:2,0:0:0:0:
207,188,124486,2,0,L|195:128,1,50,10|2,0:2|3:2,0:0:0:0:
161,103,124839,2,0,L|173:43,1,50,0|0,3:2|3:2,0:0:0:0:
193,8,125192,1,8,0:2:0:0:
284,47,125545,5,4,3:2:0:0:
372,1,125898,2,0,L|386:104,1,99.9999999999999,2|10,3:2|0:2,0:0:0:0:
449,184,126604,1,2,3:2:0:0:
449,184,126780,2,0,B|406:213|406:213|337:195,1,99.9999999999999,2|10,0:2|0:2,0:0:0:0:
273,160,127486,1,2,0:2:0:0:
273,160,127662,2,0,B|183:143|225:202|130:179,1,150,8|0,0:2|3:2,0:0:0:0:
90,149,128368,5,0,3:2:0:0:
27,226,128721,2,0,L|38:336,1,99.9999999999999,2|10,3:2|0:2,0:0:0:0:
127,380,129427,1,2,3:2:0:0:
127,380,129604,2,0,P|159:353|228:362,1,99.9999999999999,2|10,0:2|0:2,0:0:0:0:
262,370,130133,1,2,3:2:0:0:
321,289,130486,2,0,L|292:140,1,150,8|0,0:2|3:2,0:0:0:0:
266,98,131192,5,4,3:2:0:0:
183,154,131545,2,0,L|71:143,1,99.9999999999999,2|10,3:2|0:2,0:0:0:0:
41,59,132251,1,2,3:2:0:0:
41,59,132427,2,0,L|140:49,1,99.9999999999999,2|10,0:2|0:2,0:0:0:0:
231,6,133133,1,2,0:2:0:0:
231,6,133309,2,0,B|252:52|252:52|234:108,1,99.9999999999999,8|2,0:2|3:2,0:0:0:0:
212,144,133839,1,2,3:2:0:0:
212,144,134015,6,0,L|328:160,1,99.9999999999999,0|2,3:2|3:2,0:0:0:0:
395,103,134721,1,8,0:2:0:0:
473,174,135074,1,0,3:2:0:0:
473,174,135251,2,0,L|462:280,1,99.9999999999999,2|10,0:2|0:2,0:0:0:0:
445,320,135780,1,2,3:2:0:0:
353,361,136133,2,0,L|294:361,1,50,8|8,0:2|0:3,0:0:0:0:
259,335,136486,2,0,L|191:335,1,50,8|8,0:3|0:3,0:0:0:0:
166,361,136839,6,0,B|117:347|117:347|68:367,1,99.9999999999999,6|10,3:2|0:2,0:0:0:0:
23,380,137368,1,2,0:2:0:0:
0,285,137721,2,0,L|13:215,1,50,2|8,3:2|0:2,0:0:0:0:
24,187,138074,2,0,B|71:212|71:212|128:195,1,99.9999999999999,2|2,3:2|3:2,0:0:0:0:
154,166,138604,1,10,0:2:0:0:
230,230,138957,2,0,L|222:296,1,50,0|0,3:2|3:2,0:0:0:0:
222,329,139309,1,8,0:2:0:0:
310,376,139662,6,0,L|408:360,1,99.9999999999999,2|10,3:2|0:2,0:0:0:0:
452,334,140192,2,0,B|423:292|423:292|437:229,1,99.9999999999999,2|2,0:2|3:2,0:0:0:0:
449,199,140721,1,8,0:2:0:0:
449,199,140898,1,14,0:2:0:0:
380,134,141251,1,8,0:2:0:0:
380,134,141427,1,12,0:2:0:0:
314,209,141780,2,0,B|258:199|258:199|225:215|225:215|165:205,1,150,10|8,0:2|0:2,0:0:0:0:
126,178,142486,6,0,B|146:128|146:128|109:72,1,99.9999999999999,6|10,3:2|0:2,0:0:0:0:
90,49,143015,2,0,L|202:33,1,99.9999999999999,2|2,0:2|3:2,0:0:0:0:
233,10,143545,1,8,0:2:0:0:
233,10,143721,2,0,B|266:16|291:46|291:46|335:55|371:37,1,150,2|8,0:2|0:2,0:0:0:0:
464,5,144604,1,2,3:2:0:0:
508,94,144957,1,10,0:2:0:0:
433,160,145309,6,0,B|416:206|416:206|441:264,1,99.9999999999999,2|10,3:2|0:2,0:0:0:0:
459,297,145839,2,0,L|358:297,1,99.9999999999999,2|2,0:2|3:2,0:0:0:0:
322,272,146368,1,8,0:2:0:0:
322,272,146545,2,0,B|268:265|268:265|238:280|238:280|165:270,1,150,2|8,0:2|0:2,0:0:0:0:
105,201,147427,1,2,3:2:0:0:
167,123,147780,2,0,L|157:73,1,50,10|0,0:2|0:0,0:0:0:0:
125,35,148133,6,0,B|75:26|75:26|14:56,1,99.9999999999999,6|10,3:2|0:2,0:0:0:0:
0,84,148662,2,0,L|16:193,1,99.9999999999999,2|2,0:2|3:2,0:0:0:0:
25,236,149192,1,8,0:2:0:0:
25,236,149368,2,0,B|110:213|91:274|175:248,1,150,2|8,0:2|0:2,0:0:0:0:
238,177,150251,1,2,3:2:0:0:
315,239,150604,1,10,0:2:0:0:
369,154,150957,6,0,L|468:163,1,99.9999999999999,2|10,3:2|0:2,0:0:0:0:
502,200,151486,2,0,P|477:236|486:292,1,99.9999999999999,2|2,0:2|3:2,0:0:0:0:
495,343,152015,1,8,0:2:0:0:
495,343,152192,2,0,L|384:330,1,99.9999999999999,2|0,0:2|0:2,0:0:0:0:
347,344,152721,1,12,0:2:0:0:
266,284,153074,2,0,L|255:333,1,50,10|8,0:2|0:2,0:0:0:0:
230,375,153427,2,0,L|172:370,1,50,10|8,0:2|0:2,0:0:0:0:
132,355,153780,6,0,B|86:377|86:377|32:362,1,99.9999999999999,6|10,3:2|0:2,0:0:0:0:
1,330,154309,2,0,L|10:230,1,99.9999999999999,2|2,0:2|3:2,0:0:0:0:
22,184,154839,1,8,0:2:0:0:
22,184,155015,2,0,B|99:169|79:225|166:204,1,150,2|8,0:2|0:2,0:0:0:0:
263,182,155898,1,2,3:2:0:0:
321,263,156251,1,10,0:2:0:0:
403,205,156604,6,0,L|417:106,1,99.9999999999999,2|10,3:2|0:2,0:0:0:0:
414,55,157133,2,0,P|374:26|325:30,1,99.9999999999999,2|2,0:2|3:2,0:0:0:0:
289,65,157662,1,8,0:2:0:0:
289,65,157839,2,0,P|251:83|151:44,1,150,2|8,0:2|0:2,0:0:0:0:
65,2,158721,1,2,3:2:0:0:
19,90,159074,2,0,L|30:148,1,50,10|0,0:2|0:0,0:0:0:0:
64,173,159427,6,0,L|50:275,1,99.9999999999999,6|10,3:2|0:2,0:0:0:0:
64,320,159957,2,0,B|112:301|112:301|169:328,1,99.9999999999999,2|2,0:2|3:2,0:0:0:0:
202,351,160486,1,8,0:2:0:0:
202,351,160662,2,0,B|240:311|240:311|209:202,1,150,2|8,0:2|0:2,0:0:0:0:
147,144,161545,1,2,3:2:0:0:
205,63,161898,1,10,0:2:0:0:
289,116,162251,6,0,P|324:128|389:104,1,99.9999999999999,2|10,3:2|0:2,0:0:0:0:
427,88,162780,2,0,L|419:200,1,99.9999999999999,2|2,0:2|3:2,0:0:0:0:
432,241,163309,1,8,0:2:0:0:
432,241,163486,2,0,P|393:262|331:248,1,99.9999999999999,2|0,3:2|0:0,0:0:0:0:
300,221,164015,1,12,0:2:0:0:
200,213,164368,2,0,L|141:230,1,50,10|8,0:2|0:2,0:0:0:0:
113,259,164721,2,0,L|54:242,1,50,10|8,0:2|0:2,0:0:0:0:
30,208,165074,6,0,L|47:97,1,99.9999999999999,6|2,3:2|3:2,0:0:0:0:
64,62,165604,1,2,3:2:0:0:
64,62,165780,2,0,B|109:77|109:77|171:60,1,99.9999999999999,8|0,0:2|3:2,0:0:0:0:
258,49,166486,2,0,L|258:-2,2,50,2|8|0,3:2|0:2|3:2,0:0:0:0:
314,131,167192,2,0,L|314:240,1,99.9999999999999,10|2,0:2|3:2,0:0:0:0:
243,302,167898,6,0,L|132:288,1,99.9999999999999,10|8,0:2|0:2,0:0:0:0:
101,275,168427,1,8,0:2:0:0:
101,275,168604,2,0,B|124:230|124:230|115:164,1,99.9999999999999,10|8,0:2|0:2,0:0:0:0:
112,135,169133,1,8,0:2:0:0:
112,135,169309,2,0,L|165:130,1,50,14|12,0:2|0:2,0:0:0:0:
211,129,169662,1,12,0:2:0:0:
133,202,180427,6,0,L|249:186,1,99.9999999999999,12|8,0:2|0:2,0:0:0:0:
279,206,180957,2,0,L|339:200,1,50,8|8,0:2|0:2,0:0:0:0:
369,171,181309,2,0,L|359:114,1,50,8|8,0:2|0:2,0:0:0:0:
321,90,181662,2,0,L|331:33,1,50,8|8,0:2|0:2,0:0:0:0:
366,6,182015,5,4,3:2:0:0:
457,45,182368,1,10,0:2:0:0:
463,144,182721,2,0,L|455:247,1,99.9999999999999,2|10,3:2|0:2,0:0:0:0:
421,280,183251,2,0,P|394:258|319:270,1,99.9999999999999,2|0,3:2|3:2,0:0:0:0:
298,298,183780,1,8,0:2:0:0:
208,253,184133,2,0,L|145:261,1,50,2|2,3:2|3:2,0:0:0:0:
118,289,184486,1,10,0:2:0:0:
59,208,184839,6,0,L|79:99,1,99.9999999999999,2|10,3:2|0:2,0:0:0:0:
105,68,185368,2,0,B|153:52|153:52|205:68,1,99.9999999999999,2|0,0:2|3:2,0:0:0:0:
231,113,185898,1,10,0:2:0:0:
231,113,186074,2,0,B|286:102|286:102|323:114|323:114|377:104,1,150,2|8,3:2|0:2,0:0:0:0:
423,14,186957,2,0,L|486:24,1,50,2|0,3:2|3:2,0:0:0:0:
502,61,187309,1,10,0:2:0:0:
476,157,187662,6,0,B|464:266,1,99.9999999999999,6|8,3:2|0:2,0:0:0:0:
410,340,188368,2,0,L|356:332,1,50,0|0,3:2|3:2,0:0:0:0:
314,336,188721,1,10,0:2:0:0:
314,336,188898,2,0,L|296:238,1,99.9999999999999,2|0,0:2|0:0,0:0:0:0:
313,190,189427,1,8,0:2:0:0:
293,91,189780,2,0,L|239:78,1,50,2|2,3:2|3:2,0:0:0:0:
195,66,190133,1,10,0:2:0:0:
154,157,190486,6,0,L|174:262,1,99.9999999999999,10|10,0:2|0:2,0:0:0:0:
215,291,191015,1,10,0:2:0:0:
215,291,191192,2,0,L|270:302,1,50,8|10,0:2|0:2,0:0:0:0:
286,255,191545,2,0,L|341:244,1,50,8|8,0:2|0:2,0:0:0:0:
369,277,191898,6,0,B|428:141|308:186|391:36|391:36|301:116|219:61|219:61|232:0|299:-4,1,539.999983520508,14|2,0:2|0:2,0:0:0:0:
461,119,194721,5,2,1:2:0:0:
171,373,196133,1,2,1:2:0:0:
26,234,196839,2,0,L|141:221,1,99.9999999999999,2|2,1:2|1:2,0:0:0:0:
193,149,197545,6,0,L|295:164,1,99.9999999999999,6|10,3:2|0:2,0:0:0:0:
326,199,198074,2,0,L|432:176,1,99.9999999999999,2|2,0:2|3:2,0:0:0:0:
458,141,198604,1,8,0:2:0:0:
458,141,198780,2,0,P|476:96|390:35,1,150,2|8,0:2|0:2,0:0:0:0:
330,88,199662,1,2,3:2:0:0:
244,35,200015,2,0,L|176:46,1,50,10|0,0:2|0:0,0:0:0:0:
163,82,200368,6,0,L|169:186,1,99.9999999999999,6|10,3:2|0:2,0:0:0:0:
157,230,200898,2,0,P|186:219|254:249,1,99.9999999999999,2|2,0:2|3:2,0:0:0:0:
285,283,201427,1,8,0:2:0:0:
285,283,201604,2,0,B|356:261|337:322|429:293,1,150,2|8,0:2|0:2,0:0:0:0:
486,211,202486,1,2,3:2:0:0:
408,147,202839,1,10,0:2:0:0:
313,180,203192,6,0,L|192:168,1,99.9999999999999,2|10,3:2|0:2,0:0:0:0:
163,170,203721,2,0,B|189:217|189:217|172:269,1,99.9999999999999,2|2,0:2|3:2,0:0:0:0:
181,315,204251,1,8,0:2:0:0:
181,315,204427,2,0,B|131:304|131:304|73:330,1,99.9999999999999,2|0,0:2|0:2,0:0:0:0:
26,333,204957,1,12,0:2:0:0:
2,236,205309,2,0,L|12:182,1,50,10|8,0:2|0:2,0:0:0:0:
41,147,205662,2,0,L|31:93,1,50,10|8,0:2|0:2,0:0:0:0:
5,55,206015,6,0,L|118:37,1,99.9999999999999,6|10,3:2|0:2,0:0:0:0:
147,13,206545,2,0,B|189:39|189:39|259:29,1,99.9999999999999,2|2,0:2|3:2,0:0:0:0:
285,13,207074,1,8,0:2:0:0:
285,13,207251,2,0,L|268:177,1,150,2|8,0:2|0:2,0:0:0:0:
198,232,208133,1,2,3:2:0:0:
115,176,208486,1,10,0:2:0:0:
39,241,208839,6,0,L|52:352,1,99.9999999999999,2|10,3:2|0:2,0:0:0:0:
85,376,209368,2,0,P|123:383|176:346,1,99.9999999999999,2|2,0:2|3:2,0:0:0:0:
203,312,209898,1,8,0:2:0:0:
204,311,210074,2,0,B|238:285|274:287|274:287|292:323|332:328,1,150,2|8,0:2|0:2,0:0:0:0:
411,266,210957,1,2,3:2:0:0:
365,177,211309,2,0,L|373:128,1,50,10|0,0:2|0:0,0:0:0:0:
357,79,211662,6,0,P|396:60|457:78,1,99.9999999999999,6|10,3:2|0:2,0:0:0:0:
495,92,212192,2,0,L|481:196,1,99.9999999999999,2|2,0:2|3:2,0:0:0:0:
504,241,212721,1,8,0:2:0:0:
504,241,212898,2,0,P|468:232|392:306,1,150,2|8,0:2|0:2,0:0:0:0:
312,361,213780,1,2,3:2:0:0:
242,288,214133,1,10,0:2:0:0:
152,332,214486,6,0,L|48:321,1,99.9999999999999,2|10,3:2|0:2,0:0:0:0:
8,297,215015,2,0,B|37:257|37:257|25:203,1,99.9999999999999,2|2,0:2|3:2,0:0:0:0:
2,162,215545,2,0,L|10:101,1,50,8|2,0:2|0:2,0:0:0:0:
25,65,215898,1,0,3:2:0:0:
120,95,216251,2,0,L|169:86,2,50,8|8|10,0:2|0:2|0:2,0:0:0:0:
101,143,216780,1,0,3:2:0:0:
101,143,216957,2,0,L|109:192,1,50,10|8,0:2|0:2,0:0:0:0:
141,230,217309,6,0,P|172:218|244:237,1,99.9999999999999,6|2,3:2|3:2,0:0:0:0:
282,261,217839,1,2,3:2:0:0:
282,261,218015,2,0,L|294:157,1,99.9999999999999,8|0,0:2|3:2,0:0:0:0:
234,80,218721,2,0,L|181:84,2,50,2|8|0,3:2|0:2|3:2,0:0:0:0:
314,20,219427,2,0,L|429:40,1,99.9999999999999,10|2,0:2|3:2,0:0:0:0:
477,113,220133,6,0,L|466:217,1,99.9999999999999,6|2,3:2|3:2,0:0:0:0:
443,259,220662,1,2,3:2:0:0:
443,259,220839,2,0,B|396:239|396:239|335:254,1,99.9999999999999,8|0,0:2|3:2,0:0:0:0:
275,319,221545,2,0,L|216:306,1,50,2|8,3:2|0:2,0:0:0:0:
176,301,221898,1,0,3:2:0:0:
104,231,222251,2,0,L|115:173,1,50,10|8,0:2|0:3,0:0:0:0:
156,156,222604,2,0,L|145:98,1,50,8|8,0:3|0:3,0:0:0:0:
133,58,222957,5,6,3:2:0:0:
45,10,223309,1,10,0:2:0:0:
3,101,223662,2,0,L|13:152,1,50,8|2,0:2|3:2,0:0:0:0:
49,184,224015,2,0,L|39:235,1,50,8|0,0:2|3:2,0:0:0:0:
9,273,224368,1,10,0:2:0:0:
74,348,224721,1,8,0:2:0:0:
158,295,225074,2,0,L|220:305,1,50,10|2,0:2|3:2,0:0:0:0:
248,331,225427,1,10,0:2:0:0:
308,251,225780,6,0,B|353:226|353:226|400:239,1,99.9999999999999,10|8,0:2|0:2,0:0:0:0:
451,260,226309,1,8,0:2:0:0:
451,260,226486,2,0,L|435:155,1,99.9999999999999,10|8,0:2|0:2,0:0:0:0:
438,115,227015,1,8,0:2:0:0:
438,115,227192,2,0,L|372:127,1,50,14|12,0:2|0:2,0:0:0:0:
339,131,227545,1,12,0:2:0:0:
48,0,228604,6,0,L|34:105,1,99.9999999999999,6|8,3:2|0:2,0:0:0:0:
70,186,229309,1,0,3:2:0:0:
142,117,229662,2,0,L|197:108,1,50,10|2,0:2|0:2,0:0:0:0:
240,101,230015,1,0,3:2:0:0:
313,168,230368,2,0,L|301:279,1,99.9999999999999,8|0,0:2|3:2,0:0:0:0:
273,309,230898,1,2,0:2:0:0:
273,309,231074,2,0,L|220:301,1,50,10|2,0:2|0:2,0:0:0:0:
174,292,231427,5,2,3:2:0:0:
89,343,231780,1,10,0:2:0:0:
89,343,231957,2,0,B|64:300|64:300|79:249,1,99.9999999999999,2|2,0:2|0:2,0:0:0:0:
93,152,232662,2,0,P|48:125|-15:145,2,99.9999999999999,2|2|2,0:2|0:2|0:2,0:0:0:0:
171,89,233721,1,2,0:2:0:0:
171,89,233898,1,8,0:2:0:0:
252,147,234251,6,0,B|299:166|299:166|356:147,1,99.9999999999999,6|8,3:2|0:2,0:0:0:0:
419,217,234957,1,0,3:2:0:0:
379,308,235309,2,0,L|320:296,1,50,10|2,0:2|0:2,0:0:0:0:
280,289,235662,1,0,3:2:0:0:
192,239,236015,2,0,L|87:259,1,99.9999999999999,8|0,0:2|3:2,0:0:0:0:
44,248,236545,1,2,0:2:0:0:
44,248,236721,2,0,L|33:307,1,50,10|2,0:2|0:2,0:0:0:0:
30,347,237074,5,2,3:2:0:0:
134,354,237427,1,10,0:2:0:0:
134,354,237604,2,0,L|245:342,1,99.9999999999999,2|2,0:2|0:2,0:0:0:0:
321,295,238309,2,0,B|284:260|284:260|296:195,1,99.9999999999999,2|2,0:2|0:2,0:0:0:0:
283,162,238839,1,12,0:2:0:0:
361,99,239192,2,0,L|419:113,1,50,8|10,0:2|0:2,0:0:0:0:
443,148,239545,2,0,L|433:211,1,50,8|8,0:2|0:2,0:0:0:0:
400,233,239898,5,6,3:2:0:0:
256,192,240074,12,0,242545,0:0:0:0:
