osu file format v14

[General]
AudioFilename: audio.mp3
AudioLeadIn: 0
PreviewTime: 70962
Countdown: 0
SampleSet: Soft
StackLeniency: 0.3
Mode: 0
LetterboxInBreaks: 0
WidescreenStoryboard: 1

[Editor]
Bookmarks: 69989
DistanceSpacing: 1
BeatDivisor: 2
GridSize: 4
TimelineZoom: 1

[Metadata]
Title:Kioku x Hajimari (Short Ver.)
TitleUnicode:記憶×ハジマリ (Short Ver.)
Artist:Duca
ArtistUnicode:Duca
Creator:[ TNTlealu ]
Version:Normal
Source:恋×シンアイ彼女
Tags:koikake Matsuyuki_Ame RK657 lean monster door weapon dog food Hanakumo Rin Koi x Shin Ai Kanojo koi kakeru eroge opening us:track japanese j-pop pop jpop School Girls Stories Us:Track video game galgame visual novel op
BeatmapID:3518816
BeatmapSetID:1721749

[Difficulty]
HPDrainRate:4
CircleSize:3
OverallDifficulty:5
ApproachRate:6
SliderMultiplier:1
SliderTickRate:1

[Events]
//Background and Video events
Video,0,"video.avi"
0,0,"4.jpg",0,0
//Break Periods
2,29973,39426
//Storyboard Layer 0 (Background)
//Storyboard Layer 1 (Fail)
//Storyboard Layer 2 (Pass)
//Storyboard Layer 3 (Foreground)
//Storyboard Layer 4 (Overlay)
//Storyboard Sound Samples

[TimingPoints]
486,348.837209302326,4,2,69,30,1,0
15834,324.324324324324,4,2,69,40,1,0
17125,324.324324324324,4,2,69,60,1,0
40476,-100,4,2,69,55,0,0
50854,-100,4,2,69,45,0,0
60584,-100,4,2,69,50,0,0
60908,-100,4,2,69,55,0,0
69016,-100,4,2,69,60,0,0
70314,-100,4,2,69,70,0,0
70962,-100,4,2,69,80,0,0
71611,-100,4,2,69,75,0,1
94962,-100,4,2,69,60,0,0
107935,-100,4,2,69,55,0,0
108584,-100,4,2,69,50,0,0
109233,-100,4,2,69,45,0,0
109881,-100,4,2,69,40,0,0
110530,-100,4,2,69,35,0,0
111179,-100,4,2,69,30,0,0
111827,-100,4,2,69,25,0,0
112476,-100,4,2,69,20,0,0
113124,-100,4,2,69,15,0,0
113773,-100,4,2,69,10,0,0
114422,-100,4,2,69,5,0,0

[Colours]
Combo1 : 234,123,77
Combo2 : 255,128,192
Combo3 : 194,126,126
Combo4 : 255,74,165

[HitObjects]
51,40,486,6,0,L|37:150,2,100,2|0|0,0:0|0:0|0:0,0:0:0:0:
3,234,1881,2,0,P|72:235|128:126,1,200,2|2,0:0|0:0,0:0:0:0:
311,47,3276,2,0,L|325:157,2,100,2|0|0,0:0|0:0|0:0,0:0:0:0:
413,219,4672,1,0,0:0:0:0:
324,320,6067,6,0,P|275:312|234:338,2,100,2|0|0,0:0|0:0|0:0,0:0:0:0:
447,162,7462,2,0,P|436:249|431:378,1,200,2|2,0:0|0:0,0:0:0:0:
302,207,8858,1,2,0:0:0:0:
311,226,11648,6,0,P|335:182|330:133,2,100,2|0|0,0:0|0:0|0:0,0:0:0:0:
152,348,13044,2,0,B|80:309|21:295|21:295|58:294|113:263,1,200,2|2,0:0|0:0,0:0:0:0:
237,160,14439,2,0,P|259:262|255:360,1,200,2|0,0:0|0:0,0:0:0:0:
59,268,15834,2,0,B|14:297|-32:267|-53:217|-15:175|79:152|125:199|140:236,1,300,2|0,0:0|0:0,0:0:0:0:
156,333,17125,6,0,L|274:323,1,100,6|0,3:2|3:0,0:0:0:0:
305,320,17611,1,0,0:0:0:0:
305,320,17773,1,0,3:0:0:0:
259,230,18097,1,8,0:0:0:0:
316,148,18422,2,0,B|373:144|366:172|433:166,1,100,2|0,3:2|3:0,0:0:0:0:
462,163,18908,2,0,P|481:118|459:76,1,100,2|0,0:0|0:0,0:0:0:0:
418,46,19395,1,10,0:0:0:0:
318,38,19719,6,0,B|266:52|266:52|218:33,1,100,2|0,3:2|3:0,0:0:0:0:
181,17,20206,1,0,0:0:0:0:
181,17,20368,1,0,3:0:0:0:
123,98,20692,1,10,0:0:0:0:
48,31,21016,2,0,B|-6:41|4:81|4:81|24:172,2,150,2|2|10,3:2|0:0|0:0,0:0:0:0:
123,98,22314,6,0,L|147:209,1,100,2|0,3:2|3:0,0:0:0:0:
156,244,22800,1,0,0:0:0:0:
156,244,22962,1,0,3:0:0:0:
82,312,23287,1,8,0:0:0:0:
167,362,23611,2,0,L|271:349,1,100,2|0,3:2|3:0,0:0:0:0:
311,329,24097,2,0,L|410:341,1,100,2|0,0:0|0:0,0:0:0:0:
457,357,24584,1,10,0:0:0:0:
501,267,24908,6,0,B|512:223|512:223|471:179,1,100,6|8,3:2|0:0,0:0:0:0:
434,152,25395,1,0,0:0:0:0:
434,152,25557,1,0,3:0:0:0:
357,216,25881,1,10,0:0:0:0:
284,147,26205,2,0,P|239:126|191:136,1,100,2|8,3:2|0:0,0:0:0:0:
150,164,26692,1,2,0:0:0:0:
150,164,26854,1,2,3:2:0:0:
158,263,27179,1,10,0:0:0:0:
256,252,27503,6,0,P|245:300|260:347,1,100,6|10,3:2|0:0,0:0:0:0:
299,384,27989,1,0,1:0:0:0:
299,384,28152,2,0,L|420:362,1,100,8|8,0:0|0:0,0:0:0:0:
464,292,28800,2,0,L|492:356,2,50,14|0|0,0:0|3:0|3:0,0:0:0:0:
418,287,29287,1,14,0:0:0:0:
418,287,29449,2,0,L|395:234,1,50,0|0,3:0|3:0,0:0:0:0:
381,193,29773,1,10,0:0:0:0:
23,352,40476,5,6,3:2:0:0:
86,274,40800,1,2,3:2:0:0:
150,350,41124,2,0,P|175:355|199:346,1,50,2|2,3:2|0:0,0:0:0:0:
232,311,41449,2,0,L|238:260,1,50,0|2,3:2|0:0,0:0:0:0:
254,214,41773,2,0,P|298:192|348:200,1,100,0|2,3:2|3:2,0:0:0:0:
432,147,42422,2,0,P|447:195|439:244,1,100,2|2,3:2|3:2,0:0:0:0:
398,335,43070,5,2,3:2:0:0:
314,280,43395,1,2,3:2:0:0:
251,357,43719,2,0,L|196:344,1,50,0|0,3:0|0:0,0:0:0:0:
154,330,44043,1,2,3:2:0:0:
119,235,44368,1,2,3:2:0:0:
199,175,44692,2,0,P|226:170|258:178,2,50,0|2|0,3:0|0:0|3:0,0:0:0:0:
108,131,45341,2,0,P|96:111|99:83,1,50,2|2,3:2|0:0,0:0:0:0:
121,41,45665,6,0,P|176:44|219:56,1,100,2|2,3:2|3:2,0:0:0:0:
261,83,46152,2,0,P|309:96|350:50,1,100,2|0,0:0|0:0,0:0:0:0:
367,21,46638,1,2,3:2:0:0:
457,68,46962,1,2,3:2:0:0:
430,164,47287,1,2,3:2:0:0:
494,240,47611,2,0,P|512:272|508:309,2,75,2|2|2,3:2|0:0|0:0,0:0:0:0:
446,255,48260,6,0,L|340:281,1,100,2|0,3:2|3:2,0:0:0:0:
304,293,48746,1,2,0:0:0:0:
304,293,48908,1,0,3:2:0:0:
234,220,49233,1,2,3:2:0:0:
298,143,49557,2,0,B|311:99|311:99|288:45,1,100,2|0,3:2|3:2,0:0:0:0:
191,28,50206,2,0,L|116:22,1,50,0|0,3:2|0:0,0:0:0:0:
91,20,50530,1,10,0:0:0:0:
16,86,50854,6,0,B|-30:130|20:226|20:226|106:192|105:114|105:114|129:152|197:141,1,400,6|2,3:2|0:0,0:0:0:0:
364,40,52800,1,2,0:0:0:0:
494,191,53449,1,2,0:0:0:0:
450,347,54422,2,0,P|425:342|400:342,1,50,2|0,0:0|0:0,0:0:0:0:
355,364,54746,2,0,P|302:301|352:196,1,200,2|2,0:0|0:0,0:0:0:0:
430,21,56043,6,0,B|385:30|371:64|371:64|303:100|255:41|255:41|195:96|150:68|150:68|129:35|79:27,1,400,2|2,0:0|0:0,0:0:0:0:
0,208,57989,1,2,0:0:0:0:
148,341,58638,1,2,0:0:0:0:
182,172,59611,2,0,P|210:178|245:202,1,50,2|0,0:0|0:0,0:0:0:0:
264,221,59935,2,0,P|303:191|351:177,1,100,2|0,0:0|0:0,0:0:0:0:
400,187,60422,2,0,P|395:236|398:286,1,100,2|2,0:0|0:0,0:0:0:0:
411,334,60908,1,2,0:0:0:0:
316,367,61233,6,0,L|185:343,1,100,6|0,3:2|3:0,0:0:0:0:
121,374,61881,2,0,L|93:269,1,100,0|2,3:0|3:2,0:0:0:0:
78,229,62368,1,2,0:0:0:0:
78,229,62530,2,0,P|126:226|160:191,1,100,2|2,3:2|3:2,0:0:0:0:
208,175,63016,2,0,P|205:126|170:92,1,100,2|2,0:0|0:0,0:0:0:0:
121,80,63503,1,2,3:2:0:0:
196,14,63827,6,0,L|306:30,1,100,2|0,3:2|3:2,0:0:0:0:
393,44,64476,1,0,3:2:0:0:
428,137,64800,1,2,3:2:0:0:
428,137,64962,1,2,0:0:0:0:
428,136,65124,2,0,P|404:180|407:229,1,100,2|2,3:2|3:2,0:0:0:0:
427,276,65611,2,0,P|382:297|348:334,1,100,2|2,0:0|0:0,0:0:0:0:
320,375,66097,1,2,3:2:0:0:
227,337,66422,5,6,3:2:0:0:
294,263,66746,1,8,0:0:0:0:
222,192,67070,1,10,0:0:0:0:
289,118,67394,1,10,0:0:0:0:
232,35,67719,2,0,P|183:26|137:44,1,100,10|8,0:0|0:0,0:0:0:0:
96,74,68206,1,8,0:0:0:0:
96,74,68368,2,0,P|105:98|115:145,1,50,10|0,0:0|1:0,0:0:0:0:
132,166,68692,2,0,P|123:189|116:213,1,50,0|0,1:0|1:0,0:0:0:0:
110,263,69016,5,6,3:2:0:0:
166,345,69341,2,0,L|232:335,1,50,8|8,0:0|0:0,0:0:0:0:
256,308,69665,2,0,L|305:315,1,50,10|8,0:0|0:0,0:0:0:0:
344,347,69989,2,0,L|410:337,1,50,10|10,0:0|0:0,0:0:0:0:
443,334,70314,1,14,0:0:0:0:
443,334,70476,1,10,0:0:0:0:
371,202,70962,1,14,0:0:0:0:
371,202,71124,1,8,0:0:0:0:
439,68,71611,6,0,P|389:58|340:57,1,100,6|10,3:2|0:0,0:0:0:0:
291,68,72097,1,2,0:0:0:0:
291,68,72260,2,0,P|266:66|241:62,1,50,0|2,3:2|3:2,0:0:0:0:
198,36,72584,1,8,0:0:0:0:
198,36,72746,2,0,L|180:203,1,150,2|8,3:2|0:0,0:0:0:0:
167,284,73557,1,2,3:2:0:0:
238,353,73881,1,10,0:0:0:0:
302,276,74206,6,0,P|347:255|403:266,1,100,2|10,3:2|0:0,0:0:0:0:
439,286,74692,1,2,0:0:0:0:
439,286,74854,2,0,P|448:256|451:226,1,50,0|2,3:2|3:2,0:0:0:0:
435,189,75179,1,8,0:0:0:0:
435,189,75341,2,0,P|427:139|435:90,1,100,2|0,3:2|3:2,0:0:0:0:
454,44,75827,1,8,0:0:0:0:
454,44,75989,2,0,L|294:66,1,150,2|10,3:2|0:0,0:0:0:0:
246,145,76800,6,0,P|214:107|159:97,1,100,6|10,3:2|0:0,0:0:0:0:
120,105,77287,1,2,0:0:0:0:
120,105,77449,2,0,L|134:153,2,50,0|2|8,3:2|3:2|0:0,0:0:0:0:
70,113,77935,2,0,P|51:184|83:258,1,150,6|10,3:2|0:0,0:0:0:0:
126,340,78746,2,0,P|167:307|173:251,1,100,2|10,3:2|0:0,0:0:0:0:
248,194,79395,1,6,3:2:0:0:
153,162,79719,6,0,L|94:155,1,50,10|2,0:0|3:2,0:0:0:0:
62,128,80043,2,0,B|55:101|55:101|67:73,1,50,8|0,0:0|3:2,0:0:0:0:
99,45,80368,1,10,0:0:0:0:
99,45,80530,2,0,L|286:68,1,150,6|10,3:2|0:0,0:0:0:0:
332,117,81341,2,0,L|342:57,1,50,0|0,3:2|1:0,1:2:0:0:
349,18,81665,1,2,1:2:0:0:
439,60,81989,6,0,L|426:159,1,100,6|10,3:2|0:0,0:0:0:0:
420,212,82476,1,2,0:0:0:0:
419,212,82638,2,0,P|397:223|373:225,1,50,0|2,3:2|3:2,0:0:0:0:
327,224,82962,1,8,0:0:0:0:
327,224,83124,2,0,B|248:215|272:270|170:255,1,150,2|8,3:2|0:0,0:0:0:0:
95,209,83935,1,2,3:2:0:0:
158,131,84260,1,10,0:0:0:0:
58,129,84584,6,0,P|19:160|4:207,1,100,2|10,3:2|0:0,0:0:0:0:
9,256,85070,2,0,P|39:295|51:343,1,100,2|2,0:0|3:2,0:0:0:0:
92,372,85557,1,8,0:0:0:0:
92,372,85719,2,0,L|245:356,1,150,2|8,3:2|0:0,0:0:0:0:
314,287,86530,1,14,0:0:0:0:
396,342,86854,1,10,0:0:0:0:
433,249,87179,6,0,P|432:172|411:139,1,100,14|2,0:0|3:2,0:0:0:0:
380,125,87665,2,0,L|254:110,1,100,14|2,0:0|3:2,0:0:0:0:
230,105,88152,1,14,0:0:0:0:
148,47,88476,2,0,P|133:94|139:143,1,100,14|2,0:0|3:2,0:0:0:0:
169,183,88962,2,0,P|183:230|177:279,1,100,14|2,0:0|3:2,0:0:0:0:
149,322,89449,1,14,0:0:0:0:
53,297,89773,6,0,B|25:266|25:266|48:192,1,100,14|0,0:0|3:2,0:0:0:0:
58,162,90260,2,0,L|170:185,1,100,14|0,0:0|3:2,0:0:0:0:
205,191,90746,1,14,0:0:0:0:
301,216,91070,2,0,L|413:193,1,100,14|0,0:0|3:2,0:0:0:0:
447,183,91557,2,0,B|464:127|464:127|436:96,1,100,14|8,0:0|0:2,0:0:0:0:
398,63,92043,1,14,0:0:0:0:
306,103,92368,5,6,3:2:0:0:
224,44,92692,2,0,P|213:75|218:110,1,50,10|2,0:0|1:2,0:0:0:0:
223,140,93016,2,0,P|234:171|229:206,1,50,8|2,0:2|1:2,0:0:0:0:
223,237,93341,1,8,0:2:0:0:
131,197,93665,1,6,3:2:0:0:
91,288,93989,2,0,P|87:312|94:336,1,50,10|8,0:0|0:0,0:0:0:0:
132,369,94314,2,0,L|192:375,1,50,10|2,0:0|1:2,0:0:0:0:
229,360,94638,2,0,L|278:355,1,50,2|2,1:2|1:2,0:0:0:0:
327,364,94962,6,0,B|348:314|348:314|329:271,1,100,6|0,3:2|3:0,0:0:0:0:
305,235,95448,1,0,0:0:0:0:
305,235,95610,1,0,3:0:0:0:
369,158,95934,1,8,0:0:0:0:
304,81,96259,2,0,B|247:77|254:105|187:99,1,100,2|0,3:2|3:0,0:0:0:0:
160,78,96746,2,0,P|140:124|149:173,1,100,2|0,0:0|0:0,0:0:0:0:
166,219,97232,1,10,0:0:0:0:
200,312,97556,6,0,B|148:326|148:326|100:307,1,100,2|0,3:2|3:0,0:0:0:0:
64,290,98043,1,0,0:0:0:0:
64,290,98205,1,0,3:0:0:0:
49,191,98529,1,10,0:0:0:0:
31,92,98854,2,0,P|77:35|149:39,2,150,2|2|10,3:2|0:0|0:0,0:0:0:0:
49,190,100151,6,0,P|96:178|145:186,1,100,2|0,3:2|3:0,0:0:0:0:
194,212,100637,1,0,0:0:0:0:
194,212,100799,1,0,3:0:0:0:
161,306,101124,1,8,0:0:0:0:
238,369,101448,2,0,P|287:375|334:360,1,100,2|0,3:2|3:0,0:0:0:0:
376,333,101934,2,0,L|359:219,1,100,2|0,0:0|0:0,0:0:0:0:
353,184,102421,1,10,0:0:0:0:
399,95,102745,6,0,B|375:106|375:106|303:92,1,100,6|8,3:2|0:0,0:0:0:0:
259,80,103232,1,0,0:0:0:0:
259,80,103394,1,0,3:0:0:0:
178,139,103718,1,10,0:0:0:0:
94,84,104042,2,0,P|73:129|83:177,1,100,2|8,3:2|0:0,0:0:0:0:
110,225,104529,1,2,0:0:0:0:
110,225,104691,1,2,3:2:0:0:
63,313,105016,1,10,0:0:0:0:
150,360,105340,6,0,P|197:344|245:355,1,100,6|10,3:2|0:0,0:0:0:0:
294,380,105826,1,0,1:0:0:0:
294,380,105989,2,0,L|272:259,1,100,8|8,0:0|0:0,0:0:0:0:
213,203,106637,2,0,L|184:273,2,50,14|0|0,0:0|3:0|3:0,0:0:0:0:
265,194,107124,1,14,0:0:0:0:
265,194,107286,2,0,L|253:137,1,50,0|0,3:0|3:0,0:0:0:0:
248,94,107610,1,14,0:0:0:0:
256,192,107773,12,0,115070,0:0:0:0:
