osu file format v14

[General]
AudioFilename: audio.mp3
AudioLeadIn: 0
PreviewTime: 64850
Countdown: 0
SampleSet: Soft
StackLeniency: 0.7
Mode: 0
LetterboxInBreaks: 0
WidescreenStoryboard: 1

[Editor]
DistanceSpacing: 0.5
BeatDivisor: 4
GridSize: 4
TimelineZoom: 2.999999

[Metadata]
Title:Kanransha ~Ano Hi to, Kinou to, Kyou to, Ashita to~
TitleUnicode:観覧車 〜あの日と、昨日と、今日と、明日と〜
Artist:Duca
ArtistUnicode:Duca
Creator:Nao Tomori
Version:Normal
Source:めぐる季節の約束と、つないだその手のぬくもりと
Tags:bellicose amb1d3x hishiro chizuru koldnoodl meis clauson To the Brilliant Future Meguru Kisetsu no Yakusoku to, Tsunaida Sono Te no Nukumori to visual novel video game eroge だんでらいおん DANDELION opening Angel Note japanese pop rock anime full version notonoto
BeatmapID:3612673
BeatmapSetID:1740096

[Difficulty]
HPDrainRate:2
CircleSize:3
OverallDifficulty:3.5
ApproachRate:5
SliderMultiplier:1.06
SliderTickRate:1

[Events]
//Background and Video events
0,0,"kanransha bg.jpg",0,0
//Break Periods
2,29779,38665
2,95608,104836
2,194692,204264
//Storyboard Layer 0 (Background)
//Storyboard Layer 1 (Fail)
//Storyboard Layer 2 (Pass)
//Storyboard Layer 3 (Foreground)
//Storyboard Layer 4 (Overlay)
//Storyboard Sound Samples

[TimingPoints]
2310,373.831775700935,4,2,1,35,1,0
2310,-100,4,2,1,35,0,0
6795,379.746835443038,4,2,1,35,1,0
6795,-100,4,2,1,35,0,0
8313,370.37037037037,4,2,1,35,1,0
8313,-100,4,2,1,35,0,0
9053,375,4,2,1,35,1,0
9053,-100,4,2,1,35,0,0
9803,416.666666666667,4,2,1,35,1,0
9803,-100,4,2,1,35,0,0
11469,459.770114942529,4,2,1,35,1,0
11469,-100,4,2,1,35,0,0
13308,461.538461538462,4,2,1,35,1,0
17923,342.857142857143,4,2,1,40,1,0
17923,-83.3333333333333,4,2,1,40,0,0
18265,-100,4,2,1,50,0,0
18608,342.857142857143,4,2,1,65,1,0
18608,-100,4,2,1,65,0,0
23750,-100,4,2,1,65,0,0
24093,-100,4,2,1,65,0,0
27179,-100,4,2,1,65,0,0
27522,-100,4,2,1,65,0,0
27865,-100,4,2,1,65,0,0
28036,-100,4,2,1,65,0,0
29236,-100,4,2,1,65,0,0
29579,-100,4,2,1,45,0,0
29922,-100,4,2,1,45,0,0
39865,-111.111111111111,4,2,1,50,0,0
40550,-111.111111111111,4,2,1,50,0,0
49808,-111.111111111111,4,2,1,50,0,0
50150,-111.111111111111,4,2,1,55,0,0
50665,-111.111111111111,4,2,5,55,0,0
50836,-111.111111111111,4,2,1,55,0,0
51522,-117.647058823529,4,2,1,50,0,0
51693,-117.647058823529,4,2,3,50,0,0
56665,-100,4,2,1,60,0,0
57008,-105.263157894737,4,2,1,60,0,0
57350,-105.263157894737,4,2,3,60,0,0
59750,-100,4,2,1,65,0,0
62665,-100,4,2,5,40,0,0
63179,-100,4,2,1,50,0,0
63350,-100,4,2,5,50,0,0
63522,-100,4,2,1,65,0,0
63693,-100,4,2,5,65,0,0
63865,-100,4,2,4,65,0,0
64722,-100,4,2,1,65,0,0
64893,-90.9090909090909,4,2,1,65,0,0
65236,-90.9090909090909,4,2,2,75,0,1
70379,-90.9090909090909,4,2,2,75,0,1
70722,-90.9090909090909,4,2,2,75,0,1
73465,-90.9090909090909,4,2,2,70,0,1
73979,-90.9090909090909,4,2,2,75,0,1
74665,-90.9090909090909,4,2,2,80,0,1
75865,-90.9090909090909,4,2,5,75,0,1
76036,-90.9090909090909,4,2,2,75,0,1
76208,-90.9090909090909,4,2,2,75,0,1
82465,-90.9090909090909,4,2,5,75,0,1
82722,-90.9090909090909,4,2,2,80,0,1
83065,-90.9090909090909,4,2,1,80,0,1
83408,-100,4,2,1,80,0,0
84093,-100,4,2,3,60,0,0
84436,-100,4,2,1,65,0,0
89579,-100,4,2,1,65,0,0
89922,-100,4,2,1,65,0,0
93008,-100,4,2,1,65,0,0
93350,-100,4,2,1,65,0,0
93693,-100,4,2,1,65,0,0
93865,-100,4,2,1,65,0,0
95408,-100,4,2,1,45,0,0
105522,-111.111111111111,4,2,1,50,0,0
106036,-81.3008130081301,4,2,1,50,0,0
106379,-111.111111111111,4,2,1,50,0,0
115636,-111.111111111111,4,2,1,50,0,0
115979,-111.111111111111,4,2,1,55,0,0
116493,-111.111111111111,4,2,5,55,0,0
116665,-111.111111111111,4,2,1,55,0,0
117350,-117.647058823529,4,2,1,50,0,0
117522,-117.647058823529,4,2,3,50,0,0
122836,-105.263157894737,4,2,1,60,0,0
123179,-105.263157894737,4,2,1,60,0,0
123350,-105.263157894737,4,2,3,60,0,0
125579,-100,4,2,1,65,0,0
128493,-100,4,2,4,65,0,0
129522,-100,4,2,5,40,0,0
129693,-100,4,2,4,45,0,0
129865,-100,4,2,1,50,0,0
130036,-100,4,2,1,55,0,0
130208,-100,4,2,1,60,0,0
130379,-100,4,2,1,65,0,0
130722,-90.9090909090909,4,2,1,65,0,0
131065,-90.9090909090909,4,2,2,75,0,1
136208,-90.9090909090909,4,2,2,75,0,1
136550,-90.9090909090909,4,2,2,75,0,1
139293,-90.9090909090909,4,2,2,70,0,1
139808,-90.9090909090909,4,2,2,75,0,1
140493,-90.9090909090909,4,2,2,80,0,1
142036,-90.9090909090909,4,2,2,75,0,1
148293,-90.9090909090909,4,2,5,75,0,1
148550,-90.9090909090909,4,2,2,80,0,1
148893,-90.9090909090909,4,2,1,80,0,1
149236,-100,4,2,1,80,0,0
149922,-100,4,2,1,50,0,0
150179,-100,4,2,1,5,0,0
150265,-117.647058823529,4,2,1,50,0,0
161236,-111.111111111111,4,2,1,55,0,0
169465,-100,4,2,1,75,0,0
171608,-100,4,2,5,75,0,0
171865,-100,4,2,1,75,0,0
171950,-100,4,2,5,75,0,0
172550,342.857142857143,4,2,1,65,1,0
172550,-100,4,2,1,65,0,0
177692,-100,4,2,1,65,0,0
178035,-100,4,2,1,65,0,0
181121,-100,4,2,1,65,0,0
181464,-100,4,2,1,65,0,0
181807,-100,4,2,1,65,0,0
182150,-100,4,2,1,70,0,0
182835,-100,4,2,1,70,0,0
183178,-100,4,2,1,70,0,0
183521,-95.2380952380952,4,2,1,70,0,1
192092,-95.2380952380952,4,2,1,70,0,1
192435,-95.2380952380952,4,2,1,70,0,1
192778,-95.2380952380952,4,2,1,70,0,1
193121,-95.2380952380952,4,2,1,70,0,1
193464,-95.2380952380952,4,2,1,70,0,1
194492,-100,4,2,1,50,0,0
195864,-100,4,2,1,40,0,0
205378,-100,4,2,1,5,0,0
205464,-125,4,2,1,50,0,0
206150,-125,4,2,6,50,0,0
210950,-125,4,2,1,50,0,0
211635,-125,4,2,6,50,0,0
211978,-111.111111111111,4,2,6,70,0,0
212321,-100,4,2,1,80,0,0
213178,-100,4,2,6,65,0,0
213350,-66.6666666666667,4,2,1,65,0,0
213692,-90.9090909090909,4,2,2,75,0,1
218835,-90.9090909090909,4,2,2,75,0,1
219178,-90.9090909090909,4,2,2,75,0,1
221921,-90.9090909090909,4,2,2,70,0,1
222435,-90.9090909090909,4,2,2,75,0,1
223121,-90.9090909090909,4,2,2,80,0,1
224321,-90.9090909090909,4,2,5,80,0,1
224492,-90.9090909090909,4,2,2,80,0,1
224664,-90.9090909090909,4,2,2,75,0,1
227407,-90.9090909090909,4,2,2,75,0,1
227750,-90.9090909090909,4,2,2,75,0,1
228092,-90.9090909090909,4,2,2,75,0,1
228435,-90.9090909090909,4,2,2,80,0,1
228778,-90.9090909090909,4,2,2,75,0,1
229121,-90.9090909090909,4,2,2,85,0,1
229807,-90.9090909090909,4,2,2,75,0,1
230921,-90.9090909090909,4,2,5,75,0,1
231178,-90.9090909090909,4,2,2,80,0,1
231521,-90.9090909090909,4,2,1,80,0,1
231864,-100,4,2,2,75,0,0
232207,-100,4,2,1,65,0,0
232550,-100,4,2,1,65,0,0
232892,-100,4,2,1,65,0,0
238035,-100,4,2,1,65,0,0
238378,-95.2380952380952,4,2,1,75,0,0
241464,-95.2380952380952,4,2,1,75,0,0
241807,-95.2380952380952,4,2,1,75,0,0
242150,-95.2380952380952,4,2,1,75,0,0
242492,-90.9090909090909,4,2,1,75,0,0

[Colours]
Combo1 : 248,169,202
Combo2 : 155,247,235
Combo3 : 187,160,248
Combo4 : 245,194,109

[HitObjects]
191,217,18608,6,0,P|189:148|218:115,1,106,6|8,1:2|0:0,0:0:0:0:
267,112,19122,2,0,L|439:150,1,159,2|8,0:0|0:0,0:0:0:0:
472,115,19808,1,0,0:0:0:0:
472,115,19979,2,0,P|467:155|455:286,1,159,2|2,1:2|0:0,0:0:0:0:
383,364,20836,2,0,P|322:370|288:330,1,106,2|0,1:2|0:0,0:0:0:0:
255,296,21350,6,0,P|165:322|99:341,1,159,2|2,1:2|0:0,0:0:0:0:
49,315,22036,1,2,1:2:0:0:
49,315,22208,1,2,1:2:0:0:
117,220,22550,1,0,0:0:0:0:
117,220,22722,2,0,B|103:148|100:85|100:95,1,106,2|8,1:2|0:0,0:0:0:0:
134,66,23236,2,0,P|209:48|248:54,1,106,2|2,0:0|1:2,0:0:0:0:
286,82,23750,1,14,0:1:0:0:
391,31,24093,6,0,P|441:67|446:124,1,106,6|8,1:2|0:0,0:0:0:0:
462,165,24608,2,0,P|365:182|304:202,1,159,2|8,0:0|0:0,0:0:0:0:
265,241,25293,1,2,0:0:0:0:
265,241,25465,2,0,B|232:230|213:230|213:230|190:234|163:248,1,106,2|8,1:2|0:0,0:0:0:0:
130,295,25979,1,2,0:0:0:0:
229,356,26322,2,0,P|286:345|400:323,1,159,2|2,1:2|1:2,0:0:0:0:
494,366,27179,6,0,P|495:311|504:249,1,106,12|0,0:1|1:0,0:0:0:0:
478,206,27693,1,2,1:2:0:0:
478,206,27865,2,0,P|453:144|448:93,1,106,12|0,0:0|1:0,0:0:0:0:
359,29,28550,5,12,0:0:0:0:
282,116,28893,1,8,0:0:0:0:
274,110,29065,1,8,0:3:0:0:
265,106,29236,1,6,0:3:0:0:
152,74,29579,1,6,1:1:0:0:
73,128,39865,6,0,L|16:140,2,47.6999985443115,2|0|14,3:2|1:0|0:1,0:0:0:0:
155,193,40550,6,0,P|179:200|246:157,1,95.3999970886231,6|10,1:2|0:0,0:0:0:0:
291,167,41065,2,0,L|307:62,1,95.3999970886231,2|0,0:0|1:0,0:0:0:0:
346,40,41579,1,10,0:0:0:0:
446,10,41922,1,2,1:2:0:0:
503,97,42265,2,0,P|515:137|500:198,1,95.3999970886231,10|0,0:0|3:0,0:0:0:0:
428,260,42950,2,0,L|328:277,1,95.3999970886231,10|2,0:0|1:2,0:0:0:0:
244,331,43636,6,0,L|144:312,2,95.3999970886231,10|2|10,0:0|1:2|0:0,0:0:0:0:
341,369,44665,2,0,P|388:380|451:312,1,143.099995632935,2|0,1:2|0:0,0:0:0:0:
433,269,45350,2,0,L|413:164,1,95.3999970886231,2|10,3:2|0:0,0:0:0:0:
436,126,45865,1,2,0:0:0:0:
436,126,46036,6,0,P|440:75|358:29,2,143.099995632935,2|2|10,1:2|0:0|0:0,0:0:0:0:
350,187,47408,1,2,1:2:0:0:
260,131,47750,1,10,0:0:0:0:
260,131,47922,2,0,P|188:137|108:155,1,143.099995632935,2|10,0:0|0:0,0:0:0:0:
34,214,48779,6,0,P|56:295|62:324,2,95.3999970886231,2|10|2,1:2|0:0|1:2,0:0:0:0:
107,138,49808,1,10,0:0:0:0:
38,58,50150,1,2,1:2:0:0:
134,17,50493,2,0,B|217:16|227:46|213:53|231:99|317:84,1,190.799994177246,10|4,0:0|0:3,0:0:0:0:
380,27,51522,6,0,B|420:52|451:61|451:61|431:115|418:172,2,180.200003437042,6|8|2,1:1|0:0|3:2,0:0:0:0:
380,27,53236,1,2,1:2:0:0:
303,89,53579,2,0,P|253:69|166:152,1,180.200003437042,8|2,0:0|1:2,0:0:0:0:
237,213,54608,1,2,1:0:0:0:
162,277,54950,2,0,L|31:325,2,135.150002577782,10|10|2,0:0|0:0|1:2,0:0:0:0:
162,277,56322,1,8,0:0:0:0:
246,357,56665,1,12,0:0:0:0:
342,301,57008,6,0,L|328:195,1,100.69999731102,6|10,1:1|1:2,0:0:0:0:
354,151,57522,2,0,P|368:123|295:32,1,151.04999596653,2|10,0:3|1:2,0:0:0:0:
268,69,58208,1,2,0:3:0:0:
268,69,58379,2,0,L|105:47,2,151.04999596653,2|2|8,1:2|0:3|1:2,0:0:0:0:
211,171,59750,6,0,P|152:182|104:154,1,106,6|2,1:2|1:2,0:0:0:0:
60,134,60265,2,0,L|83:304,1,159,10|2,0:3|1:2,0:0:0:0:
101,346,60950,1,10,0:3:0:0:
101,346,61122,2,0,P|139:366|217:338,1,106,6|2,1:1|1:2,0:0:0:0:
246,320,61636,1,10,0:3:0:0:
352,366,61979,2,0,L|459:341,1,106,6|8,0:3|0:3,0:0:0:0:
511,324,62493,6,0,P|521:214|440:15,1,318,2|0,1:2|1:0,0:0:0:0:
350,89,63865,2,0,L|346:149,2,53,2|2|2,1:3|0:3|1:3,0:0:0:0:
301,56,64379,2,0,L|304:3,2,53,10|0|2,0:3|0:0|1:2,0:0:0:0:
247,91,64893,1,14,0:0:0:0:
123,56,65236,6,0,P|67:74|49:133,1,116.60000355835,6|10,1:1|0:0,0:0:0:0:
146,207,65922,1,2,1:2:0:0:
65,307,66265,1,10,0:0:0:0:
65,307,66436,1,2,0:0:0:0:
175,372,66779,1,2,0:0:0:0:
175,372,66950,2,0,P|256:349|307:334,1,116.60000355835,10|0,0:0|1:0,0:0:0:0:
347,364,67465,1,0,1:0:0:0:
347,364,67636,1,10,0:0:0:0:
459,302,67979,6,0,L|524:320,2,58.3000017791748,2|2|10,1:2|0:0|0:0,0:0:0:0:
376,203,68665,2,0,P|293:217|258:227,1,116.60000355835,2|10,1:2|0:0,0:0:0:0:
220,275,69179,1,2,0:0:0:0:
101,226,69522,1,2,0:0:0:0:
147,106,69865,2,0,P|230:116|283:51,1,174.900005337524,2|12,0:0|0:1,0:0:0:0:
411,47,70722,5,6,1:2:0:0:
411,47,70893,1,2,0:0:0:0:
490,147,71236,2,0,B|508:200|516:218|516:218|492:325,1,174.900005337524,2|10,0:0|0:0,0:0:0:0:
479,377,71922,1,2,0:0:0:0:
373,303,72265,2,0,P|285:293|257:321,1,116.60000355835,2|0,0:0|1:0,0:0:0:0:
230,359,72779,1,2,1:2:0:0:
230,359,72950,1,2,1:2:0:0:
105,326,73293,5,0,0:0:0:0:
24,226,73636,1,2,1:2:0:0:
135,163,73979,1,6,1:2:0:0:
204,54,74322,1,2,1:2:0:0:
289,149,74665,1,6,1:2:0:0:
395,77,75008,1,2,1:2:0:0:
450,192,75350,2,0,P|470:245|509:365,1,174.900005337524,2|0,1:2|0:0,0:0:0:0:
378,370,76208,6,0,P|359:311|346:241,1,116.60000355835,6|8,1:2|0:0,0:0:0:0:
328,201,76722,1,2,0:0:0:0:
328,201,76893,2,0,L|340:75,1,116.60000355835,2|10,1:2|0:0,0:0:0:0:
308,27,77408,1,2,0:0:0:0:
193,83,77750,1,2,0:0:0:0:
193,83,77922,2,0,P|152:97|81:57,1,116.60000355835,8|0,0:0|1:2,0:0:0:0:
45,19,78436,1,2,1:2:0:0:
45,19,78608,1,10,0:0:0:0:
2,139,78950,6,0,L|-13:199,2,58.3000017791748,2|2|10,1:2|0:0|0:0,0:0:0:0:
102,219,79636,2,0,L|119:293,2,58.3000017791748,2|2|10,1:2|1:2|0:0,0:0:0:0:
141,168,80150,1,2,0:0:0:0:
255,226,80493,1,2,0:0:0:0:
357,148,80836,2,0,P|403:137|469:236,1,174.900005337524,2|10,0:0|0:0,0:0:0:0:
381,318,81693,6,0,L|396:378,2,58.3000017791748,6|2|10,1:1|0:0|0:0,0:0:0:0:
317,307,82208,2,0,P|245:317|129:355,1,174.900005337524,2|2,0:0|1:2,0:0:0:0:
48,288,83065,1,6,1:3:0:0:
48,288,83236,1,6,1:3:0:0:
48,288,83408,1,6,1:3:0:0:
48,288,84436,6,0,P|28:236|31:179,1,106,6|8,1:2|0:0,0:0:0:0:
66,141,84950,1,2,0:0:0:0:
66,141,85122,2,0,P|150:152|233:161,1,159,2|2,1:2|0:0,0:0:0:0:
272,127,85808,2,0,P|322:110|384:132,1,106,2|8,1:2|0:0,0:0:0:0:
407,169,86322,1,2,0:0:0:0:
335,261,86665,2,0,L|363:374,1,106,0|0,1:0|0:0,0:0:0:0:
418,363,87179,6,0,B|472:369|472:369|497:301,1,106,2|8,1:2|0:0,0:0:0:0:
501,266,87693,1,2,0:0:0:0:
501,266,87865,2,0,L|470:155,1,106,2|8,1:2|0:0,0:0:0:0:
498,50,88550,2,0,P|449:22|393:35,1,106,2|8,1:2|0:0,0:0:0:0:
374,81,89065,1,2,0:0:0:0:
266,52,89408,1,2,1:2:0:0:
266,52,89579,1,14,0:1:0:0:
194,144,89922,6,0,P|120:138|19:128,1,159,6|2,1:2|0:0,0:0:0:0:
4,79,90608,2,0,P|19:134|36:245,1,159,2|2,1:2|0:0,0:0:0:0:
12,288,91293,2,0,P|30:335|93:352,1,106,2|8,1:2|0:0,0:0:0:0:
132,329,91808,1,2,0:0:0:0:
244,358,92150,2,0,P|302:342|359:337,1,106,2|0,1:2|0:0,0:0:0:0:
402,357,92665,5,2,1:2:0:0:
479,270,93008,2,0,L|454:153,1,106,12|0,0:1|1:0,0:0:0:0:
473,110,93522,1,2,1:2:0:0:
473,110,93693,2,0,P|462:69|392:47,1,106,12|0,0:0|1:0,0:0:0:0:
317,117,94379,2,0,L|189:101,1,106,12|8,0:0|0:2,0:0:0:0:
112,42,95065,1,8,0:3:0:0:
44,137,95408,5,6,1:1:0:0:
508,380,106036,5,14,0:1:0:0:
430,308,106379,2,0,P|429:229|438:195,1,95.3999970886231,6|10,1:2|0:0,0:0:0:0:
467,173,106893,2,0,P|453:119|356:106,1,143.099995632935,2|10,0:0|0:0,0:0:0:0:
299,167,107750,1,2,1:2:0:0:
201,127,108093,2,0,L|213:24,2,95.3999970886231,10|0|10,0:0|3:0|0:0,0:0:0:0:
118,192,109122,6,0,P|88:188|25:238,1,95.3999970886231,2|10,1:2|0:0,0:0:0:0:
16,269,109636,1,0,0:0:0:0:
16,269,109808,2,0,L|36:362,1,95.3999970886231,2|10,1:2|0:0,0:0:0:0:
139,381,110493,2,0,L|119:288,1,95.3999970886231,2|8,1:2|0:0,0:0:0:0:
192,212,111179,1,2,3:2:0:0:
277,272,111522,6,0,L|268:329,2,47.6999985443116,10|0|2,0:0|0:0|1:2,0:0:0:0:
368,219,112208,1,10,0:0:0:0:
368,219,112379,2,0,L|352:118,1,95.3999970886231,2|0,0:0|1:0,0:0:0:0:
388,85,112893,2,0,L|395:30,2,47.6999985443116,8|0|2,0:0|1:0|1:2,0:0:0:0:
482,130,113579,1,10,0:0:0:0:
482,130,113750,2,0,L|496:224,1,95.3999970886231,2|0,0:0|1:0,0:0:0:0:
480,274,114265,1,10,0:0:0:0:
480,274,114436,6,0,P|401:278|354:335,1,143.099995632935,2|8,0:0|0:0,0:0:0:0:
359,321,115636,1,10,0:0:0:0:
255,300,115979,1,2,1:2:0:0:
317,215,116322,2,0,P|310:170|146:153,1,238.499992721558,10|8,0:0|0:3,0:0:0:0:
103,159,117350,6,0,B|86:200|86:200|92:228|103:249,1,90.1000017185211,6|2,1:1|1:0,0:0:0:0:
113,341,118036,2,0,B|154:358|154:358|182:352|203:341,1,90.1000017185211,8|2,0:0|1:0,0:0:0:0:
283,293,118722,2,0,B|347:282|381:303|359:314|390:350|471:332,1,180.200003437042,0|8,0:0|0:0,0:0:0:0:
456,339,120093,6,0,P|459:294|469:244,1,90.1000017185211,2|2,1:2|1:0,0:0:0:0:
512,150,120779,2,0,P|509:105|499:55,1,90.1000017185211,10|2,0:0|1:0,0:0:0:0:
411,15,121465,2,0,B|381:15|359:0|359:0|326:70|238:43,1,180.200003437042,2|8,1:0|0:0,0:0:0:0:
167,1,122493,1,8,0:0:0:0:
80,70,122836,6,0,P|68:106|77:180,1,100.69999731102,6|10,1:1|1:2,0:0:0:0:
113,205,123350,2,0,B|157:201|157:201|169:207|169:207|232:201,1,100.69999731102,2|2,0:3|0:3,0:0:0:0:
260,231,123865,1,10,1:2:0:0:
348,164,124208,2,0,P|338:118|328:58,1,100.69999731102,2|10,1:2|1:2,0:0:0:0:
361,19,124722,2,0,P|422:6|465:88,1,151.04999596653,2|8,0:3|1:2,0:0:0:0:
495,184,125579,6,0,P|482:227|461:300,1,106,6|2,1:2|1:2,0:0:0:0:
472,343,126093,2,0,P|424:339|296:318,1,159,10|2,0:3|1:2,0:0:0:0:
262,348,126779,1,10,0:3:0:0:
262,348,126950,2,0,P|209:367|158:342,1,106,6|2,1:1|1:1,0:0:0:0:
126,304,127465,1,8,0:3:0:0:
197,211,127808,2,0,B|212:182|212:182|188:110,1,106,10|8,0:3|0:3,0:0:0:0:
194,54,128322,6,0,B|297:32,1,106,2|2,1:2|1:3,0:0:0:0:
400,88,129008,2,0,B|421:191,1,106,0|2,1:0|1:3,0:0:0:0:
352,285,129693,1,2,1:2:0:0:
352,285,129865,1,10,0:3:0:0:
352,285,130036,1,2,1:2:0:0:
352,285,130208,1,10,0:3:0:0:
352,285,130379,1,10,0:0:0:0:
189,136,131065,5,6,1:1:0:0:
189,136,131236,2,0,P|151:124|81:170,1,116.60000355835,2|2,0:0|0:0,0:0:0:0:
58,216,131750,1,2,1:2:0:0:
129,322,132093,1,10,0:0:0:0:
129,322,132265,2,0,L|248:305,1,116.60000355835,2|2,0:0|0:0,0:0:0:0:
294,345,132779,2,0,L|413:366,1,116.60000355835,10|0,0:0|1:0,0:0:0:0:
457,323,133293,2,0,L|525:302,2,58.3000017791749,2|10|2,1:2|0:0|0:0,0:0:0:0:
409,279,133808,5,2,1:2:0:0:
485,176,134150,2,0,B|492:140|492:138|502:107,1,58.3000017791749,10|2,0:0|0:0,0:0:0:0:
503,55,134493,2,0,P|467:29|386:49,1,116.60000355835,2|10,1:2|0:0,0:0:0:0:
356,87,135008,2,0,P|320:113|239:93,1,116.60000355835,2|2,0:0|0:0,0:0:0:0:
208,56,135522,1,8,0:0:0:0:
208,56,135693,2,0,B|155:37|155:37|123:98|172:163,1,174.900005337525,2|12,0:0|0:1,0:0:0:0:
89,254,136550,6,0,L|18:245,2,58.3000017791749,6|2|8,1:2|0:0|0:0,0:0:0:0:
122,309,137065,2,0,P|158:349|281:330,1,174.900005337525,2|10,0:0|0:0,0:0:0:0:
349,239,137922,1,2,1:2:0:0:
349,239,138093,2,0,P|337:196|325:118,1,116.60000355835,2|0,0:0|0:0,0:0:0:0:
356,68,138608,2,0,P|404:58|432:57,2,58.3000017791749,2|2|8,1:2|1:2|0:0,0:0:0:0:
308,24,139122,5,2,0:0:0:0:
217,114,139465,1,2,1:2:0:0:
217,114,139636,1,8,3:2:0:0:
217,114,139808,2,0,P|175:131|96:100,1,116.60000355835,6|2,1:2|1:2,0:0:0:0:
84,238,140493,2,0,P|126:221|205:252,1,116.60000355835,6|2,1:2|1:2,0:0:0:0:
273,339,141179,2,0,B|328:348|358:294|337:307|371:255|430:260,1,174.900005337525,2|4,1:2|1:1,0:0:0:0:
471,142,142036,6,0,L|483:65,2,58.3000017791749,6|2|10,1:2|0:0|0:0,0:0:0:0:
407,130,142550,1,2,0:0:0:0:
407,130,142722,2,0,P|365:115|291:158,1,116.60000355835,2|10,1:2|0:0,0:0:0:0:
266,196,143236,1,2,2:2:0:0:
313,315,143579,1,2,0:0:0:0:
313,315,143750,2,0,B|288:344|253:350|253:350|231:332|206:321,1,116.60000355835,8|2,0:0|1:2,0:0:0:0:
151,312,144265,1,2,1:2:0:0:
151,312,144436,1,10,0:0:0:0:
29,353,144779,6,0,B|23:325|18:296|0:231,1,116.60000355835,2|8,1:2|0:0,0:0:0:0:
52,127,145465,2,0,L|56:60,2,58.3000017791749,2|2|10,1:2|1:2|0:0,0:0:0:0:
101,167,145979,2,0,P|140:177|210:127,1,116.60000355835,2|2,0:0|0:0,0:0:0:0:
228,81,146493,1,8,0:0:0:0:
228,81,146665,2,0,P|306:62|370:141,1,174.900005337525,2|10,0:0|0:0,0:0:0:0:
437,231,147522,6,0,L|500:250,2,58.3000017791749,6|2|10,1:1|0:0|0:0,0:0:0:0:
388,271,148036,2,0,P|288:289|209:306,1,174.900005337525,2|8,0:0|0:3,0:0:0:0:
99,357,148893,1,10,2:2:0:0:
99,357,149065,1,8,2:1:0:0:
99,357,149236,1,14,2:3:0:0:
62,159,150265,6,0,L|50:101,1,45.0500008592606,6|0,1:1|0:0,0:0:0:0:
39,67,150608,2,0,P|92:41|194:91,1,180.200003437042,2|0,1:2|1:2,0:0:0:0:
204,138,151465,1,2,0:0:0:0:
289,188,151808,1,2,0:0:0:0:
331,98,152150,1,2,0:0:0:0:
429,90,152493,1,2,0:0:0:0:
429,90,153008,6,0,P|465:127|468:216,1,135.150002577782,2|2,1:2|0:0,0:0:0:0:
415,288,153865,1,2,0:0:0:0:
329,238,154208,2,0,L|183:263,1,135.150002577782,2|0,0:0|1:2,0:0:0:0:
173,304,154893,1,2,0:0:0:0:
76,280,155236,1,2,0:0:0:0:
76,280,155750,6,0,P|65:256|56:179,1,90.1000017185211,6|2,1:2|1:2,0:0:0:0:
90,158,156265,1,2,0:0:0:0:
44,70,156608,2,0,L|1:39,2,45.0500008592606,2|0|2,0:0|1:2|0:0,0:0:0:0:
142,56,157293,2,0,L|157:-3,2,45.0500008592606,0|2|2,0:0|1:2|0:0,0:0:0:0:
193,141,157979,1,2,0:0:0:0:
115,267,158493,6,0,L|104:320,2,45.0500008592606,2|2|0,1:2|0:0|1:0,0:0:0:0:
164,260,159008,2,0,P|212:278|284:238,1,135.150002577782,2|0,0:0|1:2,0:0:0:0:
311,201,159693,2,0,P|359:183|439:218,2,135.150002577782,2|2|2,0:0|1:2|0:0,0:0:0:0:
268,175,160893,1,8,1:2:0:0:
179,230,161236,6,0,L|117:247,2,47.6999985443116,6|0|0,1:2|0:0|1:0,0:0:0:0:
210,272,161750,2,0,P|238:298|305:300,1,95.3999970886231,0|0,0:0|0:0,0:0:0:0:
337,275,162265,1,2,1:2:0:0:
337,275,162436,2,0,L|499:250,1,143.099995632935,10|2,0:3|1:2,0:0:0:0:
506,208,163122,1,2,0:0:0:0:
443,124,163465,1,10,0:3:0:0:
443,124,163979,6,0,L|444:70,2,47.6999985443116,2|10|2,1:2|0:3|1:2,0:0:0:0:
396,149,164493,2,0,P|336:146|290:76,1,143.099995632935,2|2,0:0|1:2,0:0:0:0:
302,31,165179,2,0,P|259:103|191:107,1,143.099995632935,10|10,0:3|0:3,0:0:0:0:
160,83,165865,1,10,0:3:0:0:
69,29,166208,2,0,L|60:137,1,95.3999970886231,2|8,0:0|0:3,0:0:0:0:
28,165,166722,6,0,B|45:273,1,95.3999970886231,2|0,1:2|1:0,0:0:0:0:
147,250,167408,2,0,B|164:358,1,95.3999970886231,8|2,0:0|1:2,0:0:0:0:
203,375,167922,1,10,0:3:0:0:
272,296,168265,2,0,L|280:230,2,47.6999985443116,10|2|2,0:3|1:2|0:0,0:0:0:0:
355,359,168950,1,10,0:3:0:0:
488,245,169465,6,0,P|496:198|494:182,1,53,6|10,1:2|0:3,0:0:0:0:
473,139,169808,1,2,1:2:0:0:
473,139,169979,2,0,L|307:120,1,159,10|2,0:3|1:2,0:0:0:0:
265,151,170665,5,6,1:1:0:0:
183,67,171008,1,10,0:3:0:0:
183,67,171179,1,6,0:3:0:0:
183,67,171350,1,10,0:3:0:0:
72,30,171693,2,0,P|44:46|41:168,1,159,2|0,0:0|0:0,0:0:0:0:
86,271,172550,6,0,L|204:246,1,106,6|8,1:2|0:0,0:0:0:0:
278,324,173235,2,0,L|381:345,1,106,2|8,1:2|0:0,0:0:0:0:
477,278,173921,2,0,B|489:252|489:252|488:212|465:173,1,106,2|8,1:2|0:0,0:0:0:0:
364,124,174607,2,0,B|352:150|352:150|353:190|372:223,1,106,2|8,1:2|0:0,0:0:0:0:
287,302,175292,5,2,1:2:0:0:
195,229,175635,1,10,0:0:0:0:
238,120,175978,1,2,1:2:0:0:
175,21,176321,1,10,0:0:0:0:
63,56,176664,2,0,P|28:84|20:145,1,106,2|10,1:2|0:0,0:0:0:0:
98,228,177350,1,2,1:2:0:0:
22,316,177692,1,14,0:1:0:0:
129,360,178035,6,0,P|174:369|223:326,1,106,6|8,1:2|0:0,0:0:0:0:
256,223,178721,2,0,L|241:110,1,106,2|8,1:2|0:0,0:0:0:0:
316,27,179407,2,0,B|344:8|344:8|375:26|367:75,1,106,2|8,1:2|0:0,0:0:0:0:
461,140,180092,2,0,B|443:168|443:168|474:196|475:238,1,106,2|8,1:2|0:0,0:0:0:0:
436,341,180778,5,2,1:2:0:0:
436,341,180950,1,2,1:2:0:0:
340,274,181292,1,2,0:0:0:0:
245,342,181635,1,2,1:2:0:0:
147,278,181978,1,2,0:0:0:0:
40,325,182321,2,0,P|20:276|27:219,1,106,2|0,1:0|1:0,0:0:0:0:
130,172,183007,2,0,B|113:136|113:136|117:105|159:71,1,106,2|10,0:0|0:3,0:0:0:0:
207,67,183521,6,0,L|216:4,2,55.6499983016968,6|2|10,1:2|0:0|0:0,0:0:0:0:
252,108,184035,2,0,L|264:176,2,55.6499983016968,2|2|2,0:0|1:2|1:2,0:0:0:0:
301,71,184550,2,0,L|310:8,2,55.6499983016968,10|2|2,0:0|0:0|1:2,0:0:0:0:
346,112,185064,2,0,L|358:180,2,55.6499983016968,2|10|2,0:0|0:0|0:0,0:0:0:0:
395,75,185578,1,2,1:2:0:0:
506,125,185921,2,0,P|523:170|525:184,1,55.6499983016968,10|2,0:0|0:0,0:0:0:0:
500,233,186264,6,0,B|396:246|446:291|345:300,1,166.949994905091,2|2,1:2|0:0,0:0:0:0:
250,230,187121,1,2,1:2:0:0:
158,311,187464,1,2,0:0:0:0:
49,254,187807,2,0,P|40:211|62:129,1,111.299996603394,2|2,0:0|0:0,0:0:0:0:
155,78,188492,1,2,1:2:0:0:
155,78,188664,1,14,0:1:0:0:
259,142,189007,6,0,L|326:127,2,55.6499983016968,6|2|10,1:2|0:0|0:0,0:0:0:0:
240,200,189521,2,0,L|219:265,2,55.6499983016968,2|2|2,0:0|1:2|1:2,0:0:0:0:
200,155,190035,2,0,L|153:104,2,55.6499983016968,10|2|2,0:0|0:0|1:2,0:0:0:0:
259,142,190550,2,0,L|326:127,2,55.6499983016968,2|10|2,0:0|0:0|0:0,0:0:0:0:
240,200,191064,2,0,L|114:233,1,111.299996603394,2|10,1:2|0:0,0:0:0:0:
125,358,191750,5,2,1:2:0:0:
125,358,191921,1,0,0:0:0:0:
125,358,192092,2,0,L|245:324,1,111.299996603394,14|2,0:1|1:2,0:0:0:0:
345,375,192778,1,14,0:0:0:0:
371,255,193121,2,0,L|440:266,1,55.6499983016968,2|2,1:2|1:2,0:0:0:0:
479,293,193464,2,0,P|483:246|494:163,1,111.299996603394,12|8,0:0|0:0,0:0:0:0:
506,126,193978,1,10,0:3:0:0:
506,126,194150,1,6,0:3:0:0:
438,31,194492,5,4,1:0:0:0:
438,31,205464,6,0,P|409:21|344:36,1,84.8,6|0,1:0|1:0,0:0:0:0:
310,110,206150,2,0,B|291:144|260:151|260:151|217:110|151:110,1,169.6,8|0,0:0|3:0,0:0:0:0:
88,159,207178,2,0,P|81:202|98:258,1,84.8,0|8,1:0|0:0,0:0:0:0:
89,241,208207,6,0,P|143:251|172:280,2,84.8,0|0|8,1:0|1:0|0:0,0:0:0:0:
16,182,209235,2,0,P|2:137|91:64,1,169.6,0|0,1:0|1:0,0:0:0:0:
166,102,210264,2,0,P|187:105|265:97,1,84.8,8|0,0:0|0:0,0:0:0:0:
325,45,210950,2,0,B|335:37|353:31|353:31|405:56|459:56,2,127.2,6|0|2,1:2|0:0|1:2,0:0:0:0:
359,156,212321,5,6,1:3:0:0:
376,211,212492,1,6,1:3:0:0:
388,268,212664,1,6,1:3:0:0:
388,268,213692,6,0,L|453:293,2,58.3000017791749,6|2|10,1:1|0:0|0:0,0:0:0:0:
334,304,214207,1,2,0:0:0:0:
334,304,214378,2,0,P|286:324|211:314,1,116.60000355835,2|10,1:2|0:0,0:0:0:0:
173,277,214892,2,0,L|190:145,1,116.60000355835,2|2,0:0|0:0,0:0:0:0:
160,102,215407,2,0,P|112:79|0:143,1,174.900005337525,10|0,0:0|1:0,0:0:0:0:
37,183,216092,1,10,0:0:0:0:
19,310,216435,6,0,P|-2:347|-12:373,2,58.3000017791749,2|2|10,1:2|0:0|0:0,0:0:0:0:
79,286,216950,1,2,0:0:0:0:
79,286,217121,2,0,P|180:318|210:329,1,116.60000355835,2|10,1:2|0:0,0:0:0:0:
241,360,217635,1,2,0:0:0:0:
365,328,217978,1,2,0:0:0:0:
378,200,218321,2,0,P|346:100|339:62,1,116.60000355835,2|0,0:0|1:0,0:0:0:0:
361,26,218835,1,12,0:1:0:0:
488,8,219178,6,0,P|486:53|471:133,1,116.60000355835,6|8,1:2|0:0,0:0:0:0:
499,182,219692,2,0,P|515:238|526:302,1,116.60000355835,2|0,0:0|1:0,0:0:0:0:
496,353,220207,1,10,0:0:0:0:
496,353,220378,1,2,0:0:0:0:
386,285,220721,2,0,B|320:283|292:322|317:314|299:353|219:357,1,174.900005337525,2|2,0:0|1:2,0:0:0:0:
126,285,221578,1,8,0:0:0:0:
126,285,221750,5,2,0:0:0:0:
196,178,222092,1,2,1:2:0:0:
133,65,222435,1,6,1:2:0:0:
63,172,222778,1,2,1:2:0:0:
126,285,223121,1,6,1:2:0:0:
254,285,223464,1,2,1:2:0:0:
357,360,223807,2,0,B|439:345|509:383|509:383|524:338|489:304,1,233.200007116699,2|8,1:2|0:3,0:0:0:0:
465,254,224664,6,0,P|470:217|478:175,2,58.3000017791749,6|2|10,1:2|0:0|0:0,0:0:0:0:
402,270,225178,1,2,0:0:0:0:
402,270,225350,2,0,P|379:206|368:138,1,116.60000355835,2|10,1:2|0:0,0:0:0:0:
354,95,225864,2,0,P|336:137|286:206,1,116.60000355835,2|2,0:0|0:0,0:0:0:0:
236,218,226378,2,0,B|186:188|186:188|123:215,1,116.60000355835,8|2,0:0|1:2,0:0:0:0:
17,269,227064,1,10,0:0:0:0:
116,350,227407,6,0,P|161:361|194:360,1,58.3000017791749,2|2,1:2|1:2,0:0:0:0:
227,326,227750,2,0,P|284:313|297:312,1,58.3000017791749,14|0,0:1|0:0,0:0:0:0:
339,343,228092,2,0,P|408:352|469:361,1,116.60000355835,2|14,1:2|0:0,0:0:0:0:
500,313,228607,5,2,0:0:0:0:
430,205,228950,1,2,1:2:0:0:
485,89,229292,2,0,P|468:47|335:46,1,174.900005337525,2|10,0:0|0:0,0:0:0:0:
260,119,230150,6,0,L|268:182,2,58.3000017791749,6|2|10,1:2|0:0|0:0,0:0:0:0:
210,78,230664,2,0,B|156:86|156:86|123:118|123:118|36:134,1,174.900005337525,2|2,0:0|1:2,0:0:0:0:
90,9,231521,1,6,1:3:0:0:
90,9,231692,1,6,1:3:0:0:
90,9,231864,1,6,1:3:0:0:
210,208,232550,1,14,0:1:0:0:
275,111,232892,6,0,P|342:87|382:103,1,106,6|8,1:2|0:0,0:0:0:0:
464,24,233578,2,0,B|492:38|511:58|511:58|521:119|493:170,1,159,2|0,1:2|0:0,0:0:0:0:
500,215,234264,2,0,P|460:214|393:265,1,106,2|8,1:2|0:0,0:0:0:0:
382,301,234778,1,2,0:0:0:0:
280,243,235121,1,2,1:2:0:0:
280,243,235292,1,8,0:0:0:0:
193,321,235635,6,0,P|153:347|89:341,1,106,2|8,1:2|0:0,0:0:0:0:
52,305,236150,1,2,0:0:0:0:
52,305,236321,2,0,B|17:271|17:271|50:154,1,159,2|0,1:2|0:0,0:0:0:0:
19,113,237007,6,0,P|4:84|98:12,1,159,2|2,1:2|0:0,0:0:0:0:
126,35,237692,1,0,1:0:0:0:
237,1,238035,1,14,0:1:0:0:
306,101,238378,6,0,B|373:92|440:149|376:149|415:207|502:210,3,222.599993206787,6|0|0|0,1:2|1:0|1:0|1:0,0:0:0:0:
450,326,240778,1,8,0:0:0:0:
335,295,241121,6,0,L|337:229,2,55.6499983016968,8|8|14,0:3|0:3|0:0,0:0:0:0:
224,241,241807,2,0,L|223:186,2,55.6499983016968,8|8|14,0:3|0:3|0:0,0:0:0:0:
102,282,242492,2,0,L|101:222,2,58.3000017791749,8|8|12,0:3|0:3|0:0,0:0:0:0:
19,362,243178,5,8,0:0:0:0:
19,362,243349,1,8,0:0:0:0:
19,362,243520,1,8,0:0:0:0:
19,362,243692,1,8,0:0:0:0:
19,362,243864,1,4,1:0:0:0:
