osu file format v14

[General]
AudioFilename: audio.mp3
AudioLeadIn: 0
PreviewTime: 64351
Countdown: 0
SampleSet: Soft
StackLeniency: 0.7
Mode: 3
LetterboxInBreaks: 0
SpecialStyle: 0
WidescreenStoryboard: 1

[Editor]
DistanceSpacing: 1
BeatDivisor: 3
GridSize: 4
TimelineZoom: 1.4

[Metadata]
Title:Kanransha ~Ano Hi to, Kinou to Kyou to Ashita to~
TitleUnicode:観覧車~あの日と、昨日と今日と明日と~
Artist:Duca
ArtistUnicode:Duca
Creator:atian540
Version:NM
Source:めぐる季節の約束と、つないだその手のぬくもりと
Tags:Meguru Kisetsu no Yakusoku to, Tsunaida Sono Te no Nukumori to visual novel notonoto だんでらいおん DANDELION opening Angel Note eroge Meis Clauson japanese video game short pop jpop
BeatmapID:2403600
BeatmapSetID:1151505

[Difficulty]
HPDrainRate:7
CircleSize:4
OverallDifficulty:7
ApproachRate:5
SliderMultiplier:1.4
SliderTickRate:1

[Events]
//Background and Video events
0,0,"2.jpg",0,0
//Break Periods
//Storyboard Layer 0 (Background)
//Storyboard Layer 1 (Fail)
//Storyboard Layer 2 (Pass)
//Storyboard Layer 3 (Foreground)
//Storyboard Layer 4 (Overlay)
//Storyboard Sound Samples
Sample,28865,0,"F5S_s.wav",70
Sample,30236,0,"F5S_s.wav",70
Sample,31608,0,"E5S_s.wav",70
Sample,32979,0,"A6S_s.wav",70
Sample,33665,0,"G6S_s.wav",70
Sample,34351,0,"F5S_s.wav",70
Sample,35722,0,"C6S_s.wav",70
Sample,37094,0,"E5S_s.wav",70
Sample,38465,0,"F5S_s.wav",70
Sample,63151,0,"Tom.wav",100
Sample,63322,0,"Tom.wav",100
Sample,63494,0,"Tom.wav",100
Sample,63665,0,"Tom.wav",100
Sample,82351,0,"Tom.wav",100
Sample,82522,0,"Tom.wav",100
Sample,82694,0,"Tom.wav",100
Sample,83379,0,"Tom.wav",100

[TimingPoints]
1593,375,4,2,1,50,1,0
1593,-91.743119266055,4,2,1,50,0,0
8319,375,4,2,1,50,1,0
8319,-91.743119266055,4,2,1,50,0,0
9093,413.793103448276,4,2,1,50,1,0
9093,-82.9187396351576,4,2,1,50,0,0
12580,465.116279069767,4,2,1,50,1,0
12580,-73.5294117647059,4,2,1,50,0,0
14440,461.538461538462,4,2,1,50,1,0
14440,-74.0740740740741,4,2,1,50,0,0
17209,342.857142857143,4,2,1,50,1,0
17894,342.857142857143,4,2,1,50,1,1
28865,-100,4,2,1,50,0,0
64522,-100,4,2,1,50,0,1
82351,-100,4,2,1,50,0,0

[HitObjects]
448,192,1593,128,0,2343:0:0:0:0:
64,192,1968,1,0,0:0:0:0:
192,192,2343,128,0,2718:0:0:0:0:
320,192,2718,1,0,0:0:0:0:
64,192,3093,128,0,3843:0:0:0:0:
448,192,3468,1,0,0:0:0:0:
320,192,3843,128,0,4218:0:0:0:0:
64,192,4218,1,0,0:0:0:0:
192,192,4593,128,0,5343:0:0:0:0:
448,192,4968,1,0,0:0:0:0:
64,192,5343,128,0,5718:0:0:0:0:
320,192,5718,1,0,0:0:0:0:
448,192,6093,128,0,6843:0:0:0:0:
192,192,6468,1,0,0:0:0:0:
64,192,6843,128,0,7593:0:0:0:0:
320,192,7218,1,0,0:0:0:0:
448,192,7593,128,0,8319:0:0:0:0:
64,192,7968,1,0,0:0:0:0:
320,192,8319,128,0,8694:0:0:0:0:
192,192,8694,1,0,0:0:0:0:
64,192,9093,128,0,9920:0:0:0:0:
320,192,9506,1,0,0:0:0:0:
448,192,9920,128,0,10334:0:0:0:0:
64,192,10334,1,0,0:0:0:0:
192,192,10748,128,0,11989:0:0:0:0:
448,192,12580,128,0,14440:0:0:0:0:
320,192,13510,128,0,14440:0:0:0:0:
192,192,14440,128,0,17209:0:0:0:0:
64,192,17209,128,0,17894:0:0:0:0:
320,192,17894,1,4,0:0:0:0:
448,192,17894,1,2,0:0:0:0:
64,192,18236,1,8,0:0:0:0:
192,192,18236,1,0,0:0:0:0:
320,192,18579,1,2,0:0:0:0:
448,192,18751,1,2,0:0:0:0:
192,192,18922,1,8,0:0:0:0:
320,192,18922,1,0,0:0:0:0:
64,192,19265,1,2,0:0:0:0:
320,192,19608,1,8,0:0:0:0:
448,192,19608,1,0,0:0:0:0:
64,192,19951,1,2,0:0:0:0:
192,192,20122,1,2,0:0:0:0:
64,192,20294,1,8,0:0:0:0:
320,192,20294,1,0,0:0:0:0:
448,192,20636,1,2,0:0:0:0:
64,192,20979,1,8,0:0:0:0:
192,192,20979,1,0,0:0:0:0:
320,192,21322,1,2,0:0:0:0:
192,192,21494,1,2,0:0:0:0:
64,192,21665,1,8,0:0:0:0:
448,192,21665,1,0,0:0:0:0:
192,192,22008,1,2,0:0:0:0:
320,192,22351,1,8,0:0:0:0:
448,192,22351,1,0,0:0:0:0:
192,192,22694,1,2,0:0:0:0:
320,192,22865,1,2,0:0:0:0:
64,192,23036,1,4,0:0:0:0:
448,192,23036,1,8,0:0:0:0:
192,192,23379,1,4,0:0:0:0:
320,192,23379,1,2,0:0:0:0:
64,192,23722,1,8,0:0:0:0:
448,192,23722,1,0,0:0:0:0:
192,192,24065,1,2,0:0:0:0:
64,192,24236,1,2,0:0:0:0:
192,192,24408,1,8,0:0:0:0:
320,192,24408,1,0,0:0:0:0:
448,192,24751,1,2,0:0:0:0:
64,192,25094,1,8,0:0:0:0:
192,192,25094,1,0,0:0:0:0:
448,192,25436,1,2,0:0:0:0:
320,192,25608,1,2,0:0:0:0:
64,192,25779,1,8,0:0:0:0:
448,192,25779,1,0,0:0:0:0:
192,192,26122,1,2,0:0:0:0:
64,192,26294,1,2,0:0:0:0:
320,192,26465,1,8,0:0:0:0:
448,192,26465,1,4,0:0:0:0:
192,192,26808,1,2,0:0:0:0:
320,192,26979,1,2,0:0:0:0:
64,192,27151,1,8,0:0:0:0:
448,192,27151,1,4,0:0:0:0:
320,192,27494,1,2,0:0:0:0:
448,192,27665,1,2,0:0:0:0:
64,192,27836,1,8,0:0:0:0:
192,192,27836,1,4,0:0:0:0:
320,192,28008,1,2,0:0:0:0:
192,192,28179,1,8,0:0:0:0:
448,192,28179,1,0,0:0:0:0:
64,192,28351,1,0,0:0:0:100:Tom.wav
320,192,28522,1,0,0:0:0:100:Tom.wav
64,192,28865,1,6,0:0:0:0:
448,192,28865,128,0,30236:0:0:0:60:F3S.wav
320,192,29208,1,0,0:0:0:70:C6S_s.wav
192,192,29551,1,0,0:0:0:70:F6S_s.wav
64,192,29894,1,0,0:0:0:70:C6S_s.wav
192,192,30236,128,0,31608:0:0:0:60:A#3S_Bb3S.wav
320,192,30579,1,0,0:0:0:70:C6S_s.wav
448,192,30922,1,0,0:0:0:70:F6S_s.wav
64,192,31265,1,0,0:0:0:70:C6S_s.wav
320,192,31608,128,0,32979:0:0:0:60:C4S.wav
448,192,31951,1,0,0:0:0:70:C6S_s.wav
64,192,32294,1,0,0:0:0:70:G6S_s.wav
192,192,32636,1,0,0:0:0:70:C6S_s.wav
64,192,32979,128,0,33665:0:0:0:60:F3S.wav
320,192,33322,1,0,0:0:0:70:C6S_s.wav
448,192,33665,128,0,34351:0:0:0:60:E3S.wav
192,192,34008,1,0,0:0:0:70:C6S_s.wav
64,192,34351,128,0,35722:0:0:0:60:D3S.wav
320,192,34694,1,0,0:0:0:70:C6S_s.wav
448,192,35036,1,0,0:0:0:70:F6S_s.wav
192,192,35379,1,0,0:0:0:70:C6S_s.wav
320,192,35722,128,0,37094:0:0:0:60:A#2S_Bb2S.wav
448,192,36065,1,0,0:0:0:70:F5S_s.wav
64,192,36408,1,0,0:0:0:70:F6S_s.wav
192,192,36751,1,0,0:0:0:70:C6S_s.wav
448,192,37094,128,0,38465:0:0:0:60:C3S.wav
64,192,37436,1,0,0:0:0:70:C6S_s.wav
192,192,37779,1,0,0:0:0:70:E6S_s.wav
320,192,38122,1,0,0:0:0:70:C6S_s.wav
64,192,38465,128,0,39151:0:0:0:60:C3S.wav
192,192,38808,1,0,0:0:0:70:C6S_s.wav
320,192,39151,1,0,0:0:0:70:G6S_s.wav
192,192,39322,1,2,0:0:0:0:
320,192,39494,1,8,0:0:0:0:
448,192,39494,128,0,39836:0:0:0:70:B7S_s.wav
64,192,39836,1,2,0:0:0:0:
192,192,39836,1,4,0:0:0:0:
320,192,40179,1,8,0:0:0:0:
448,192,40179,1,0,0:0:0:0:
192,192,40522,1,2,0:0:0:0:
320,192,40694,1,2,0:0:0:0:
64,192,40865,1,8,0:0:0:0:
192,192,40865,1,0,0:0:0:0:
448,192,41208,1,2,0:0:0:0:
192,192,41551,1,8,0:0:0:0:
320,192,41551,1,0,0:0:0:0:
448,192,41894,1,0,0:0:0:0:
64,192,42065,1,2,0:0:0:0:
320,192,42236,1,8,0:0:0:0:
448,192,42236,1,0,0:0:0:0:
192,192,42579,1,2,0:0:0:0:
64,192,42922,1,8,0:0:0:0:
320,192,42922,1,0,0:0:0:0:
448,192,43265,1,2,0:0:0:0:
192,192,43436,1,2,0:0:0:0:
320,192,43608,1,8,0:0:0:0:
448,192,43608,1,0,0:0:0:0:
64,192,43951,1,2,0:0:0:0:
192,192,44294,1,8,0:0:0:0:
320,192,44294,1,0,0:0:0:0:
64,192,44636,1,0,0:0:0:0:
448,192,44808,1,2,0:0:0:0:
64,192,44979,1,8,0:0:0:0:
192,192,44979,1,0,0:0:0:0:
320,192,45151,1,8,0:0:0:0:
192,192,45322,1,2,0:0:0:0:
64,192,45665,1,8,0:0:0:0:
448,192,45665,1,0,0:0:0:0:
320,192,46008,1,2,0:0:0:0:
448,192,46179,1,2,0:0:0:0:
64,192,46351,1,8,0:0:0:0:
192,192,46351,1,0,0:0:0:0:
320,192,46694,1,2,0:0:0:0:
192,192,47036,1,8,0:0:0:0:
448,192,47036,1,0,0:0:0:0:
320,192,47379,1,0,0:0:0:0:
64,192,47551,1,2,0:0:0:0:
320,192,47722,1,8,0:0:0:0:
448,192,47722,1,0,0:0:0:0:
192,192,48065,1,2,0:0:0:0:
64,192,48408,1,8,0:0:0:0:
320,192,48408,1,0,0:0:0:0:
448,192,48751,1,2,0:0:0:0:
320,192,48922,1,2,0:0:0:0:
64,192,49094,1,8,0:0:0:0:
192,192,49094,1,0,0:0:0:0:
320,192,49436,1,2,0:0:0:0:
192,192,49779,1,8,0:0:0:0:
448,192,49779,1,0,0:0:0:0:
64,192,49951,1,8,0:0:0:0:
320,192,50122,1,8,0:0:0:0:
448,192,50122,1,0,0:0:0:0:
192,192,50294,1,0,0:0:0:100:Tom.wav
320,192,50465,1,0,0:0:0:100:Tom.wav
64,192,50808,128,4,52179:0:0:0:0:
448,192,50808,1,2,0:0:0:0:
320,192,51151,1,2,0:0:0:0:
192,192,51494,1,8,0:0:0:0:
320,192,51836,1,2,0:0:0:0:
448,192,52179,128,2,53551:0:0:0:0:
64,192,52522,1,2,0:0:0:0:
320,192,52865,1,8,0:0:0:0:
192,192,53036,1,2,0:0:0:0:
64,192,53379,1,8,0:0:0:30:
192,192,53551,128,2,54922:0:0:0:0:
320,192,53894,1,2,0:0:0:0:
448,192,54236,1,8,0:0:0:0:
64,192,54579,1,2,0:0:0:0:
320,192,54922,128,2,55608:0:0:0:0:
448,192,55265,1,2,0:0:0:0:
64,192,55608,1,8,0:0:0:0:
192,192,55779,1,2,0:0:0:0:
320,192,55951,1,8,0:0:0:0:
448,192,55951,128,4,56294:0:0:0:0:
192,192,56294,1,2,0:0:0:0:
64,192,56465,1,0,0:0:0:0:
320,192,56636,1,8,0:0:0:0:
448,192,56636,1,2,0:0:0:0:
192,192,56979,1,2,0:0:0:0:
64,192,57151,1,0,0:0:0:0:
192,192,57322,1,2,0:0:0:0:
448,192,57322,1,8,0:0:0:0:
320,192,57665,1,2,0:0:0:0:
448,192,57836,1,0,0:0:0:0:
64,192,58008,1,2,0:0:0:0:
192,192,58008,1,8,0:0:0:0:
320,192,58351,1,2,0:0:0:0:
448,192,58522,1,0,0:0:0:0:
64,192,58694,1,2,0:0:0:0:
320,192,58694,1,8,0:0:0:0:
64,192,59036,1,2,0:0:0:0:
448,192,59036,1,4,0:0:0:0:
320,192,59208,1,2,0:0:0:0:
192,192,59379,1,2,0:0:0:0:
64,192,59551,1,2,0:0:0:0:
320,192,59722,1,2,0:0:0:0:
192,192,59894,1,2,0:0:0:0:
448,192,60065,1,2,0:0:0:0:
320,192,60236,1,2,0:0:0:0:
64,192,60408,1,2,0:0:0:0:
192,192,60408,1,4,0:0:0:0:
320,192,60579,1,2,0:0:0:0:
448,192,60751,1,2,0:0:0:0:
64,192,60922,1,2,0:0:0:0:
192,192,61094,1,2,0:0:0:0:
320,192,61265,1,2,0:0:0:0:
192,192,61436,1,8,0:0:0:0:
64,192,61608,1,0,0:0:0:100:Tom.wav
448,192,61779,128,10,62122:0:0:0:30:
192,192,61951,1,8,0:0:0:30:
64,192,62122,128,10,62465:0:0:0:30:
448,192,62294,1,8,0:0:0:30:
320,192,62465,128,10,62808:0:0:0:0:
64,192,62636,1,8,0:0:0:30:
192,192,62808,128,10,63151:0:0:0:30:
320,192,62979,1,8,0:0:0:30:
448,192,63151,1,2,0:0:0:0:
192,192,63322,1,2,0:0:0:0:
64,192,63494,1,2,0:0:0:0:
320,192,63665,1,2,0:0:0:0:
192,192,63836,1,0,0:0:0:0:
448,192,64008,1,2,0:0:0:0:
64,192,64179,128,8,64522:0:0:0:0:
192,192,64179,1,4,0:0:0:0:
320,192,64522,1,2,0:0:0:0:
448,192,64522,1,4,0:0:0:0:
64,192,64865,1,8,0:0:0:0:
192,192,64865,1,0,0:0:0:0:
448,192,65208,1,2,0:0:0:0:
320,192,65379,1,2,0:0:0:0:
192,192,65551,1,8,0:0:0:0:
448,192,65551,1,0,0:0:0:0:
64,192,65894,1,2,0:0:0:0:
320,192,66236,1,8,0:0:0:0:
448,192,66236,1,0,0:0:0:0:
64,192,66579,1,2,0:0:0:0:
192,192,66751,1,2,0:0:0:0:
64,192,66922,1,8,0:0:0:0:
320,192,66922,1,0,0:0:0:0:
448,192,67265,1,2,0:0:0:0:
64,192,67608,1,8,0:0:0:0:
192,192,67608,1,0,0:0:0:0:
448,192,67951,1,2,0:0:0:0:
64,192,68122,1,2,0:0:0:0:
192,192,68294,1,8,0:0:0:0:
320,192,68294,1,0,0:0:0:0:
64,192,68636,1,2,0:0:0:0:
320,192,68979,1,8,0:0:0:0:
448,192,68979,1,0,0:0:0:0:
192,192,69322,1,2,0:0:0:0:
320,192,69494,1,2,0:0:0:0:
64,192,69665,1,8,0:0:0:0:
448,192,69665,1,4,0:0:0:0:
192,192,70008,1,2,0:0:0:0:
320,192,70008,1,4,0:0:0:0:
64,192,70351,1,8,0:0:0:0:
448,192,70351,1,0,0:0:0:0:
192,192,70694,1,2,0:0:0:0:
320,192,70865,1,2,0:0:0:0:
192,192,71036,1,8,0:0:0:0:
448,192,71036,1,0,0:0:0:0:
64,192,71379,1,2,0:0:0:0:
192,192,71722,1,8,0:0:0:0:
320,192,71722,1,0,0:0:0:0:
448,192,72065,1,2,0:0:0:0:
320,192,72236,1,2,0:0:0:0:
64,192,72408,1,8,0:0:0:0:
192,192,72408,1,0,0:0:0:0:
192,192,72751,1,2,0:0:0:0:
448,192,72751,1,4,0:0:0:0:
64,192,72922,1,2,0:0:0:0:
320,192,73094,1,8,0:0:0:0:
448,192,73094,1,0,0:0:0:0:
64,192,73265,128,2,73608:0:0:0:0:
192,192,73265,1,4,0:0:0:0:
320,192,73608,1,2,0:0:0:0:
64,192,73779,1,8,0:0:0:0:
192,192,73779,1,0,0:0:0:0:
320,192,73951,128,2,74294:0:0:0:0:
448,192,73951,1,4,0:0:0:0:
64,192,74294,1,2,0:0:0:0:
320,192,74465,1,8,0:0:0:0:
448,192,74465,1,4,0:0:0:0:
192,192,74636,1,2,0:0:0:0:
64,192,74808,1,8,0:0:0:0:
320,192,74808,1,4,0:0:0:0:
448,192,74979,1,8,0:0:0:0:
64,192,75151,1,8,0:0:0:0:
192,192,75151,1,0,0:0:0:0:
320,192,75322,1,0,0:0:0:100:Tom.wav
64,192,75494,128,2,76865:0:0:0:0:
448,192,75494,1,4,0:0:0:0:
320,192,75836,1,8,0:0:0:0:
192,192,76179,1,2,0:0:0:0:
448,192,76351,1,2,0:0:0:0:
320,192,76522,1,8,0:0:0:0:
192,192,76865,128,2,77551:0:0:0:0:
320,192,77208,1,8,0:0:0:0:
448,192,77551,128,2,78236:0:0:0:0:
64,192,77722,1,2,0:0:0:0:
192,192,77894,1,8,0:0:0:0:
320,192,78236,128,2,78922:0:0:0:0:
64,192,78579,1,8,0:0:0:0:
192,192,78922,128,2,79608:0:0:0:0:
448,192,79094,1,2,0:0:0:0:
320,192,79265,1,8,0:0:0:0:
64,192,79608,128,2,80294:0:0:0:0:
320,192,79951,1,8,0:0:0:0:
192,192,80294,128,2,80979:0:0:0:0:
448,192,80465,1,2,0:0:0:0:
64,192,80636,1,8,0:0:0:0:
320,192,80979,1,2,0:0:0:0:
448,192,80979,1,4,0:0:0:0:
64,192,81322,1,8,0:0:0:0:
192,192,81322,1,0,0:0:0:0:
320,192,81665,1,10,0:0:0:50:
448,192,81836,1,8,0:0:0:50:
192,192,82008,1,10,0:0:0:50:
64,192,82179,1,8,0:0:0:50:
320,192,82351,1,2,0:0:0:0:
192,192,82522,1,2,0:0:0:0:
448,192,82694,1,2,0:0:0:0:
320,192,83379,1,2,0:0:0:0:
64,192,83722,1,4,0:0:0:0:
192,192,83722,1,2,0:0:0:0:
320,192,84065,1,8,0:0:0:0:
448,192,84065,1,0,0:0:0:0:
192,192,84408,1,2,0:0:0:0:
64,192,84579,1,2,0:0:0:0:
192,192,84751,1,8,0:0:0:0:
320,192,84751,1,0,0:0:0:0:
448,192,85094,1,2,0:0:0:0:
64,192,85436,1,8,0:0:0:0:
192,192,85436,1,0,0:0:0:0:
448,192,85779,1,2,0:0:0:0:
320,192,85951,1,2,0:0:0:0:
192,192,86122,1,8,0:0:0:0:
448,192,86122,1,0,0:0:0:0:
64,192,86465,1,2,0:0:0:0:
320,192,86808,1,8,0:0:0:0:
448,192,86808,1,0,0:0:0:0:
192,192,87151,1,2,0:0:0:0:
320,192,87322,1,2,0:0:0:0:
64,192,87494,1,8,0:0:0:0:
448,192,87494,1,0,0:0:0:0:
320,192,87836,1,2,0:0:0:0:
64,192,88179,1,8,0:0:0:0:
192,192,88179,1,0,0:0:0:0:
320,192,88522,1,2,0:0:0:0:
192,192,88694,1,2,0:0:0:0:
64,192,88865,1,8,0:0:0:0:
448,192,88865,1,4,0:0:0:0:
192,192,89208,1,4,0:0:0:0:
320,192,89208,1,2,0:0:0:0:
64,192,89551,1,8,0:0:0:0:
448,192,89551,1,0,0:0:0:0:
320,192,89894,1,2,0:0:0:0:
448,192,90065,1,2,0:0:0:0:
192,192,90236,1,8,0:0:0:0:
320,192,90236,1,0,0:0:0:0:
64,192,90579,1,2,0:0:0:0:
320,192,90922,1,8,0:0:0:0:
448,192,90922,1,0,0:0:0:0:
64,192,91265,1,2,0:0:0:0:
192,192,91436,1,2,0:0:0:0:
64,192,91608,1,8,0:0:0:0:
448,192,91608,1,0,0:0:0:0:
320,192,91951,1,2,0:0:0:0:
448,192,92122,1,2,0:0:0:0:
64,192,92294,1,8,0:0:0:0:
192,192,92294,1,4,0:0:0:0:
320,192,92636,1,2,0:0:0:0:
192,192,92808,1,2,0:0:0:0:
64,192,92979,1,8,0:0:0:0:
448,192,92979,1,4,0:0:0:0:
192,192,93322,1,2,0:0:0:0:
64,192,93494,1,2,0:0:0:0:
320,192,93665,1,8,0:0:0:0:
448,192,93665,1,4,0:0:0:0:
192,192,93836,1,2,0:0:0:0:
64,192,94008,1,8,0:0:0:0:
320,192,94008,1,4,0:0:0:0:
448,192,94179,1,8,0:0:0:30:
192,192,94351,1,8,0:0:0:30:
320,192,94522,1,8,0:0:0:30:
64,192,94694,128,2,98808:0:0:0:0:
448,192,94694,1,4,0:0:0:0:
