osu file format v14

[General]
AudioFilename: Jewel Days.mp3
AudioLeadIn: 0
PreviewTime: 62084
Countdown: 0
SampleSet: Normal
StackLeniency: 0.7
Mode: 1
LetterboxInBreaks: 0
WidescreenStoryboard: 0

[Editor]
DistanceSpacing: 1.2
BeatDivisor: 4
GridSize: 32
TimelineZoom: 1.5

[Metadata]
Title:Jewel Days
TitleUnicode:Jewel Days
Artist:Duca
ArtistUnicode:Duca
Creator:Koucha-
Version:Muzukashii
Source:ゴールデンマリッジ -Jewel Days-
Tags:Eroge Golden Marriage -Jewel Days- lotta toara_fict Canvas
BeatmapID:722758
BeatmapSetID:325382

[Difficulty]
HPDrainRate:5
CircleSize:5
OverallDifficulty:5
ApproachRate:5
SliderMultiplier:1.4
SliderTickRate:1

[Events]
//Background and Video events
0,0,"11639573_849978675081669_1407157038_o.jpg",0,0
Video,0,"ゴールデンマリッジ -Jewel Days- .avi"
//Break Periods
//Storyboard Layer 0 (Background)
//Storyboard Layer 1 (Fail)
//Storyboard Layer 2 (Pass)
//Storyboard Layer 3 (Foreground)
//Storyboard Sound Samples

[TimingPoints]
1084,333.333333333333,4,1,0,80,1,0
62417,-100,4,1,0,80,0,1
105083,-100,4,1,0,80,0,0

[HitObjects]
256,192,1084,5,0,0:0:0:0:
256,192,1417,1,0,0:0:0:0:
256,192,1751,1,8,0:0:0:0:
256,192,2084,1,0,0:0:0:0:
256,192,2251,1,0,0:0:0:0:
256,192,2584,1,0,0:0:0:0:
256,192,2751,1,0,0:0:0:0:
256,192,3083,1,8,0:0:0:0:
256,192,3751,1,0,0:0:0:0:
256,192,4084,1,0,0:0:0:0:
256,192,4417,1,8,0:0:0:0:
256,192,4751,1,0,0:0:0:0:
256,192,4917,1,8,0:0:0:0:
256,192,5251,1,8,0:0:0:0:
256,192,5417,1,0,0:0:0:0:
256,192,5751,1,8,0:0:0:0:
256,192,5917,1,0,0:0:0:0:
256,192,6084,1,0,0:0:0:0:
256,192,6167,1,0,0:0:0:0:
256,192,6251,1,0,0:0:0:0:
256,192,6417,1,12,0:0:0:0:
256,192,6751,1,8,0:0:0:0:
256,192,7084,1,8,0:0:0:0:
256,192,7251,1,0,0:0:0:0:
256,192,7417,1,0,0:0:0:0:
256,192,7584,1,8,0:0:0:0:
256,192,7917,1,0,0:0:0:0:
256,192,8084,1,8,0:0:0:0:
256,192,8251,1,0,0:0:0:0:
256,192,8584,1,8,0:0:0:0:
256,192,8750,1,0,0:0:0:0:
256,192,9084,1,0,0:0:0:0:
256,192,9417,1,8,0:0:0:0:
256,192,9751,1,8,0:0:0:0:
256,192,9917,1,0,0:0:0:0:
256,192,10251,1,8,0:0:0:0:
256,192,10584,1,0,0:0:0:0:
256,192,10751,1,8,0:0:0:0:
256,192,10917,1,0,0:0:0:0:
256,192,11251,1,8,0:0:0:0:
256,192,11417,1,0,0:0:0:0:
256,192,11751,1,8,0:0:0:0:
256,192,12084,1,0,0:0:0:0:
256,192,12417,1,0,0:0:0:0:
256,192,12584,1,0,0:0:0:0:
256,192,12751,1,0,0:0:0:0:
256,192,12917,1,8,0:0:0:0:
256,192,13251,1,0,0:0:0:0:
256,192,13417,1,8,0:0:0:0:
256,192,13584,1,0,0:0:0:0:
256,192,13917,1,8,0:0:0:0:
256,192,14084,1,8,0:0:0:0:
256,192,14251,1,0,0:0:0:0:
256,192,14417,1,8,0:0:0:0:
256,192,14751,1,0,0:0:0:0:
256,192,14917,1,8,0:0:0:0:
256,192,15251,1,0,0:0:0:0:
256,192,15417,1,8,0:0:0:0:
256,192,15584,1,0,0:0:0:0:
256,192,15667,1,0,0:0:0:0:
256,192,15751,1,0,0:0:0:0:
256,192,15917,1,8,0:0:0:0:
256,192,16251,1,0,0:0:0:0:
256,192,16417,1,8,0:0:0:0:
256,192,16751,1,0,0:0:0:0:
256,192,17084,1,8,0:0:0:0:
256,192,17167,1,8,0:0:0:0:
256,192,17251,1,8,0:0:0:0:
256,192,17417,1,0,0:0:0:0:
256,192,17584,1,8,0:0:0:0:
256,192,17917,1,0,0:0:0:0:
256,192,18084,1,8,0:0:0:0:
256,192,18251,1,0,0:0:0:0:
256,192,18417,1,0,0:0:0:0:
256,192,18584,1,8,0:0:0:0:
256,192,18917,1,0,0:0:0:0:
256,192,19001,1,0,0:0:0:0:
256,192,19084,1,0,0:0:0:0:
256,192,19251,1,0,0:0:0:0:
256,192,19417,1,8,0:0:0:0:
256,192,19751,1,12,0:0:0:0:
256,192,20417,1,0,0:0:0:0:
256,192,21084,1,8,0:0:0:0:
256,192,21584,1,4,0:0:0:0:
256,192,21917,1,4,0:0:0:0:
256,192,22251,1,12,0:0:0:0:
256,192,22751,1,0,0:0:0:0:
256,192,23084,1,8,0:0:0:0:
256,192,23251,1,0,0:0:0:0:
256,192,23584,1,8,0:0:0:0:
256,192,23917,1,0,0:0:0:0:
256,192,24084,1,8,0:0:0:0:
256,192,24251,1,0,0:0:0:0:
256,192,24584,1,8,0:0:0:0:
256,192,24667,1,8,0:0:0:0:
256,192,24751,1,8,0:0:0:0:
256,192,24917,1,8,0:0:0:0:
256,192,25084,1,0,0:0:0:0:
256,192,25417,1,8,0:0:0:0:
256,192,25751,1,0,0:0:0:0:
256,192,26084,1,8,0:0:0:0:
256,192,26417,1,0,0:0:0:0:
256,192,26751,1,0,0:0:0:0:
256,192,26917,1,0,0:0:0:0:
256,192,27084,1,8,0:0:0:0:
256,192,27751,1,8,0:0:0:0:
256,192,28084,1,0,0:0:0:0:
256,192,28251,1,12,0:0:0:0:
256,192,28584,1,12,0:0:0:0:
256,192,28917,1,4,0:0:0:0:
256,192,29251,1,8,0:0:0:0:
256,192,29417,1,0,0:0:0:0:
256,192,29584,1,0,0:0:0:0:
256,192,29751,1,8,0:0:0:0:
256,192,29917,1,0,0:0:0:0:
256,192,30084,1,8,0:0:0:0:
256,192,30167,1,8,0:0:0:0:
256,192,30251,1,8,0:0:0:0:
256,192,30417,1,0,0:0:0:0:
256,192,31084,1,8,0:0:0:0:
256,192,31751,1,0,0:0:0:0:
256,192,32251,1,4,0:0:0:0:
256,192,32584,1,4,0:0:0:0:
256,192,32917,1,12,0:0:0:0:
256,192,33417,1,0,0:0:0:0:
256,192,33751,1,8,0:0:0:0:
256,192,33917,1,0,0:0:0:0:
256,192,34251,1,8,0:0:0:0:
256,192,34584,1,8,0:0:0:0:
256,192,34751,1,0,0:0:0:0:
256,192,34917,1,8,0:0:0:0:
256,192,35251,1,0,0:0:0:0:
256,192,35417,1,0,0:0:0:0:
256,192,35583,1,8,0:0:0:0:
256,192,36251,1,8,0:0:0:0:
256,192,36417,1,0,0:0:0:0:
256,192,36751,1,0,0:0:0:0:
256,192,36834,1,0,0:0:0:0:
256,192,36917,1,0,0:0:0:0:
256,192,37084,1,8,0:0:0:0:
256,192,37417,1,0,0:0:0:0:
256,192,37584,1,8,0:0:0:0:
256,192,37917,1,0,0:0:0:0:
256,192,38251,1,8,0:0:0:0:
256,192,38417,1,8,0:0:0:0:
256,192,38751,1,8,0:0:0:0:
256,192,38917,1,4,0:0:0:0:
256,192,39251,1,12,0:0:0:0:
256,192,39584,1,4,0:0:0:0:
256,192,39917,1,8,0:0:0:0:
256,192,40084,1,0,0:0:0:0:
256,192,40251,1,0,0:0:0:0:
256,192,40417,1,8,0:0:0:0:
256,192,40584,1,0,0:0:0:0:
256,192,40751,1,8,0:0:0:0:
256,192,40834,1,8,0:0:0:0:
256,192,40917,1,8,0:0:0:0:
256,192,41084,1,0,0:0:0:0:
256,192,41583,1,0,0:0:0:0:
256,192,41751,1,8,0:0:0:0:
256,192,42083,1,0,0:0:0:0:
256,192,42416,1,8,0:0:0:0:
256,192,42750,1,0,0:0:0:0:
256,192,43084,1,8,0:0:0:0:
256,192,43417,1,8,0:0:0:0:
256,192,43751,1,0,0:0:0:0:
256,192,44084,1,0,0:0:0:0:
256,192,44417,1,8,0:0:0:0:
256,192,44751,1,0,0:0:0:0:
256,192,44917,1,0,0:0:0:0:
256,192,45250,1,8,0:0:0:0:
256,192,45417,1,0,0:0:0:0:
256,192,45751,1,8,0:0:0:0:
256,192,46084,1,8,0:0:0:0:
256,192,46417,1,0,0:0:0:0:
256,192,46751,1,0,0:0:0:0:
256,192,47251,1,0,0:0:0:0:
256,192,47584,1,12,0:0:0:0:
256,192,48084,1,8,0:0:0:0:
256,192,48251,1,4,0:0:0:0:
256,192,48584,1,8,0:0:0:0:
256,192,48917,1,0,0:0:0:0:
256,192,49084,1,12,0:0:0:0:
256,192,49417,1,0,0:0:0:0:
256,192,49751,1,8,0:0:0:0:
256,192,50084,1,0,0:0:0:0:
256,192,50417,1,0,0:0:0:0:
256,192,50751,1,8,0:0:0:0:
256,192,51084,1,8,0:0:0:0:
256,192,51167,1,8,0:0:0:0:
256,192,51251,1,8,0:0:0:0:
256,192,51417,1,8,0:0:0:0:
256,192,51584,1,0,0:0:0:0:
256,192,51751,1,0,0:0:0:0:
256,192,52084,1,8,0:0:0:0:
256,192,52251,1,0,0:0:0:0:
256,192,52584,1,0,0:0:0:0:
256,192,52751,1,8,0:0:0:0:
256,192,52917,1,0,0:0:0:0:
256,192,53251,1,8,0:0:0:0:
256,192,53417,1,0,0:0:0:0:
256,192,53584,1,8,0:0:0:0:
256,192,53917,1,0,0:0:0:0:
256,192,54084,1,0,0:0:0:0:
256,192,54417,1,8,0:0:0:0:
256,192,54751,1,0,0:0:0:0:
256,192,54917,1,8,0:0:0:0:
256,192,55251,1,0,0:0:0:0:
256,192,55584,1,8,0:0:0:0:
256,192,55917,1,0,0:0:0:0:
256,192,56083,1,8,0:0:0:0:
256,192,56417,1,8,0:0:0:0:
256,192,56583,1,0,0:0:0:0:
256,192,56751,1,8,0:0:0:0:
256,192,56917,1,0,0:0:0:0:
256,192,57084,1,8,0:0:0:0:
256,192,57417,1,0,0:0:0:0:
256,192,57751,1,0,0:0:0:0:
256,192,57917,1,0,0:0:0:0:
256,192,58001,1,0,0:0:0:0:
256,192,58084,1,0,0:0:0:0:
256,192,58251,1,8,0:0:0:0:
256,192,58584,1,0,0:0:0:0:
256,192,58751,1,8,0:0:0:0:
256,192,59084,1,0,0:0:0:0:
256,192,59417,1,8,0:0:0:0:
256,192,59751,1,0,0:0:0:0:
256,192,60084,1,0,0:0:0:0:
256,192,60417,1,8,0:0:0:0:
256,192,60751,1,8,0:0:0:0:
256,192,60917,1,0,0:0:0:0:
256,192,61250,1,8,0:0:0:0:
256,192,61417,1,0,0:0:0:0:
256,192,61584,1,0,0:0:0:0:
256,192,61750,1,0,0:0:0:0:
256,192,61917,1,0,0:0:0:0:
256,192,62417,1,12,0:0:0:0:
256,192,62751,1,8,0:0:0:0:
256,192,62917,1,0,0:0:0:0:
256,192,63251,1,8,0:0:0:0:
256,192,63584,1,0,0:0:0:0:
256,192,63751,1,8,0:0:0:0:
256,192,63917,1,0,0:0:0:0:
256,192,64001,1,0,0:0:0:0:
256,192,64084,1,0,0:0:0:0:
256,192,64251,1,12,0:0:0:0:
256,192,64584,1,12,0:0:0:0:
256,192,64917,1,4,0:0:0:0:
256,192,65251,1,8,0:0:0:0:
256,192,65417,1,8,0:0:0:0:
256,192,65584,1,0,0:0:0:0:
256,192,65667,1,0,0:0:0:0:
256,192,65751,1,0,0:0:0:0:
256,192,65917,1,0,0:0:0:0:
256,192,66251,1,8,0:0:0:0:
256,192,66417,1,0,0:0:0:0:
256,192,66584,1,0,0:0:0:0:
256,192,66751,1,8,0:0:0:0:
256,192,66917,1,8,0:0:0:0:
256,192,67251,1,0,0:0:0:0:
256,192,67584,1,12,0:0:0:0:
256,192,67917,1,0,0:0:0:0:
256,192,68001,1,0,0:0:0:0:
256,192,68084,1,0,0:0:0:0:
256,192,68251,1,8,0:0:0:0:
256,192,68417,1,0,0:0:0:0:
256,192,68751,1,8,0:0:0:0:
256,192,69084,1,0,0:0:0:0:
256,192,69417,1,8,0:0:0:0:
256,192,69584,1,0,0:0:0:0:
256,192,69917,1,8,0:0:0:0:
256,192,70084,1,0,0:0:0:0:
256,192,70251,1,8,0:0:0:0:
256,192,70584,1,0,0:0:0:0:
256,192,70751,1,0,0:0:0:0:
256,192,70917,1,0,0:0:0:0:
256,192,71084,1,8,0:0:0:0:
256,192,71417,1,0,0:0:0:0:
256,192,71501,1,0,0:0:0:0:
256,192,71584,1,0,0:0:0:0:
256,192,71751,1,8,0:0:0:0:
256,192,72084,1,0,0:0:0:0:
256,192,72167,1,0,0:0:0:0:
256,192,72251,1,0,0:0:0:0:
256,192,72417,1,8,0:0:0:0:
256,192,72584,1,8,0:0:0:0:
256,192,72751,1,0,0:0:0:0:
256,192,73084,1,12,0:0:0:0:
256,192,73417,1,0,0:0:0:0:
256,192,73584,1,8,0:0:0:0:
256,192,73917,1,4,0:0:0:0:
256,192,74251,1,12,0:0:0:0:
256,192,74584,1,8,0:0:0:0:
256,192,74751,1,0,0:0:0:0:
256,192,74917,1,8,0:0:0:0:
256,192,75001,1,8,0:0:0:0:
256,192,75084,1,8,0:0:0:0:
256,192,75251,1,0,0:0:0:0:
256,192,75417,1,0,0:0:0:0:
256,192,75751,1,12,0:0:0:0:
256,192,76084,1,0,0:0:0:0:
256,192,76251,1,8,0:0:0:0:
256,192,76584,1,12,0:0:0:0:
256,192,76917,1,4,0:0:0:0:
256,192,77251,1,0,0:0:0:0:
256,192,77334,1,0,0:0:0:0:
256,192,77417,1,0,0:0:0:0:
256,192,77583,1,0,0:0:0:0:
256,192,77751,1,8,0:0:0:0:
256,192,77917,1,0,0:0:0:0:
256,192,78084,1,8,0:0:0:0:
256,192,78167,1,8,0:0:0:0:
256,192,78251,1,8,0:0:0:0:
256,192,78417,1,12,0:0:0:0:
256,192,78751,1,0,0:0:0:0:
256,192,79084,1,8,0:0:0:0:
256,192,79417,1,0,0:0:0:0:
256,192,79751,1,8,0:0:0:0:
256,192,80084,1,0,0:0:0:0:
256,192,80417,1,0,0:0:0:0:
256,192,80501,1,0,0:0:0:0:
256,192,80584,1,0,0:0:0:0:
256,192,80751,1,8,0:0:0:0:
256,192,80917,1,8,0:0:0:0:
256,192,81084,1,0,0:0:0:0:
256,192,81751,1,8,0:0:0:0:
256,192,82417,1,0,0:0:0:0:
256,192,82584,1,0,0:0:0:0:
256,192,82751,1,8,0:0:0:0:
256,192,82917,1,0,0:0:0:0:
256,192,83084,1,8,0:0:0:0:
256,192,83251,1,0,0:0:0:0:
256,192,83417,1,8,0:0:0:0:
256,192,83501,1,8,0:0:0:0:
256,192,83584,1,8,0:0:0:0:
256,192,83751,1,12,0:0:0:0:
256,192,84084,1,0,0:0:0:0:
256,192,84251,1,8,0:0:0:0:
256,192,84584,1,8,0:0:0:0:
256,192,84917,1,0,0:0:0:0:
256,192,85084,1,0,0:0:0:0:
256,192,85251,1,8,0:0:0:0:
256,192,85334,1,8,0:0:0:0:
256,192,85417,1,8,0:0:0:0:
256,192,85584,1,12,0:0:0:0:
256,192,85917,1,12,0:0:0:0:
256,192,86251,1,4,0:0:0:0:
256,192,86584,1,0,0:0:0:0:
256,192,86667,1,0,0:0:0:0:
256,192,86751,1,0,0:0:0:0:
256,192,86917,1,8,0:0:0:0:
256,192,87084,1,8,0:0:0:0:
256,192,87251,1,0,0:0:0:0:
256,192,87584,1,0,0:0:0:0:
256,192,87751,1,0,0:0:0:0:
256,192,88083,1,8,0:0:0:0:
256,192,88250,1,0,0:0:0:0:
256,192,88584,1,0,0:0:0:0:
256,192,88751,1,0,0:0:0:0:
256,192,88917,1,8,0:0:0:0:
256,192,89417,1,8,0:0:0:0:
256,192,89583,1,8,0:0:0:0:
256,192,89751,1,0,0:0:0:0:
256,192,90251,1,0,0:0:0:0:
256,192,90417,1,0,0:0:0:0:
256,192,90751,1,0,0:0:0:0:
256,192,90917,1,8,0:0:0:0:
256,192,91251,1,0,0:0:0:0:
256,192,91584,1,8,0:0:0:0:
256,192,91917,1,8,0:0:0:0:
256,192,92084,1,0,0:0:0:0:
256,192,92251,1,8,0:0:0:0:
256,192,92417,1,0,0:0:0:0:
256,192,92501,1,0,0:0:0:0:
256,192,92584,1,0,0:0:0:0:
256,192,92751,1,0,0:0:0:0:
256,192,93084,1,8,0:0:0:0:
256,192,93167,1,8,0:0:0:0:
256,192,93251,1,8,0:0:0:0:
256,192,93417,1,8,0:0:0:0:
256,192,93584,1,0,0:0:0:0:
256,192,93751,1,0,0:0:0:0:
256,192,94084,1,0,0:0:0:0:
256,192,94251,1,0,0:0:0:0:
256,192,94417,1,12,0:0:0:0:
256,192,94751,1,0,0:0:0:0:
256,192,94917,1,8,0:0:0:0:
256,192,95251,1,12,0:0:0:0:
256,192,95584,1,4,0:0:0:0:
256,192,95917,1,8,0:0:0:0:
256,192,96001,1,8,0:0:0:0:
256,192,96084,1,8,0:0:0:0:
256,192,96251,1,8,0:0:0:0:
256,192,96417,1,0,0:0:0:0:
256,192,96584,1,0,0:0:0:0:
256,192,96751,1,0,0:0:0:0:
256,192,97084,1,12,0:0:0:0:
256,192,97417,1,0,0:0:0:0:
256,192,97584,1,0,0:0:0:0:
256,192,97917,1,4,0:0:0:0:
256,192,98251,1,12,0:0:0:0:
256,192,98584,1,0,0:0:0:0:
256,192,98667,1,0,0:0:0:0:
256,192,98751,1,0,0:0:0:0:
256,192,99084,1,8,0:0:0:0:
256,192,99251,1,0,0:0:0:0:
256,192,99417,1,8,0:0:0:0:
256,192,99584,1,0,0:0:0:0:
256,192,99751,1,8,0:0:0:0:
256,192,99917,1,8,0:0:0:0:
256,192,100084,1,0,0:0:0:0:
256,192,100417,1,0,0:0:0:0:
256,192,100751,1,8,0:0:0:0:
256,192,101084,1,0,0:0:0:0:
256,192,101417,1,8,0:0:0:0:
256,192,101751,1,0,0:0:0:0:
256,192,102084,1,0,0:0:0:0:
256,192,102250,1,0,0:0:0:0:
256,192,102417,1,8,0:0:0:0:
256,192,102751,1,0,0:0:0:0:
256,192,103084,1,8,0:0:0:0:
256,192,103250,1,0,0:0:0:0:
256,192,103417,1,0,0:0:0:0:
256,192,103584,1,8,0:0:0:0:
256,192,103917,1,8,0:0:0:0:
256,192,104084,1,0,0:0:0:0:
256,192,104250,1,0,0:0:0:0:
256,192,104417,1,8,0:0:0:0:
256,192,104583,1,0,0:0:0:0:
256,192,104751,1,8,0:0:0:0:
256,192,104917,1,8,0:0:0:0:
256,192,105083,1,12,0:0:0:0:
256,192,105417,1,8,0:0:0:0:
256,192,105750,1,8,0:0:0:0:
256,192,105917,1,0,0:0:0:0:
256,192,106083,1,0,0:0:0:0:
256,192,106250,1,8,0:0:0:0:
256,192,106583,1,0,0:0:0:0:
256,192,106750,1,8,0:0:0:0:
256,192,106917,1,0,0:0:0:0:
256,192,107250,1,8,0:0:0:0:
256,192,107416,1,0,0:0:0:0:
256,192,107750,1,0,0:0:0:0:
256,192,108083,1,8,0:0:0:0:
256,192,108417,1,8,0:0:0:0:
256,192,108583,1,0,0:0:0:0:
256,192,108917,1,8,0:0:0:0:
256,192,109250,1,0,0:0:0:0:
256,192,109417,1,8,0:0:0:0:
256,192,109583,1,0,0:0:0:0:
256,192,109917,1,8,0:0:0:0:
256,192,110083,1,0,0:0:0:0:
256,192,110417,1,8,0:0:0:0:
256,192,110750,1,0,0:0:0:0:
256,192,111083,1,0,0:0:0:0:
256,192,111250,1,0,0:0:0:0:
256,192,111417,1,0,0:0:0:0:
256,192,111583,1,8,0:0:0:0:
256,192,111917,1,8,0:0:0:0:
256,192,112083,1,8,0:0:0:0:
256,192,112250,1,0,0:0:0:0:
256,192,112583,1,8,0:0:0:0:
256,192,112750,1,8,0:0:0:0:
256,192,112917,1,0,0:0:0:0:
256,192,113083,1,8,0:0:0:0:
256,192,113417,1,0,0:0:0:0:
256,192,113583,1,8,0:0:0:0:
256,192,113917,1,0,0:0:0:0:
256,192,114083,1,8,0:0:0:0:
256,192,114250,1,0,0:0:0:0:
256,192,114333,1,0,0:0:0:0:
256,192,114417,1,0,0:0:0:0:
256,192,114583,1,8,0:0:0:0:
256,192,114917,1,0,0:0:0:0:
256,192,115083,1,8,0:0:0:0:
256,192,115417,1,0,0:0:0:0:
256,192,115750,1,8,0:0:0:0:
256,192,115833,1,8,0:0:0:0:
256,192,115917,1,8,0:0:0:0:
256,192,116083,1,0,0:0:0:0:
256,192,116250,1,8,0:0:0:0:
256,192,116583,1,8,0:0:0:0:
256,192,116750,1,8,0:0:0:0:
256,192,116917,1,0,0:0:0:0:
256,192,117083,1,0,0:0:0:0:
256,192,117250,1,8,0:0:0:0:
256,192,117583,1,0,0:0:0:0:
256,192,117667,1,0,0:0:0:0:
256,192,117750,1,0,0:0:0:0:
256,192,117917,1,0,0:0:0:0:
256,192,118083,1,8,0:0:0:0:
256,192,118417,12,0,121417,0:0:0:0:
