osu file format v14

[General]
AudioFilename: audio.mp3
AudioLeadIn: 0
PreviewTime: 62534
Countdown: 0
SampleSet: Soft
StackLeniency: 0.7
Mode: 0
LetterboxInBreaks: 0
WidescreenStoryboard: 0

[Editor]
DistanceSpacing: 1.2
BeatDivisor: 4
GridSize: 4
TimelineZoom: 1

[Metadata]
Title:Jewel Days
TitleUnicode:Jewel Days
Artist:Duca
ArtistUnicode:Duca
Creator:0109-
Version:Normal
Source:Golden Marriage -Jewel Days-
Tags:visual novel eroge lotta ensemble ゴールデンマリッジ ジュエルデイズ asaiga yamicchi
BeatmapID:1047632
BeatmapSetID:491650

[Difficulty]
HPDrainRate:4
CircleSize:3.2
OverallDifficulty:4
ApproachRate:5.5
SliderMultiplier:1
SliderTickRate:1

[Events]
//Background and Video events
0,0,"83487.jpg",0,0
//Break Periods
//Storyboard Layer 0 (Background)
//Storyboard Layer 1 (Fail)
//Storyboard Layer 2 (Pass)
//Storyboard Layer 3 (Foreground)
//Storyboard Sound Samples

[TimingPoints]
1201,333.333333333333,4,2,2,70,1,0
19867,-100,4,2,2,55,0,0
20867,-100,4,2,2,70,0,0
30534,-100,4,2,2,55,0,0
31534,-100,4,2,2,70,0,0
62534,-100,4,2,2,70,0,1
78534,-100,4,2,2,70,0,0
83867,-100,4,2,2,70,0,1
99867,-100,4,2,2,70,0,0
125200,-100,4,2,2,5,0,0

[Colours]
Combo1 : 81,168,255
Combo2 : 255,222,155
Combo3 : 255,71,32
Combo4 : 0,196,196

[HitObjects]
76,104,6534,6,0,P|128:96|184:108,1,100,6|8,0:0|0:0,0:0:0:0:
292,108,7200,2,0,P|336:116|400:104,1,100,0|8,3:0|0:0,0:0:0:0:
432,64,7700,2,0,L|432:224,1,150,6|8,0:0|0:0,0:0:0:0:
476,324,8534,2,0,P|420:332|376:320,1,100,0|8,3:0|0:0,0:0:0:0:
292,240,9200,6,0,L|292:136,2,100,14|8|0,0:0|0:0|3:0,0:0:0:0:
200,316,10200,1,8,0:0:0:0:
140,308,10367,2,0,P|120:244|148:160,1,150,6|8,0:0|0:0,0:0:0:0:
208,68,11200,2,0,P|160:52|108:56,1,100,8|8,0:0|0:0,0:0:0:0:
43,159,11867,6,0,L|155:167,1,100,14|8,0:0|0:0,0:0:0:0:
264,168,12534,2,0,L|372:156,1,100,0|8,3:0|0:0,0:0:0:0:
424,148,13034,2,0,P|448:208|424:296,1,150,6|8,0:0|0:0,0:0:0:0:
368,296,13700,2,0,L|216:312,1,150,6|8,0:0|0:0,0:0:0:0:
108,360,14534,6,0,P|100:304|112:256,1,100,14|0,0:0|0:0,0:0:0:0:
160,228,15034,2,0,P|168:172|152:120,1,100,14|0,0:0|0:0,0:0:0:0:
124,80,15534,2,0,L|232:80,1,100,14|0,0:0|0:0,0:0:0:0:
276,48,16034,2,0,L|392:48,1,100,14|0,0:0|0:0,0:0:0:0:
432,28,16534,1,10,0:0:0:0:
476,140,16867,1,10,0:0:0:0:
440,252,17200,6,0,L|324:252,1,100,14|0,0:0|0:0,0:0:0:0:
288,224,17700,2,0,L|188:224,1,100,14|0,0:0|0:0,0:0:0:0:
128,220,18200,2,0,P|120:276|128:328,1,100,14|0,0:0|0:0,0:0:0:0:
180,340,18700,2,0,P|240:332|288:348,1,100,14|0,0:0|0:0,0:0:0:0:
332,368,19200,1,14,0:0:0:0:
452,368,19534,1,10,0:0:0:0:
448,248,19867,6,0,B|440:184|488:108|488:108|452:56|336:64,1,300,6|2,0:0|0:0,0:0:0:0:
240,16,21200,2,0,P|232:72|240:116,1,100,6|8,0:0|0:0,0:0:0:0:
272,164,21700,2,0,L|160:164,2,100,2|2|6,3:0|3:0|0:0,0:0:0:0:
392,164,22700,1,0,0:0:0:0:
436,204,22867,2,0,P|444:256|432:316,1,100,8|8,0:0|0:0,0:0:0:0:
400,348,23367,1,8,0:0:0:0:
284,320,23700,6,0,B|232:336|236:308|168:328,1,100,6|0,0:0|0:0,0:0:0:0:
136,356,24200,1,8,0:0:0:0:
88,324,24367,2,0,L|88:168,1,150,6|8,0:0|0:0,0:0:0:0:
68,116,25034,1,10,0:0:0:0:
76,56,25200,6,0,P|136:48|176:60,1,100,14|8,0:0|0:0,0:0:0:0:
288,88,25867,2,0,P|348:100|392:88,1,100,2|8,0:0|0:0,0:0:0:0:
484,24,26534,1,2,0:0:0:0:
496,144,26867,1,8,0:0:0:0:
424,240,27200,1,2,0:0:0:0:
336,160,27534,1,8,0:0:0:0:
224,116,27867,6,0,P|216:172|232:224,1,100,14|10,0:0|0:0,0:0:0:0:
268,256,28367,2,0,P|276:312|264:360,2,100,2|2|6,0:0|0:0|0:0,0:0:0:0:
156,304,29367,1,0,3:0:0:0:
104,272,29534,2,0,L|96:220,1,50,8|0,0:0|0:0,0:0:0:0:
60,176,29867,2,0,L|68:116,1,50,12|0,0:0|3:0,0:0:0:0:
112,88,30200,2,0,L|124:28,1,50,8|8,0:0|0:0,0:0:0:0:
156,0,30534,6,0,B|360:4|360:4|292:80,1,300,14|2,0:0|0:0,0:0:0:0:
244,184,31867,2,0,P|288:196|348:184,1,100,6|8,0:0|0:0,0:0:0:0:
400,204,32367,2,0,L|400:308,2,100,2|2|6,3:0|3:0|0:0,0:0:0:0:
464,100,33367,1,0,0:0:0:0:
412,68,33534,2,0,L|308:68,1,100,8|0,0:0|3:0,0:0:0:0:
264,28,34034,1,0,3:0:0:0:
144,12,34367,6,0,L|140:120,1,100,6|0,0:0|0:0,0:0:0:0:
160,172,34867,1,10,0:0:0:0:
160,172,35034,2,0,P|212:184|276:168,1,100,6|6,0:0|0:0,0:0:0:0:
292,128,35534,1,10,0:0:0:0:
352,140,35700,6,0,L|352:256,1,100,6|0,0:0|0:0,0:0:0:0:
320,292,36200,1,8,0:0:0:0:
208,332,36534,2,0,P|140:328|100:332,1,100,2|8,0:0|0:0,0:0:0:0:
28,244,37200,2,0,P|20:192|36:144,1,100,2|10,0:0|0:0,0:0:0:0:
88,120,37700,2,0,L|192:120,1,100,6|0,0:0|0:0,0:0:0:0:
232,164,38200,1,8,0:0:0:0:
344,124,38534,6,0,P|352:184|336:228,1,100,6|8,0:0|0:0,0:0:0:0:
292,256,39034,2,0,L|176:256,2,100,2|2|6,0:0|0:0|0:0,0:0:0:0:
396,316,40034,1,0,0:0:0:0:
452,292,40200,2,0,P|472:244|476:192,1,100,8|8,0:0|0:0,0:0:0:0:
464,136,40700,1,8,0:0:0:0:
408,112,40867,2,0,P|380:100|360:80,1,50,8|8,0:0|3:0,0:0:0:0:
324,44,41200,6,0,L|216:44,1,100,6|8,0:0|0:0,0:0:0:0:
128,116,41867,2,0,L|64:116,2,50,2|0|8,0:0|3:0|0:0,0:0:0:0:
220,196,42534,2,0,L|336:196,1,100,2|10,0:0|0:0,0:0:0:0:
416,124,43200,2,0,L|480:124,2,50,2|0|10,0:0|3:0|0:0,0:0:0:0:
320,196,43867,6,0,P|312:252|320:300,1,100,2|8,0:0|0:0,0:0:0:0:
364,336,44367,1,2,0:0:0:0:
364,336,44534,2,0,L|424:336,2,50,2|0|8,0:0|3:0|0:0,0:0:0:0:
244,332,45200,6,0,P|184:328|136:332,1,100,2|8,0:0|0:0,0:0:0:0:
32,292,45867,2,0,L|24:344,2,50,2|2|10,0:0|3:0|0:0,0:0:0:0:
92,188,46534,6,0,P|84:132|96:88,1,100,2|8,0:0|0:0,0:0:0:0:
204,44,47200,2,0,L|316:44,1,100,0|8,0:0|0:0,0:0:0:0:
364,28,47700,2,0,P|372:88|360:128,1,100,6|0,0:0|0:0,0:0:0:0:
324,172,48200,1,10,0:0:0:0:
324,172,48367,2,0,P|316:240|328:280,1,100,6|0,0:0|0:0,0:0:0:0:
352,324,48867,2,0,P|356:360|352:380,1,50,8|8,0:0|0:0,0:0:0:0:
292,376,49200,6,0,P|236:384|192:376,1,100,6|0,0:0|0:0,0:0:0:0:
112,288,49867,2,0,L|108:180,1,100,10|0,0:0|0:0,0:0:0:0:
192,104,50534,2,0,L|196:212,2,100,2|0|10,0:0|0:0|0:0,0:0:0:0:
272,16,51534,2,0,P|304:36|332:44,1,50,8|8,0:0|0:0,0:0:0:0:
376,48,51867,6,0,P|388:104|380:152,1,100,6|10,0:0|0:0,0:0:0:0:
280,212,52534,2,0,P|240:212|216:212,2,50,0|0|8,3:0|3:0|3:2,0:0:0:0:
336,236,53034,2,0,P|385:247|441:228,1,100,6|0,0:0|0:0,0:0:0:0:
480,200,53534,1,10,0:0:0:0:
448,84,53867,2,0,L|456:24,2,50,0|0|10,3:0|3:0|3:2,0:0:0:0:
337,139,54534,6,0,P|325:191|341:247,1,100,6|10,0:0|0:0,0:0:0:0:
376,280,55034,2,0,L|272:280,1,100,0|2,0:0|3:0,0:0:0:0:
232,316,55534,1,8,3:2:0:0:
232,316,55700,6,0,P|164:312|120:320,1,100,6|0,0:0|0:0,0:0:0:0:
84,352,56200,1,8,0:0:0:0:
28,244,56534,2,0,P|16:192|28:140,1,100,2|10,3:0|3:2,0:0:0:0:
52,92,57034,1,8,0:0:0:0:
108,72,57200,6,0,L|224:72,2,100,6|8|0,0:0|0:0|0:0,0:0:0:0:
52,92,58034,1,10,0:0:0:0:
152,156,58367,2,0,P|208:164|264:148,1,100,10|0,0:0|3:0,0:0:0:0:
300,124,58867,1,10,0:0:0:0:
392,200,59200,2,0,P|440:192|496:200,1,100,10|8,0:0|0:0,0:0:0:0:
496,260,59700,1,8,0:0:0:0:
492,320,59867,6,0,P|440:328|384:316,1,100,6|8,0:0|0:0,0:0:0:0:
280,284,60534,2,0,P|220:280|180:288,1,100,8|8,0:0|0:0,0:0:0:0:
132,324,61034,2,0,L|124:212,1,100,6|0,0:0|0:0,0:0:0:0:
76,192,61534,2,0,L|64:124,1,50,8|0,0:0|0:0,0:0:0:0:
96,92,61867,2,0,L|100:24,1,50,2|2,3:0|3:0,0:0:0:0:
280,44,62534,6,0,P|340:36|392:48,1,100,6|10,0:0|0:0,0:0:0:0:
420,88,63034,2,0,L|420:200,1,100,2|2,0:0|3:0,0:0:0:0:
444,244,63534,1,8,0:0:0:0:
360,328,63867,6,0,P|304:336|248:324,1,100,2|10,0:0|0:0,0:0:0:0:
208,300,64367,2,0,P|156:292|100:300,2,100,6|6|6,3:0|3:0|0:0,0:0:0:0:
300,224,65367,1,0,0:0:0:0:
324,168,65534,6,0,L|324:68,1,100,8|0,0:0|3:0,0:0:0:0:
212,20,66200,1,8,0:0:0:0:
108,80,66534,2,0,P|100:132|108:188,1,100,6|8,0:0|0:0,0:0:0:0:
140,228,67034,2,0,P|148:280|136:332,2,100,2|2|6,3:0|3:0|0:0,0:0:0:0:
260,232,68034,1,0,0:0:0:0:
312,264,68200,6,0,L|420:264,1,100,8|2,0:0|3:0,0:0:0:0:
504,188,68867,1,8,0:0:0:0:
456,76,69200,2,0,L|356:76,1,100,2|10,0:0|0:0,0:0:0:0:
304,44,69700,2,0,L|196:44,2,100,2|2|6,3:0|3:0|0:0,0:0:0:0:
304,164,70700,1,0,0:0:0:0:
248,184,70867,6,0,P|240:244|252:288,1,100,8|0,0:0|3:0,0:0:0:0:
352,340,71534,1,8,0:0:0:0:
452,272,71867,2,0,P|464:220|452:168,1,100,2|10,0:0|0:0,0:0:0:0:
376,84,72534,2,0,P|324:72|272:84,1,100,2|8,3:0|0:0,0:0:0:0:
168,32,73200,6,0,P|156:84|176:140,1,100,6|10,0:0|0:0,0:0:0:0:
208,172,73700,2,0,P|216:224|208:280,2,100,2|2|6,3:0|3:0|0:0,0:0:0:0:
88,188,74700,1,0,0:0:0:0:
40,152,74867,2,0,L|40:48,1,100,8|0,0:0|3:0,0:0:0:0:
160,32,75534,1,8,0:0:0:0:
280,36,75867,6,0,P|288:88|276:140,1,100,6|10,0:0|0:0,0:0:0:0:
244,184,76367,2,0,L|360:184,2,100,2|2|6,3:0|3:0|0:0,0:0:0:0:
172,280,77367,1,0,0:0:0:0:
220,316,77534,2,0,P|280:320|328:312,1,100,8|8,0:0|0:0,0:0:0:0:
412,240,78200,2,0,P|424:208|444:184,1,50,8|0,0:0|0:0,0:0:0:0:
480,160,78534,6,0,L|480:44,2,100,6|8|2,0:0|0:0|0:0,0:0:0:0:
376,100,79534,1,8,0:0:0:0:
264,64,79867,2,0,P|208:60|152:72,2,100,0|8|2,0:0|0:0|0:0,0:0:0:0:
216,176,80867,1,10,0:0:0:0:
100,144,81200,6,0,P|96:192|116:244,1,100,6|0,0:0|0:0,0:0:0:0:
216,304,81867,2,0,P|264:316|312:304,1,100,2|0,0:0|0:0,0:0:0:0:
424,260,82534,2,0,L|472:232,2,50,2|8|2,0:0|0:0|0:0,0:0:0:0:
380,148,83200,2,0,L|320:148,1,50,10|10,0:0|0:0,0:0:0:0:
296,96,83534,2,0,L|240:96,1,50,8|8,0:0|0:0,0:0:0:0:
200,60,83867,6,0,P|136:56|88:64,1,100,6|8,0:0|0:0,0:0:0:0:
64,108,84367,2,0,L|64:216,1,100,2|2,0:0|3:0,0:0:0:0:
104,252,84867,1,8,0:0:0:0:
196,328,85200,6,0,P|248:320|300:328,1,100,2|10,0:0|0:0,0:0:0:0:
352,344,85700,2,0,P|408:348|456:340,2,100,6|6|6,3:0|3:0|0:0,0:0:0:0:
316,228,86700,1,0,0:0:0:0:
280,180,86867,6,0,L|280:72,1,100,8|0,0:0|3:0,0:0:0:0:
384,24,87534,1,8,0:0:0:0:
476,100,87867,2,0,P|484:152|480:208,1,100,6|8,0:0|0:0,0:0:0:0:
448,248,88367,2,0,P|440:304|460:360,2,100,2|2|6,3:0|3:0|0:0,0:0:0:0:
356,172,89367,1,0,0:0:0:0:
300,148,89534,6,0,P|248:140|192:152,1,100,8|2,0:0|3:0,0:0:0:0:
124,240,90200,1,8,0:0:0:0:
216,316,90534,2,0,L|328:316,1,100,2|8,0:0|0:0,0:0:0:0:
368,284,91034,2,0,L|476:284,2,100,2|2|6,3:0|3:0|0:0,0:0:0:0:
420,176,92034,1,0,0:0:0:0:
444,124,92200,6,0,P|448:72|436:16,1,100,8|0,0:0|3:0,0:0:0:0:
320,16,92867,1,8,0:0:0:0:
200,28,93200,2,0,P|192:84|208:136,1,100,2|10,0:0|0:0,0:0:0:0:
256,232,93867,2,0,P|200:244|144:224,1,100,2|8,3:0|0:0,0:0:0:0:
52,180,94534,6,0,P|44:236|60:292,1,100,6|8,0:0|0:0,0:0:0:0:
92,324,95034,2,0,L|196:324,2,100,2|2|6,3:0|3:0|0:0,0:0:0:0:
156,220,96034,1,0,0:0:0:0:
176,164,96200,2,0,L|176:64,1,100,8|0,0:0|3:0,0:0:0:0:
284,8,96867,1,8,0:0:0:0:
364,96,97200,6,0,P|376:152|364:204,1,100,6|0,0:0|0:0,0:0:0:0:
328,240,97700,2,0,P|320:296|336:344,2,100,2|2|6,3:0|3:0|0:0,0:0:0:0:
448,240,98700,1,0,0:0:0:0:
472,184,98867,2,0,L|476:120,1,50,8|8,0:0|0:0,0:0:0:0:
420,112,99200,2,0,L|412:56,1,50,2|2,0:0|0:0,0:0:0:0:
456,20,99534,1,8,0:0:0:0:
336,32,99867,6,0,P|280:40|232:32,1,100,2|8,0:0|0:0,0:0:0:0:
116,24,100534,2,0,L|64:16,2,50,0|0|8,0:0|0:0|0:0,0:0:0:0:
192,116,101200,2,0,P|204:168|192:216,1,100,0|8,0:0|0:0,0:0:0:0:
96,280,101867,2,0,L|36:280,2,50,0|0|8,0:0|0:0|0:0,0:0:0:0:
144,320,102367,1,8,0:0:0:0:
200,336,102534,6,0,P|264:344|308:324,1,100,6|0,0:0|0:0,0:0:0:0:
400,268,103200,2,0,L|408:164,1,100,10|2,0:0|0:0,0:0:0:0:
448,124,103700,1,10,0:0:0:0:
448,124,103867,2,0,L|456:60,2,50,2|8|0,0:0|0:0|0:0,0:0:0:0:
352,52,104534,2,0,P|300:44|244:56,1,100,10|8,0:0|0:0,0:0:0:0:
144,4,105200,6,0,P|136:60|148:104,1,100,6|8,0:0|0:0,0:0:0:0:
224,192,105867,2,0,P|232:244|224:296,1,100,0|8,3:0|0:0,0:0:0:0:
208,348,106367,2,0,L|368:348,1,150,6|8,0:0|0:0,0:0:0:0:
448,272,107200,2,0,P|456:216|440:168,1,100,0|8,3:0|0:0,0:0:0:0:
348,104,107867,6,0,L|248:104,2,100,6|8|0,0:0|0:0|3:0,0:0:0:0:
444,176,108867,1,8,0:0:0:0:
392,208,109034,2,0,P|316:232|244:212,1,150,6|8,0:0|0:0,0:0:0:0:
144,268,109867,2,0,P|132:220|144:164,1,100,10|10,0:0|0:0,0:0:0:0:
196,64,110534,6,0,P|144:52|84:64,2,100,14|8|0,0:0|0:0|3:0,0:0:0:0:
296,128,111534,1,8,0:0:0:0:
340,88,111700,2,0,P|400:68|496:100,1,150,6|8,0:0|0:0,0:0:0:0:
492,148,112367,2,0,L|492:264,1,100,6|0,0:0|0:0,0:0:0:0:
460,300,112867,1,8,0:0:0:0:
344,324,113200,6,0,P|288:332|244:324,1,100,14|0,0:0|0:0,0:0:0:0:
196,288,113700,2,0,P|140:280|88:292,1,100,14|0,0:0|0:0,0:0:0:0:
44,316,114200,2,0,L|48:208,1,100,14|0,0:0|0:0,0:0:0:0:
96,184,114700,2,0,L|96:84,1,100,6|0,0:0|0:0,0:0:0:0:
72,28,115200,1,10,0:0:0:0:
192,28,115534,1,10,0:0:0:0:
288,100,115867,6,0,P|344:108|396:92,1,100,14|0,0:0|0:0,0:0:0:0:
436,64,116367,2,0,L|440:172,1,100,14|0,0:0|0:0,0:0:0:0:
456,220,116867,2,0,L|452:324,1,100,14|0,0:0|0:0,0:0:0:0:
400,352,117367,2,0,P|348:364|296:348,1,100,14|0,0:0|0:0,0:0:0:0:
256,316,117867,1,14,0:0:0:0:
172,232,118200,1,10,0:0:0:0:
276,176,118534,5,14,0:0:0:0:
256,192,118700,12,0,125200,0:0:0:0:
