osu file format v14

[General]
AudioFilename: audio.mp3
AudioLeadIn: 0
PreviewTime: 62534
Countdown: 0
SampleSet: Soft
StackLeniency: 0.7
Mode: 0
LetterboxInBreaks: 0
WidescreenStoryboard: 1

[Editor]
DistanceSpacing: 1.2
BeatDivisor: 4
GridSize: 4
TimelineZoom: 1.8

[Metadata]
Title:Jewel Days
TitleUnicode:Jewel Days
Artist:Duca
ArtistUnicode:Duca
Creator:0109-
Version:Illumination
Source:Golden Marriage -Jewel Days-
Tags:visual novel eroge lotta ensemble ゴールデンマリッジ ジュエルデイズ asaiga yamicchi
BeatmapID:1372306
BeatmapSetID:491650

[Difficulty]
HPDrainRate:6
CircleSize:4
OverallDifficulty:8.5
ApproachRate:9.2
SliderMultiplier:1.8
SliderTickRate:1

[Events]
//Background and Video events
0,0,"83487.jpg",0,0
//Break Periods
//Storyboard Layer 0 (Background)
//Storyboard Layer 1 (Fail)
//Storyboard Layer 2 (Pass)
//Storyboard Layer 3 (Foreground)
//Storyboard Sound Samples

[TimingPoints]
1201,333.333333333333,4,2,2,70,1,0
6450,-100,4,2,2,10,0,0
6534,-100,4,2,2,70,0,0
7117,-100,4,2,2,10,0,0
7200,-100,4,2,2,70,0,0
13284,-100,4,2,2,10,0,0
13367,-100,4,2,2,70,0,0
13950,-100,4,2,2,10,0,0
14034,-100,4,2,2,70,0,0
19867,-100,4,2,2,55,0,0
20867,-100,4,2,2,70,0,0
21700,-133.333333333333,4,2,2,70,0,0
21950,-133.333333333333,4,2,2,10,0,0
22034,-133.333333333333,4,2,2,70,0,0
22284,-133.333333333333,4,2,2,10,0,0
22367,-100,4,2,2,70,0,0
23117,-100,4,2,2,10,0,0
23200,-100,4,2,2,70,0,0
23950,-100,4,2,2,10,0,0
24034,-100,4,2,2,70,0,0
30534,-100,4,2,2,55,0,0
31534,-100,4,2,2,70,0,0
32367,-133.333333333333,4,2,2,70,0,0
32617,-133.333333333333,4,2,2,10,0,0
32700,-133.333333333333,4,2,2,70,0,0
32950,-133.333333333333,4,2,2,10,0,0
33034,-100,4,2,2,70,0,0
33784,-100,4,2,2,10,0,0
33867,-100,4,2,2,70,0,0
34617,-100,4,2,2,10,0,0
34700,-100,4,2,2,70,0,0
35284,-100,4,2,2,10,0,0
35367,-100,4,2,2,70,0,0
41200,-111.111111111111,4,2,2,55,0,0
47700,-100,4,2,2,70,0,0
47950,-100,4,2,2,10,0,0
48034,-100,4,2,2,70,0,0
48617,-100,4,2,2,10,0,0
48700,-100,4,2,2,70,0,0
49200,-125,4,2,3,50,0,0
51867,-100,4,2,2,70,0,0
54450,-100,4,2,2,10,0,0
54534,-100,4,2,2,70,0,0
54784,-100,4,2,2,10,0,0
54867,-100,4,2,2,70,0,0
57200,-111.111111111111,4,2,3,50,0,0
59867,-100,4,2,2,70,0,0
61284,-100,4,2,2,10,0,0
61367,-100,4,2,2,70,0,0
62534,-100,4,2,2,70,0,1
64367,-133.333333333333,4,2,2,70,0,1
64617,-133.333333333333,4,2,2,10,0,1
64700,-133.333333333333,4,2,2,70,0,1
65034,-100,4,2,2,70,0,1
67034,-133.333333333333,4,2,2,70,0,1
67284,-133.333333333333,4,2,2,10,0,1
67367,-133.333333333333,4,2,2,70,0,1
67700,-100,4,2,2,70,0,1
69700,-133.333333333333,4,2,2,70,0,1
69950,-133.333333333333,4,2,2,10,0,1
70034,-133.333333333333,4,2,2,70,0,1
70367,-100,4,2,2,70,0,1
73700,-133.333333333333,4,2,2,70,0,1
73950,-133.333333333333,4,2,2,10,0,1
74034,-133.333333333333,4,2,2,70,0,1
74367,-100,4,2,2,70,0,1
76367,-133.333333333333,4,2,2,70,0,1
76617,-133.333333333333,4,2,2,10,0,1
76700,-133.333333333333,4,2,2,70,0,1
77034,-100,4,2,2,70,0,1
78534,-100,4,2,2,70,0,0
81200,-125,4,2,3,50,0,0
82867,-111.111111111111,4,2,3,60,0,0
83867,-100,4,2,2,70,0,1
85700,-133.333333333333,4,2,2,70,0,1
85950,-133.333333333333,4,2,2,10,0,1
86034,-133.333333333333,4,2,2,70,0,1
86367,-100,4,2,2,70,0,1
88367,-133.333333333333,4,2,2,70,0,1
88617,-133.333333333333,4,2,2,10,0,1
88700,-133.333333333333,4,2,2,70,0,1
89034,-100,4,2,2,70,0,1
91034,-133.333333333333,4,2,2,70,0,1
91284,-133.333333333333,4,2,2,10,0,1
91367,-133.333333333333,4,2,2,70,0,1
91700,-100,4,2,2,70,0,1
95034,-133.333333333333,4,2,2,70,0,1
95284,-133.333333333333,4,2,2,10,0,1
95367,-133.333333333333,4,2,2,70,0,1
95700,-100,4,2,2,70,0,1
97700,-133.333333333333,4,2,2,70,0,1
97950,-133.333333333333,4,2,2,10,0,1
98034,-133.333333333333,4,2,2,70,0,1
98367,-100,4,2,2,70,0,1
99867,-100,4,2,2,70,0,0
102534,-125,4,2,3,60,0,0
105200,-100,4,2,2,70,0,0
105784,-100,4,2,2,10,0,0
105867,-100,4,2,2,70,0,0
111950,-100,4,2,2,10,0,0
112034,-100,4,2,2,70,0,0
112617,-100,4,2,2,10,0,0
112700,-100,4,2,2,70,0,0
125200,-100,4,2,2,5,0,0

[Colours]
Combo1 : 81,168,255
Combo2 : 255,222,155
Combo3 : 255,71,32
Combo4 : 0,196,196

[HitObjects]
56,216,6200,6,0,P|113:236|92:294,1,135,2|0,0:0|0:0,0:0:0:0:
156,228,6534,6,0,L|252:232,1,90,6|0,0:0|0:0,0:0:0:0:
424,176,6867,2,0,P|368:148|348:68,1,135,8|0,0:0|0:0,0:0:0:0:
356,44,7200,1,0,3:0:0:0:
276,204,7367,1,0,3:0:0:0:
196,12,7534,1,8,0:0:0:0:
52,184,7700,6,0,B|56:324|56:324|96:308,1,180,6|0,0:0|0:0,0:0:0:0:
228,320,8200,2,0,P|272:320|320:332,1,90,8|0,0:0|0:0,0:0:0:0:
400,380,8534,1,0,3:0:0:0:
400,380,8700,1,0,3:0:0:0:
440,176,8867,1,8,0:0:0:0:
316,332,9034,1,8,0:0:0:0:
316,332,9117,1,8,0:0:0:0:
316,332,9200,6,0,L|224:324,1,90,6|0,0:0|0:0,0:0:0:0:
52,212,9534,2,0,L|144:204,1,90,8|0,0:0|0:0,0:0:0:0:
304,188,9867,1,0,3:0:0:0:
176,124,10034,1,0,3:0:0:0:
104,336,10200,1,8,0:0:0:0:
118,59,10367,6,0,P|204:40|262:107,1,180,6|0,0:0|0:0,0:0:0:0:
264,312,10867,1,8,0:0:0:0:
176,124,11034,1,0,0:0:0:0:
432,164,11200,1,8,0:0:0:0:
256,196,11367,2,0,L|308:188,1,45
484,84,11534,1,8,0:0:0:0:
376,296,11700,1,8,0:0:0:0:
376,296,11784,1,8,0:0:0:0:
376,296,11867,6,0,P|328:284|280:280,1,90,6|0,0:0|0:0,0:0:0:0:
88,176,12200,2,0,P|131:164|176:160,1,90,8|0,0:0|0:0,0:0:0:0:
300,189,12534,1,0,3:0:0:0:
460,96,12700,1,0,3:0:0:0:
452,312,12867,1,8,0:0:0:0:
276,72,13034,6,0,B|224:68|224:68|188:92|136:84,1,135,6|0,0:0|0:0,0:0:0:0:
104,84,13367,1,0,0:0:0:0:
252,284,13534,1,8,0:0:0:0:
344,32,13700,2,0,B|376:24|376:24|480:40,1,135,6|0,0:0|0:0,0:0:0:0:
512,60,14034,1,0,0:0:0:0:
360,284,14200,1,8,0:0:0:0:
360,284,14284,1,0,0:0:0:0:
360,284,14367,2,0,L|356:224,1,45
344,32,14534,5,14,0:0:0:0:
260,232,14700,1,0,0:0:0:0:
192,84,14867,1,0,0:0:0:0:
108,340,15034,5,14,0:0:0:0:
204,168,15200,1,0,0:0:0:0:
52,140,15367,1,0,0:0:0:0:
324,148,15534,5,14,0:0:0:0:
268,328,15700,1,0,0:0:0:0:
160,248,15867,1,0,0:0:0:0:
428,284,16034,5,14,0:0:0:0:
280,228,16200,1,0,0:0:0:0:
404,124,16367,1,0,0:0:0:0:
176,68,16534,6,0,L|76:72,1,90,10|0,0:0|0:0,0:0:0:0:
8,332,16867,2,0,L|100:328,1,90,10|0,0:0|0:0,0:0:0:0:
260,96,17200,5,14,0:0:0:0:
244,356,17367,1,0,0:0:0:0:
260,76,17534,1,0,0:0:0:0:
60,196,17700,5,14,0:0:0:0:
320,232,17867,1,0,0:0:0:0:
44,192,18034,1,0,0:0:0:0:
336,128,18200,5,14,0:0:0:0:
76,100,18367,1,0,0:0:0:0:
352,132,18534,1,0,0:0:0:0:
164,336,18700,5,14,0:0:0:0:
192,76,18867,1,0,0:0:0:0:
164,356,19034,1,0,0:0:0:0:
262,136,19200,6,0,B|306:128|306:128|358:132,1,90,14|0,0:0|0:0,0:0:0:0:
92,208,19534,2,0,B|64:212|64:212|40:208,2,45,10|0|0,0:0|0:0|0:0,0:0:0:0:
208,280,19867,5,6,0:0:0:0:
424,276,20200,1,2,0:0:0:0:
356,360,20534,1,2,0:0:0:0:
320,256,20867,1,2,0:0:0:0:
316,244,20950,1,2,0:0:0:0:
316,232,21034,1,2,0:0:0:0:
320,220,21117,1,2,0:0:0:0:
328,212,21200,6,0,L|232:216,1,90,6|0,0:0|0:0,0:0:0:0:
196,344,21534,1,8,0:0:0:0:
400,260,21700,6,0,P|416:216|400:160,1,101.250003862381,2|0,3:0|0:0,0:0:0:0:
388,0,22034,2,0,P|404:44|388:100,1,101.250003862381,2|0,3:0|0:0,0:0:0:0:
280,124,22367,6,0,B|228:116|196:88|196:88|164:116|112:128,1,180,6|0,0:0|0:0,0:0:0:0:
264,204,22867,2,0,B|196:192|196:192|128:212,1,135,8|0,0:0|0:0,0:0:0:0:
96,228,23200,1,8,0:0:0:0:
256,348,23367,1,8,0:0:0:0:
256,348,23700,6,0,P|320:328|392:356,1,135,6|0,0:0|0:0,0:0:0:0:
416,372,24034,1,0,0:0:0:0:
224,244,24200,1,8,0:0:0:0:
456,96,24367,2,0,P|452:144|324:144,1,180,6|0,0:0|0:0,0:0:0:0:
212,44,24867,1,8,0:0:0:0:
172,52,24950,1,8,0:0:0:0:
132,60,25034,1,10,0:0:0:0:
92,68,25117,1,8,0:0:0:0:
52,76,25200,6,0,L|56:260,1,180,6|8,0:0|0:0,0:0:0:0:
136,364,25700,1,2,0:0:0:0:
180,200,25867,2,0,P|224:192|272:204,1,90,2|0,0:0|3:0,0:0:0:0:
344,288,26200,1,8,0:0:0:0:
300,96,26367,1,2,0:0:0:0:
352,316,26534,6,0,B|392:324|428:360|428:360|448:320|496:300,1,180,2|8,0:0|0:0,0:0:0:0:
484,92,27034,1,2,0:0:0:0:
484,92,27200,2,0,L|388:92,1,90,2|0,0:0|3:0,0:0:0:0:
168,108,27534,1,8,0:0:0:0:
204,124,27617,1,8,0:0:0:0:
232,152,27700,1,10,0:0:0:0:
244,192,27784,1,8,0:0:0:0:
236,232,27867,6,0,P|232:284|240:336,1,90,6|0,0:0|0:0,0:0:0:0:
332,228,28200,1,10,0:0:0:0:
144,200,28367,2,0,L|40:196,1,90,2|0,0:0|3:0,0:0:0:0:
284,52,28700,2,0,L|380:56,1,90,2|8,0:0|3:0,0:0:0:0:
484,304,29034,6,0,B|428:296|428:296|363:312|363:312|289:302,1,180,6|0,0:0|3:0,0:0:0:0:
240,188,29534,1,8,0:0:0:0:
216,364,29700,1,0,0:0:0:0:
356,156,29867,2,0,B|404:152|404:152|448:160,1,90,12|0,0:0|3:0,0:0:0:0:
244,40,30200,1,8,0:0:0:0:
204,44,30284,1,8,0:0:0:0:
164,48,30367,1,8,0:0:0:0:
124,52,30450,1,8,0:0:0:0:
84,56,30534,5,6,0:0:0:0:
36,268,30867,1,2,0:0:0:0:
128,212,31200,1,2,0:0:0:0:
152,316,31534,1,2,0:0:0:0:
164,324,31617,1,2,0:0:0:0:
176,328,31700,1,2,0:0:0:0:
188,328,31784,1,2,0:0:0:0:
198,325,31867,6,0,P|212:280|204:236,1,90,6|0,0:0|0:0,0:0:0:0:
56,172,32200,1,8,0:0:0:0:
240,52,32367,6,0,P|288:68|344:56,1,101.250003862381,2|0,3:0|0:0,0:0:0:0:
476,108,32700,2,0,P|432:128|372:116,1,101.250003862381,2|0,3:0|0:0,0:0:0:0:
232,200,33034,6,0,B|292:220|360:196|360:196|348:256,1,180,6|0,0:0|0:0,0:0:0:0:
152,300,33534,2,0,B|248:300|248:300|300:316,1,135,8|0,0:0|0:0,0:0:0:0:
320,332,33867,1,0,3:0:0:0:
120,172,34034,1,0,3:0:0:0:
24,312,34200,1,8,0:0:0:0:
84,40,34367,6,0,P|156:32|212:68,1,135,6|0,0:0|0:0,0:0:0:0:
228,100,34700,1,0,0:0:0:0:
428,16,34867,1,10,0:0:0:0:
472,283,35034,2,0,P|404:272|344:316,1,135,6|0,0:0|0:0,0:0:0:0:
332,340,35367,1,6,0:0:0:0:
408,172,35534,1,10,0:0:0:0:
136,116,35700,6,0,B|140:252|140:252|188:224,1,180,6|0,0:0|0:0,0:0:0:0:
296,148,36200,1,8,0:0:0:0:
200,320,36367,1,2,0:0:0:0:
200,320,36534,2,0,P|120:336|48:264,1,180,2|8,0:0|0:0,0:0:0:0:
152,44,37034,1,2,0:0:0:0:
142,241,37200,2,0,P|178:213|214:169,1,90,2|0,0:0|3:0,0:0:0:0:
258,34,37534,1,10,0:0:0:0:
464,159,37700,6,0,L|451:352,1,180,6|0,0:0|0:0,0:0:0:0:
348,190,38200,1,8,0:0:0:0:
276,282,38367,1,2,0:0:0:0:
152,96,38534,6,0,P|142:47|150:3,1,90,6|0,0:0|3:0,0:0:0:0:
264,144,38867,1,8,0:0:0:0:
124,332,39034,2,0,B|80:340|80:340|20:328,1,90,2|0,0:0|3:2,0:0:0:0:
276,282,39367,2,0,B|320:273|320:273|364:281,1,90,2|8,0:0|3:2,0:0:0:0:
35,331,39700,6,0,P|23:279|111:207,1,180,6|0,0:0|0:0,0:0:0:0:
8,120,40200,1,8,0:0:0:0:
108,288,40367,1,0,0:0:0:0:
96,64,40534,1,8,0:0:0:0:
196,180,40700,1,8,0:0:0:0:
228,204,40784,1,8,0:0:0:0:
268,208,40867,1,8,0:0:0:0:
308,196,40950,1,0,0:0:0:0:
332,164,41034,1,8,3:0:0:0:
344,124,41117,1,8,3:0:0:0:
352,88,41200,6,0,L|352:260,1,161.999995056153,6|8,0:0|0:0,0:0:0:0:
308,368,41700,1,2,0:0:0:0:
200,296,41867,2,0,P|160:292|104:304,1,80.9999975280763,2|0,0:0|3:0,0:0:0:0:
48,364,42200,1,8,0:0:0:0:
104,76,42534,6,0,B|192:56|164:112|272:100,2,161.999995056153,2|10|2,0:0|0:0|0:0,0:0:0:0:
40,148,43367,1,0,3:0:0:0:
132,204,43534,2,0,L|216:204,1,80.9999975280763,10|0,0:0|0:0,0:0:0:0:
432,188,43867,6,0,P|348:160|284:204,1,161.999995056153,2|8,0:0|0:0,0:0:0:0:
468,104,44367,1,2,0:0:0:0:
468,104,44534,2,0,L|472:24,2,80.9999975280763,2|0|8,0:0|3:0|0:0,0:0:0:0:
432,188,45034,1,0,0:0:0:0:
316,44,45200,6,0,B|224:28|244:88|156:64,1,161.999995056153,2|8,0:0|0:0,0:0:0:0:
108,320,45867,1,2,0:0:0:0:
108,320,46034,1,2,3:0:0:0:
184,260,46200,1,10,0:0:0:0:
244,336,46367,1,2,0:0:0:0:
316,228,46534,6,0,L|400:236,1,80.9999975280763,2|0,0:0|0:0,0:0:0:0:
488,144,46867,2,0,L|404:152,1,80.9999975280763,8|0,0:0|0:0,0:0:0:0:
360,68,47200,1,0,0:0:0:0:
208,164,47367,2,0,L|128:160,1,80.9999975280763,2|8,0:0|0:0,0:0:0:0:
16,336,47700,6,0,P|72:368|160:348,1,135,6|0,0:0|0:0,0:0:0:0:
180,340,48034,1,0,0:0:0:0:
12,240,48200,1,10,0:0:0:0:
240,84,48367,2,0,P|280:120|280:200,1,135,6|0,0:0|0:0,0:0:0:0:
264,236,48700,1,0,0:0:0:0:
172,24,48867,1,8,0:0:0:0:
208,4,48950,1,8,0:0:0:0:
248,0,49034,1,8,0:0:0:0:
288,12,49117,1,8,0:0:0:0:
320,36,49200,6,0,P|360:84|384:172,1,144,6|0,0:0|0:0,0:0:0:0:
344,356,49867,2,0,P|376:376|356:320,1,144,10|0,0:0|0:0,0:0:0:0:
264,300,50367,1,8,0:0:0:0:
264,300,50534,6,0,L|180:304,2,72,2|8|0,0:0|0:0|0:0,0:0:0:0:
316,220,51034,1,0,0:0:0:0:
136,220,51200,1,10,0:0:0:0:
108,100,51367,1,10,0:0:0:0:
288,48,51534,1,8,0:0:0:0:
320,44,51617,1,8,0:0:0:0:
352,52,51700,1,8,0:0:0:0:
380,68,51784,1,8,0:0:0:0:
400,92,51867,6,0,L|400:188,1,90,6|0,0:0|0:0,0:0:0:0:
400,300,52200,1,10,0:0:0:0:
312,124,52367,1,2,0:0:0:0:
252,340,52534,5,0,3:0:0:0:
332,244,52700,1,0,3:0:0:0:
120,320,52867,1,8,3:2:0:0:
152,52,53034,6,0,B|244:28|236:96|340:76,1,180,6|0,0:0|0:0,0:0:0:0:
436,36,53534,1,10,0:0:0:0:
472,248,53700,1,2,0:0:0:0:
396,124,53867,5,0,3:0:0:0:
396,124,54034,1,0,3:0:0:0:
192,124,54200,2,0,B|188:160|188:160|200:208|200:208|196:268,1,135,10|0,3:2|0:0,0:0:0:0:
172,344,54534,6,0,B|264:328|264:328|312:336,1,135,6|0,0:0|0:0,0:0:0:0:
344,348,54867,2,0,P|388:360|440:352,1,90,10|0,0:0|0:0,0:0:0:0:
396,124,55200,1,0,3:0:0:0:
284,160,55367,2,0,L|280:264,1,90,2|8,3:0|3:2,0:0:0:0:
52,344,55700,6,0,B|44:208|44:208|72:164,1,180,6|0,0:0|0:0,0:0:0:0:
160,40,56200,2,0,P|204:32|252:36,1,90,8|0,0:0|0:0,0:0:0:0:
344,60,56534,1,2,3:0:0:0:
344,60,56700,1,2,3:0:0:0:
440,180,56867,1,10,3:2:0:0:
436,220,56950,1,8,0:0:0:0:
432,260,57034,1,8,0:0:0:0:
428,300,57117,1,8,0:0:0:0:
420,340,57200,6,0,L|256:344,2,161.999995056153,6|8|0,0:0|0:0|0:0,0:0:0:0:
348,248,58034,2,0,L|260:251,1,80.9999975280763,10|0,0:0|3:0,0:0:0:0:
112,196,58367,2,0,P|164:192|232:112,1,161.999995056153,10|0,0:0|3:0,0:0:0:0:
208,28,58867,1,10,0:0:0:0:
208,28,59034,1,0,0:0:0:0:
136,112,59200,1,10,0:0:0:0:
356,112,59367,1,0,0:0:0:0:
192,316,59534,1,8,0:0:0:0:
192,316,59617,1,8,0:0:0:0:
192,316,59700,2,0,L|200:260,1,40.4999987640381,8|0,0:0|0:0,0:0:0:0:
232,112,59867,5,6,0:0:0:0:
388,272,60034,1,0,0:0:0:0:
136,112,60200,1,8,0:0:0:0:
424,160,60367,1,0,0:0:0:0:
80,188,60534,1,8,0:0:0:0:
404,44,60700,1,0,0:0:0:0:
304,352,60867,1,8,0:0:0:0:
24,244,61034,6,0,P|0:184|40:116,1,135,6|0,0:0|0:0,0:0:0:0:
68,88,61367,1,0,0:0:0:0:
184,340,61534,1,8,0:0:0:0:
328,60,61700,1,0,0:0:0:0:
348,372,61867,5,2,3:0:0:0:
192,16,62034,1,2,3:0:0:0:
448,164,62367,5,0,0:0:0:0:
448,164,62450,1,2,0:0:0:0:
448,164,62534,2,0,B|440:312|440:312|396:296,1,180,6|10,0:0|0:0,0:0:0:0:
360,100,63034,2,0,P|396:72|448:60,1,90,2|0,0:0|3:0,0:0:0:0:
248,144,63367,2,0,P|200:136|156:112,1,90,2|8,3:0|0:0,0:0:0:0:
36,292,63700,1,2,0:0:0:0:
36,292,63867,6,0,P|96:272|192:344,1,180,2|10,0:0|0:0,0:0:0:0:
368,364,64367,6,0,L|360:252,1,101.250003862381,6|0,3:0|0:0,0:0:0:0:
446,168,64700,2,0,L|451:244,1,67.5000025749208,6|8,3:0|3:2,0:0:0:0:
284,356,65034,6,0,B|276:220|276:220|236:248,1,180,6|0,0:0|0:0,0:0:0:0:
100,148,65534,2,0,P|92:96|104:48,1,90,8|0,0:0|0:0,0:0:0:0:
280,104,65867,1,0,3:0:0:0:
188,104,66034,1,0,3:0:0:0:
368,152,66200,2,0,P|376:107|368:63,1,90,8|2,0:0|0:0,0:0:0:0:
100,148,66534,6,0,B|88:216|88:216|112:336,1,180,6|8,0:0|0:0,0:0:0:0:
272,228,67034,2,0,P|308:220|296:268,1,101.250003862381,2|0,3:0|0:0,0:0:0:0:
368,152,67367,2,0,B|400:148|400:148|444:152,1,67.5000025749208,2|8,3:0|3:2,0:0:0:0:
280,24,67700,6,0,B|144:40|144:40|100:16,1,180,6|0,0:0|0:0,0:0:0:0:
32,132,68200,1,8,0:0:0:0:
208,300,68367,1,2,0:0:0:0:
252,184,68534,2,0,P|208:176|156:188,1,90,2|0,3:0|3:0,0:0:0:0:
320,356,68867,2,0,P|363:364|408:357,1,90,8|0,0:0|0:0,0:0:0:0:
452,96,69200,6,0,B|360:68|376:128|272:104,1,180,2|10,0:0|0:0,0:0:0:0:
88,92,69700,6,0,L|208:92,1,101.250003862381,2|0,3:0|0:0,0:0:0:0:
268,12,70034,2,0,L|184:12,1,67.5000025749208,2|8,3:0|3:2,0:0:0:0:
4,68,70367,6,0,L|0:248,1,180,6|0,0:0|0:0,0:0:0:0:
208,184,70867,2,0,P|164:176|112:188,1,90,8|0,0:0|0:0,0:0:0:0:
248,288,71200,1,0,3:0:0:0:
300,164,71367,1,0,3:0:0:0:
292,364,71534,2,0,P|248:372|196:360,1,90,8|0,0:0|0:0,0:0:0:0:
100,276,71867,5,2,0:0:0:0:
100,276,72034,1,0,0:0:0:0:
224,68,72200,1,10,0:0:0:0:
224,68,72367,1,0,0:0:0:0:
228,276,72534,5,2,3:0:0:0:
104,64,72700,1,2,3:0:0:0:
352,108,72867,1,8,0:0:0:0:
364,152,72950,1,8,0:0:0:0:
380,196,73034,1,10,0:0:0:0:
392,240,73117,1,8,0:0:0:0:
408,284,73200,6,0,P|456:264|480:144,1,180,6|10,0:0|0:0,0:0:0:0:
216,248,73700,2,0,P|248:268|244:220,1,101.250003862381,2|0,3:0|0:0,0:0:0:0:
341,286,74034,2,0,B|377:290|377:290|417:282,1,67.5000025749208,2|8,3:0|3:2,0:0:0:0:
224,120,74367,6,0,B|132:108|132:108|32:124,1,180,6|0,0:0|0:0,0:0:0:0:
300,44,74867,2,0,P|328:84|332:132,1,90,8|0,0:0|0:0,0:0:0:0:
200,263,75200,1,0,3:0:0:0:
224,120,75367,1,0,3:0:0:0:
48,192,75534,1,8,0:0:0:0:
52,236,75617,1,8,0:0:0:0:
56,280,75700,1,10,0:0:0:0:
60,324,75784,1,8,0:0:0:0:
64,368,75867,6,0,B|152:392|144:320|248:364,1,180,6|10,0:0|0:0,0:0:0:0:
328,232,76367,2,0,P|332:196|284:216,1,101.250003862381,2|0,3:0|0:0,0:0:0:0:
412,162,76700,2,0,L|484:170,1,67.5000025749208,2|8,3:0|3:2,0:0:0:0:
456,348,77034,6,0,L|480:168,1,180,6|0,0:0|0:0,0:0:0:0:
328,232,77534,1,8,0:0:0:0:
316,64,77700,1,8,0:0:0:0:
268,44,77784,1,8,0:0:0:0:
220,40,77867,1,8,0:0:0:0:
176,60,77950,1,8,0:0:0:0:
148,100,78034,5,0,0:0:0:0:
132,136,78117,1,0,0:0:0:0:
112,160,78200,1,8,0:0:0:0:
84,176,78284,1,0,0:0:0:0:
52,184,78367,1,0,0:0:0:0:
20,180,78450,1,0,0:0:0:0:
8,152,78534,6,0,L|4:336,1,180,6|8,0:0|0:0,0:0:0:0:
128,272,79034,1,2,0:0:0:0:
128,272,79200,2,0,B|228:236|212:300|312:276,1,180,2|8,0:0|0:0,0:0:0:0:
256,0,79867,6,0,L|260:184,1,180,0|8,0:0|0:0,0:0:0:0:
303,277,80367,1,0,0:0:0:0:
303,277,80534,2,0,L|300:376,1,90,2|2,0:0|0:0,0:0:0:0:
460,276,80867,1,10,0:0:0:0:
452,236,80950,1,8,0:0:0:0:
440,196,81034,1,10,0:0:0:0:
432,156,81117,1,8,0:0:0:0:
420,120,81200,6,0,P|352:88|284:120,1,144,6|0,0:0|0:0,0:0:0:0:
212,148,81700,1,8,0:0:0:0:
80,60,81867,2,0,L|76:204,1,144,2|0,0:0|0:0,0:0:0:0:
212,148,82367,1,8,0:0:0:0:
176,244,82534,6,0,P|180:288|192:328,1,72,2|8,0:0|0:0,0:0:0:0:
356,324,82867,2,0,P|364:280|356:232,1,80.9999975280763,2|0,0:0|0:0,0:0:0:0:
212,148,83200,1,10,0:0:0:0:
388,112,83367,1,10,0:0:0:0:
212,16,83534,1,8,0:0:0:0:
172,12,83617,1,8,0:0:0:0:
132,16,83700,1,8,0:0:0:0:
96,32,83784,1,8,0:0:0:0:
68,60,83867,6,0,L|64:240,1,180,6|8,0:0|0:0,0:0:0:0:
288,193,84367,2,0,P|252:165|204:145,1,90,2|0,0:0|3:0,0:0:0:0:
184,372,84700,2,0,P|232:368|284:344,1,90,2|8,3:0|0:0,0:0:0:0:
188,268,85034,1,2,0:0:0:0:
440,248,85200,6,0,B|432:104|432:104|400:128,1,180,2|10,0:0|0:0,0:0:0:0:
380,312,85700,6,0,P|428:332|484:324,1,101.250003862381,6|0,3:0|0:0,0:0:0:0:
254,259,86034,2,0,P|211:261|175:273,1,67.5000025749208,6|8,3:0|3:2,0:0:0:0:
72,352,86367,6,0,B|44:312|12:288|12:288|40:248|40:200,1,180,6|0,0:0|0:0,0:0:0:0:
212,56,86867,2,0,P|220:100|212:148,1,90,8|0,0:0|0:0,0:0:0:0:
124,220,87200,1,0,3:0:0:0:
124,100,87367,1,0,3:0:0:0:
328,72,87534,2,0,P|336:116|328:164,1,90,8|2,0:0|0:0,0:0:0:0:
460,356,87867,6,0,B|468:220|468:220|444:172,1,180,6|8,0:0|0:0,0:0:0:0:
283,51,88367,2,0,P|315:27|323:75,1,101.250003862381,2|0,3:0|0:0,0:0:0:0:
420,32,88700,2,0,B|456:28|456:28|500:36,1,67.5000025749208,2|8,3:0|3:2,0:0:0:0:
372,240,89034,6,0,B|264:272|292:204|184:248,1,180,6|0,0:0|0:0,0:0:0:0:
152,360,89534,1,8,0:0:0:0:
76,128,89700,1,2,0:0:0:0:
32,228,89867,2,0,L|20:320,1,90,2|0,3:0|3:0,0:0:0:0:
188,132,90200,2,0,L|180:40,1,90,8|2,0:0|0:0,0:0:0:0:
276,268,90534,6,0,B|416:280|416:280|456:312,1,180,2|8,0:0|0:0,0:0:0:0:
196,304,91034,6,0,P|188:252|216:200,1,101.250003862381,2|0,3:0|0:0,0:0:0:0:
364,136,91367,2,0,P|336:164|296:176,1,67.5000025749208,2|8,3:0|3:2,0:0:0:0:
100,136,91700,6,0,L|92:324,1,180,6|0,0:0|0:0,0:0:0:0:
40,76,92200,2,0,P|80:56|128:56,1,90,8|0,0:0|0:0,0:0:0:0:
200,208,92534,1,0,3:0:0:0:
100,136,92700,1,0,3:0:0:0:
360,144,92867,2,0,P|352:188|320:228,1,90,8|0,0:0|0:0,0:0:0:0:
160,376,93200,5,2,0:0:0:0:
160,376,93367,1,0,0:0:0:0:
376,292,93534,1,10,0:0:0:0:
376,292,93700,1,0,0:0:0:0:
160,272,93867,5,2,3:0:0:0:
380,376,94034,1,2,3:0:0:0:
436,120,94200,1,8,0:0:0:0:
400,84,94284,1,8,0:0:0:0:
352,80,94367,1,8,0:0:0:0:
308,104,94450,1,8,0:0:0:0:
296,152,94534,6,0,B|296:292|296:292|244:268,1,180,6|8,0:0|0:0,0:0:0:0:
168,104,95034,2,0,P|164:60|204:80,1,101.250003862381,2|0,3:0|0:0,0:0:0:0:
68,56,95367,2,0,B|32:52|32:52|-12:60,1,67.5000025749208,2|8,3:0|3:2,0:0:0:0:
88,282,95700,6,0,B|176:306|176:306|272:270,1,180,6|0,0:0|0:0,0:0:0:0:
344,48,96200,2,0,L|255:57,1,90,8|0,0:0|0:0,0:0:0:0:
380,260,96534,1,0,3:0:0:0:
316,128,96700,1,0,3:0:0:0:
360,344,96867,1,8,0:0:0:0:
408,344,96950,1,8,0:0:0:0:
452,320,97034,1,10,0:0:0:0:
468,272,97117,1,8,0:0:0:0:
468,224,97200,6,0,B|464:84|464:84|424:112,1,180,6|0,0:0|0:0,0:0:0:0:
330,272,97700,2,0,P|382:284|356:248,1,101.250003862381,2|0,3:0|0:0,0:0:0:0:
288,188,98034,2,0,P|260:208|240:244,1,67.5000025749208,2|8,3:0|3:2,0:0:0:0:
348,56,98367,6,0,L|168:60,1,180,6|0,0:0|0:0,0:0:0:0:
330,272,98867,1,8,0:0:0:0:
244,92,99034,1,8,0:0:0:0:
72,300,99200,5,2,0:0:0:0:
200,192,99367,1,2,0:0:0:0:
200,304,99534,1,8,0:0:0:0:
72,188,99700,1,0,0:0:0:0:
128,384,99867,1,2,0:0:0:0:
276,164,100034,1,2,0:0:0:0:
396,356,100200,6,0,P|316:364|300:268,1,180,8|0,0:0|0:0,0:0:0:0:
412,254,100700,1,0,0:0:0:0:
320,88,100867,2,0,B|219:50|235:122|146:103,1,180,8|0,0:0|0:0,0:0:0:0:
450,19,101534,6,0,P|488:98|438:188,1,180,8|0,0:0|0:0,0:0:0:0:
392,98,102034,1,0,0:0:0:0:
350,290,102200,1,8,0:0:0:0:
327,323,102284,1,8,0:0:0:0:
293,345,102367,1,8,0:0:0:0:
252,345,102450,1,8,0:0:0:0:
212,332,102534,6,0,B|130:304|147:362|65:343,1,144,6|0,0:0|0:0,0:0:0:0:
16,276,103034,1,0,0:0:0:0:
93,183,103200,2,0,L|245:200,1,144,10|2,0:0|0:0,0:0:0:0:
326,174,103700,1,10,0:0:0:0:
326,174,103867,6,0,P|341:134|344:95,2,72,2|8|0,0:0|0:0|0:0,0:0:0:0:
321,274,104367,1,0,0:0:0:0:
436,176,104534,1,10,0:0:0:0:
417,354,104700,1,10,0:0:0:0:
262,118,104867,1,8,0:0:0:0:
232,96,104950,1,8,0:0:0:0:
192,92,105034,1,8,0:0:0:0:
156,104,105117,1,8,0:0:0:0:
128,132,105200,6,0,L|129:226,1,90,6|0,0:0|0:0,0:0:0:0:
275,351,105534,2,0,P|298:301|273:223,1,135,8|0,0:0|0:0,0:0:0:0:
239,210,105867,1,0,3:0:0:0:
437,200,106034,1,0,3:0:0:0:
405,339,106200,1,8,0:0:0:0:
307,126,106367,6,0,L|127:132,1,180,6|0,0:0|0:0,0:0:0:0:
10,19,106867,2,0,L|104:17,1,90,8|0,0:0|0:0,0:0:0:0:
216,12,107200,1,0,3:0:0:0:
216,12,107367,1,0,3:0:0:0:
188,228,107534,1,8,0:0:0:0:
380,156,107700,1,8,0:0:0:0:
380,156,107784,1,8,0:0:0:0:
380,156,107867,6,0,L|388:60,1,90,6|0,0:0|0:0,0:0:0:0:
488,308,108200,2,0,L|480:208,1,90,8|0,0:0|0:0,0:0:0:0:
368,348,108534,1,0,3:0:0:0:
280,260,108700,1,0,3:0:0:0:
152,360,108867,1,8,0:0:0:0:
152,100,109034,6,0,B|292:108|292:108|332:140,1,180,6|0,0:0|0:0,0:0:0:0:
256,368,109534,1,8,0:0:0:0:
128,184,109700,1,0,0:0:0:0:
360,308,109867,1,10,0:0:0:0:
156,276,110034,2,0,L|216:272,1,45,2|0,0:0|0:0,0:0:0:0:
420,212,110200,1,10,0:0:0:0:
248,28,110367,1,10,0:0:0:0:
248,28,110450,1,8,0:0:0:0:
248,28,110534,6,0,L|236:128,1,90,6|0,0:0|0:0,0:0:0:0:
32,248,110867,2,0,L|48:148,1,90,8|0,0:0|0:0,0:0:0:0:
132,0,111200,1,0,3:0:0:0:
156,144,111367,1,0,3:0:0:0:
356,64,111534,1,8,0:0:0:0:
320,300,111700,6,0,P|272:312|196:264,1,135,6|0,0:0|0:0,0:0:0:0:
180,236,112034,1,0,0:0:0:0:
388,232,112200,1,8,0:0:0:0:
76,196,112367,2,0,L|88:340,1,135,6|0,0:0|0:0,0:0:0:0:
92,372,112700,1,0,0:0:0:0:
272,220,112867,1,8,0:0:0:0:
272,220,112950,1,0,0:0:0:0:
272,220,113034,2,0,L|268:168,1,45
244,16,113200,5,14,0:0:0:0:
352,140,113367,1,0,0:0:0:0:
172,120,113534,1,0,0:0:0:0:
456,76,113700,5,14,0:0:0:0:
392,236,113867,1,0,0:0:0:0:
316,64,114034,1,0,0:0:0:0:
196,304,114200,5,14,0:0:0:0:
96,188,114367,1,0,0:0:0:0:
268,175,114534,1,0,0:0:0:0:
84,356,114700,5,6,0:0:0:0:
180,216,114867,1,0,0:0:0:0:
264,376,115034,1,0,0:0:0:0:
20,240,115200,6,0,B|12:196|12:196|16:136,1,90,10|0,0:0|0:0,0:0:0:0:
292,188,115534,2,0,B|295:233|295:233|287:277,1,90,10|0,0:0|0:0,0:0:0:0:
148,36,115867,5,14,0:0:0:0:
416,112,116034,1,0,0:0:0:0:
132,32,116200,1,0,0:0:0:0:
196,324,116367,5,14,0:0:0:0:
244,32,116534,1,0,0:0:0:0:
192,340,116700,1,0,0:0:0:0:
308,96,116867,5,14,0:0:0:0:
280,300,117034,1,0,0:0:0:0:
312,80,117200,1,0,0:0:0:0:
92,184,117367,5,14,0:0:0:0:
296,220,117534,1,0,0:0:0:0:
76,180,117700,1,0,0:0:0:0:
376,252,117867,6,0,B|420:256|420:256|472:248,1,90,14|0,0:0|0:0,0:0:0:0:
204,128,118200,2,0,L|160:128,2,45,10|0|0,0:0|0:0|0:0,0:0:0:0:
484,48,118534,5,14,0:0:0:0:
256,192,118700,12,0,125200,0:0:0:0:
