osu file format v14

[General]
AudioFilename: audio.mp3
AudioLeadIn: 0
PreviewTime: 62534
Countdown: 0
SampleSet: Soft
StackLeniency: 0.7
Mode: 0
LetterboxInBreaks: 0
WidescreenStoryboard: 0

[Editor]
Bookmarks: 38534
DistanceSpacing: 1.4
BeatDivisor: 4
GridSize: 32
TimelineZoom: 1.6

[Metadata]
Title:Jewel Days
TitleUnicode:Jewel Days
Artist:Duca
ArtistUnicode:Duca
Creator:0109-
Version:Asaiga's Insane
Source:Golden Marriage -Jewel Days-
Tags:visual novel eroge lotta ensemble ゴールデンマリッジ ジュエルデイズ asaiga yamicchi
BeatmapID:1074492
BeatmapSetID:491650

[Difficulty]
HPDrainRate:6
CircleSize:4
OverallDifficulty:7.5
ApproachRate:9
SliderMultiplier:1.5
SliderTickRate:1

[Events]
//Background and Video events
0,0,"83487.jpg",0,0
//Break Periods
//Storyboard Layer 0 (Background)
//Storyboard Layer 1 (Fail)
//Storyboard Layer 2 (Pass)
//Storyboard Layer 3 (Foreground)
//Storyboard Sound Samples

[TimingPoints]
1201,333.333333333333,4,2,2,70,1,0
1201,-125,4,2,2,70,0,0
6534,-111.111111111111,4,2,2,70,0,0
19867,-125,4,2,2,70,0,0
62534,-100,4,2,2,70,0,1
78534,-100,4,2,2,70,0,0
83867,-100,4,2,2,70,0,1
99867,-100,4,2,2,70,0,0
105200,-111.111111111111,4,2,2,70,0,0
125200,-100,4,2,2,5,0,0

[Colours]
Combo1 : 81,168,255
Combo2 : 255,222,155
Combo3 : 255,71,32
Combo4 : 0,196,196

[HitObjects]
227,220,6534,5,4,0:0:0:0:
267,312,6700,1,0,0:0:0:0:
335,193,6867,2,0,P|317:155|296:131,1,67.4999979400635,8|0,0:0|0:0,0:0:0:0:
146,161,7200,1,2,0:0:0:0:
241,199,7367,1,2,0:0:0:0:
205,44,7534,1,8,0:0:0:0:
64,155,7700,6,0,P|52:221|96:285,1,134.999995880127,4|0,0:0|0:0,0:0:0:0:
241,199,8200,2,0,P|234:153|219:120,1,67.4999979400635,8|0,0:0|0:0,0:0:0:0:
145,203,8534,1,8,0:0:0:0:
210,290,8700,1,0,0:0:0:0:
347,255,8867,1,8,0:0:0:0:
320,107,9034,1,0,0:0:0:0:
308,107,9117,1,0,0:0:0:0:
297,109,9200,6,0,B|261:112|261:112|228:126,1,67.4999979400635,4|0,0:0|0:0,0:0:0:0:
129,216,9534,2,0,B|96:225|96:225|55:214,1,67.4999979400635,8|0,0:0|0:0,0:0:0:0:
19,85,9867,1,2,0:0:0:0:
102,143,10034,1,2,0:0:0:0:
178,36,10200,1,8,0:0:0:0:
216,195,10367,6,0,P|204:261|132:300,1,134.999995880127,4|0,0:0|0:0,0:0:0:0:
14,191,10867,1,8,0:0:0:0:
137,172,11034,1,0,0:0:0:0:
274,297,11200,1,8,0:0:0:0:
150,297,11367,1,0,0:0:0:0:
238,172,11534,1,0,0:0:0:0:
256,167,11617,1,0,0:0:0:0:
271,161,11700,1,0,0:0:0:0:
287,158,11784,1,0,0:0:0:0:
303,154,11867,6,0,B|337:145|337:145|380:147,1,67.4999979400635,4|0,0:0|0:0,0:0:0:0:
458,284,12200,2,0,L|387:281,1,67.4999979400635,8|0,0:0|0:0,0:0:0:0:
264,349,12534,1,2,0:0:0:0:
290,238,12700,1,2,0:0:0:0:
154,277,12867,1,8,0:0:0:0:
89,102,13034,6,0,B|131:107|131:107|181:130|181:130|240:134,1,134.999995880127,4|0,0:0|0:0,0:0:0:0:
316,213,13534,1,8,0:0:0:0:
215,330,13700,2,0,P|186:262|220:198,1,134.999995880127,4|0,0:0|0:0,0:0:0:0:
313,138,14200,2,0,L|361:140,2,33.7499989700318,8|0|0,0:0|0:0|0:0,0:0:0:0:
199,47,14534,5,4,0:0:0:0:
199,47,14700,1,0,0:0:0:0:
199,47,14867,1,0,0:0:0:0:
112,144,15034,5,4,0:0:0:0:
112,144,15200,1,0,0:0:0:0:
112,144,15367,1,0,0:0:0:0:
243,126,15534,5,4,0:0:0:0:
243,126,15700,1,0,0:0:0:0:
243,126,15867,1,0,0:0:0:0:
201,242,16034,5,4,0:0:0:0:
201,242,16200,1,0,0:0:0:0:
201,242,16367,1,0,0:0:0:0:
340,314,16534,5,2,0:0:0:0:
433,312,16700,1,0,0:0:0:0:
496,241,16867,1,2,0:0:0:0:
491,146,17034,1,0,0:0:0:0:
373,42,17200,5,4,0:0:0:0:
240,62,17367,2,0,L|147:46,1,67.4999979400635,2|2,0:0|0:0,0:0:0:0:
305,146,17700,5,4,0:0:0:0:
174,193,17867,2,0,L|87:177,1,67.4999979400635,2|2,0:0|0:0,0:0:0:0:
245,283,18200,5,4,0:0:0:0:
359,203,18367,2,0,L|447:192,1,67.4999979400635,2|2,0:0|0:0,0:0:0:0:
277,131,18700,5,4,0:0:0:0:
394,53,18867,2,0,L|468:42,1,67.4999979400635,2|2,0:0|0:0,0:0:0:0:
311,17,19200,5,4,0:0:0:0:
311,17,19367,1,0,0:0:0:0:
189,39,19534,2,0,L|145:30,2,33.7499989700318
265,145,19867,5,4,0:0:0:0:
86,175,20200,1,0,0:0:0:0:
265,145,20534,1,0,0:0:0:0:
151,24,20867,5,0,0:0:0:0:
151,24,20950,1,0,0:0:0:0:
151,24,21034,1,0,0:0:0:0:
151,24,21117,1,0,0:0:0:0:
151,24,21200,5,4,0:0:0:0:
181,149,21367,1,2,0:0:0:0:
43,82,21534,1,2,0:0:0:0:
244,84,21700,2,0,L|317:53,1,60,2|0,0:0|0:0,0:0:0:0:
300,169,22034,2,0,L|367:159,1,60,2|0,0:0|0:0,0:0:0:0:
253,259,22367,6,0,L|373:269,1,120,4|0,0:0|0:0,0:0:0:0:
476,362,22867,2,0,L|390:354,1,60,8|0,0:0|0:0,0:0:0:0:
380,176,23200,1,2,0:0:0:0:
489,200,23367,1,2,0:0:0:0:
264,341,23700,6,0,P|206:323|176:254,1,120,4|0,0:0|0:0,0:0:0:0:
179,118,24200,1,2,0:0:0:0:
258,259,24367,2,0,P|220:203|157:194,1,120,4|0,0:0|0:0,0:0:0:0:
48,279,24867,5,0,0:0:0:0:
36,254,24950,1,0,0:0:0:0:
40,227,25034,1,0,0:0:0:0:
51,202,25117,1,0,0:0:0:0:
63,178,25200,6,0,P|78:114|63:59,1,120,4|8,0:0|0:0,0:0:0:0:
265,88,25867,1,2,0:0:0:0:
172,34,26034,1,2,0:0:0:0:
164,186,26200,2,0,P|163:145|167:104,1,60,8|0,0:0|0:0,0:0:0:0:
276,181,26534,2,0,P|289:242|275:311,1,120,2|8,0:0|0:0,0:0:0:0:
77,315,27200,1,2,0:0:0:0:
177,261,27367,1,2,0:0:0:0:
55,227,27534,5,8,0:0:0:0:
42,203,27617,1,0,0:0:0:0:
34,177,27700,1,0,0:0:0:0:
33,149,27784,1,0,0:0:0:0:
39,122,27867,5,4,0:0:0:0:
95,31,28034,1,0,0:0:0:0:
155,157,28200,1,2,0:0:0:0:
243,82,28367,2,0,L|244:12,1,60,6|0,0:0|0:0,0:0:0:0:
359,186,28701,2,0,L|362:115,1,60,4|0,0:0|0:0,0:0:0:0:
286,276,29034,6,0,P|261:223|289:149,1,120,4|0,0:0|0:0,0:0:0:0:
431,265,29534,1,8,0:0:0:0:
441,162,29700,1,0,0:0:0:0:
286,276,29867,1,4,0:0:0:0:
275,165,30034,1,0,0:0:0:0:
177,64,30200,5,0,0:0:0:0:
149,60,30284,1,0,0:0:0:0:
122,64,30367,1,0,0:0:0:0:
98,76,30450,1,0,0:0:0:0:
77,93,30534,5,4,0:0:0:0:
170,264,30867,1,0,0:0:0:0:
2,177,31200,1,0,0:0:0:0:
209,155,31534,1,0,0:0:0:0:
233,165,31617,1,0,0:0:0:0:
259,166,31700,1,0,0:0:0:0:
286,162,31784,1,0,0:0:0:0:
311,153,31867,5,4,0:0:0:0:
404,60,32034,1,2,0:0:0:0:
447,183,32200,1,2,0:0:0:0:
447,183,32367,2,0,L|436:259,1,60,8|0,0:0|0:0,0:0:0:0:
323,306,32700,2,0,L|247:303,1,60,8|0,0:0|0:0,0:0:0:0:
96,192,33034,6,0,P|149:143|196:143,1,120,4|0,0:0|0:0,0:0:0:0:
267,244,33534,2,0,L|263:311,1,60,8|0,0:0|0:0,0:0:0:0:
269,101,33867,1,2,0:0:0:0:
172,220,34034,1,2,0:0:0:0:
309,169,34200,1,8,0:0:0:0:
175,99,34367,6,0,B|135:77|87:86|87:86|105:119,1,120,4|2,0:0|0:0,0:0:0:0:
172,220,34867,1,8,0:0:0:0:
309,169,35034,2,0,L|332:100,1,60,2|8,0:0|0:0,0:0:0:0:
220,27,35367,1,4,0:0:0:0:
230,160,35534,1,8,0:0:0:0:
309,35,35700,6,0,P|367:26|420:53,1,120,4|0,0:0|0:0,0:0:0:0:
465,166,36200,2,0,L|452:243,1,60,8|0,0:0|0:0,0:0:0:0:
360,321,36534,1,2,0:0:0:0:
242,278,36700,1,2,0:0:0:0:
243,144,36867,2,0,P|286:141|326:143,1,60,8|0,0:0|0:0,0:0:0:0:
485,206,37200,6,0,P|443:209|410:209,1,60,2|0,0:0|0:0,0:0:0:0:
318,134,37534,1,8,0:0:0:0:
245,273,37700,2,0,P|296:257|351:212,1,120,4|0,0:0|0:0,0:0:0:0:
449,332,38200,2,0,P|413:311|382:304,1,60,8|0,0:0|0:0,0:0:0:0:
245,273,38534,5,4,0:0:0:0:
268,164,38700,1,2,0:0:0:0:
151,181,38867,1,8,0:0:0:0:
339,126,39034,2,0,P|307:93|276:82,1,60,4|0,0:0|0:0,0:0:0:0:
116,108,39367,2,0,P|85:135|74:158,1,60,4|0,0:0|0:0,0:0:0:0:
176,316,39700,2,0,P|212:347|300:334,1,120,4|0,0:0|0:0,0:0:0:0:
319,240,40200,6,0,B|380:250,1,60,8|0,0:0|0:0,0:0:0:0:
308,116,40534,1,8,0:0:0:0:
201,52,40700,1,0,0:0:0:0:
173,53,40784,1,0,0:0:0:0:
149,65,40867,1,0,0:0:0:0:
135,87,40950,1,0,0:0:0:0:
127,113,41034,1,0,0:0:0:0:
125,139,41117,1,0,0:0:0:0:
124,165,41200,6,0,P|114:223|57:260,1,120,6|8,0:0|0:0,0:0:0:0:
275,326,41867,1,2,0:0:0:0:
162,359,42034,1,2,0:0:0:0:
229,235,42200,2,0,L|309:245,1,60,8|0,0:0|0:0,0:0:0:0:
422,213,42534,6,0,P|388:169|308:184,1,120,2|8,0:0|0:0,0:0:0:0:
224,25,43200,1,2,0:0:0:0:
253,128,43367,1,2,0:0:0:0:
313,51,43534,2,0,P|348:54|394:67,1,60,8|0,0:0|0:0,0:0:0:0:
175,181,43867,6,0,P|149:127|136:50,1,120,2|8,0:0|0:0,0:0:0:0:
369,82,44534,1,2,0:0:0:0:
312,170,44700,1,2,0:0:0:0:
225,104,44867,2,0,P|260:93|286:88,1,60,8|0,0:0|0:0,0:0:0:0:
405,163,45200,6,0,B|492:138|492:138|486:176,1,120,2|8,0:0|0:0,0:0:0:0:
286,299,45867,1,2,0:0:0:0:
323,168,46034,1,2,0:0:0:0:
167,170,46200,2,0,P|130:168|90:172,1,60,8|0,0:0|0:0,0:0:0:0:
164,352,46534,6,0,P|197:306|174:246,1,120,2|8,0:0|0:0,0:0:0:0:
396,226,47200,1,2,0:0:0:0:
271,184,47367,1,2,0:0:0:0:
303,302,47534,1,8,0:0:0:0:
381,151,47700,6,0,P|392:92|377:20,1,120,6|2,0:0|0:0,0:0:0:0:
270,118,48200,1,8,0:0:0:0:
380,252,48367,6,0,P|344:221|309:211,1,60,6|0,0:0|0:0,0:0:0:0:
186,205,48700,1,2,0:0:0:0:
284,287,48867,1,0,0:0:0:0:
253,315,48950,1,0,0:0:0:0:
213,330,49034,1,0,0:0:0:0:
172,320,49117,1,0,0:0:0:0:
134,301,49200,6,0,P|82:287|6:323,1,120,6|8,0:0|0:0,0:0:0:0:
48,182,49700,1,0,0:0:0:0:
185,204,49867,2,0,L|185:145,1,60,8|0,0:0|0:0,0:0:0:0:
173,40,50200,1,8,0:0:0:0:
51,91,50367,1,2,0:0:0:0:
51,91,50534,6,0,L|116:100,1,60,0|2,0:0|0:0,0:0:0:0:
185,144,50867,1,2,0:0:0:0:
132,268,51034,1,2,0:0:0:0:
247,208,51200,1,8,0:0:0:0:
223,366,51367,1,0,0:0:0:0:
116,231,51534,1,0,0:0:0:0:
106,190,51617,1,0,0:0:0:0:
102,148,51700,1,0,0:0:0:0:
112,106,51784,1,0,0:0:0:0:
132,69,51867,6,0,L|198:65,1,60,4|0,0:0|0:0,0:0:0:0:
305,152,52200,2,0,L|365:146,1,60,8|0,0:0|0:0,0:0:0:0:
427,65,52534,1,2,0:0:0:0:
339,0,52700,1,2,0:0:0:0:
248,100,52867,1,8,0:0:0:0:
276,263,53034,6,0,P|331:261|379:211,1,120,6|0,0:0|0:0,0:0:0:0:
248,100,53534,2,0,L|183:120,1,60,8|0,0:0|0:0,0:0:0:0:
124,44,53867,1,2,0:0:0:0:
45,107,54034,1,2,0:0:0:0:
148,243,54200,2,0,L|157:169,1,60,8|0,0:0|0:0,0:0:0:0:
248,100,54534,6,0,L|234:229,1,120,6|8,0:0|0:0,0:0:0:0:
424,200,55200,1,2,0:0:0:0:
331,146,55367,1,2,0:0:0:0:
356,285,55534,1,8,0:0:0:0:
406,113,55700,6,0,P|364:72|286:80,1,120,4|0,0:0|0:0,0:0:0:0:
240,145,56200,2,0,L|259:206,1,60,8|0,0:0|0:0,0:0:0:0:
157,93,56534,1,8,0:0:0:0:
115,199,56700,1,0,0:0:0:0:
44,58,56867,1,8,0:0:0:0:
15,89,56950,1,0,0:0:0:0:
7,130,57034,1,0,0:0:0:0:
15,170,57117,1,0,0:0:0:0:
37,205,57200,6,0,L|107:223,1,60,4|0,0:0|0:0,0:0:0:0:
266,179,57534,2,0,L|193:165,1,60,8|0,0:0|0:0,0:0:0:0:
121,58,57867,2,0,L|258:83,1,120,8|0,0:0|0:0,0:0:0:0:
344,192,58367,6,0,B|323:281|323:281|311:247,1,120,8|0,0:0|0:0,0:0:0:0:
257,140,58867,1,8,0:0:0:0:
175,271,59034,1,0,0:0:0:0:
86,112,59200,1,8,0:0:0:0:
206,198,59367,1,0,0:0:0:0:
203,55,59534,1,0,0:0:0:0:
224,39,59617,1,0,0:0:0:0:
249,32,59700,1,0,0:0:0:0:
276,33,59784,1,0,0:0:0:0:
300,44,59867,5,8,0:0:0:0:
358,183,60034,1,0,0:0:0:0:
482,60,60200,1,8,0:0:0:0:
352,105,60367,1,0,0:0:0:0:
441,258,60534,1,8,0:0:0:0:
430,119,60700,1,0,0:0:0:0:
302,238,60867,5,8,0:0:0:0:
487,186,61034,1,8,0:0:0:0:
209,142,61367,5,2,0:0:0:0:
209,142,61534,1,8,0:0:0:0:
352,105,61700,1,2,0:0:0:0:
232,244,61867,1,8,0:0:0:0:
178,42,62034,1,10,0:0:0:0:
98,334,62367,1,0,0:0:0:0:
98,334,62450,1,0,0:0:0:0:
98,334,62534,6,0,P|168:303|249:293,1,150,4|8,0:0|0:0,0:0:0:0:
380,85,63200,1,2,0:0:0:0:
263,164,63367,1,2,0:0:0:0:
395,237,63534,2,0,P|406:197|405:142,1,75,8|0,0:0|0:0,0:0:0:0:
265,71,63867,6,0,P|185:64|92:60,1,150,2|8,0:0|0:0,0:0:0:0:
9,145,64367,2,0,P|3:201|12:236,1,75,4|0,0:0|0:0,0:0:0:0:
212,223,64700,2,0,P|223:182|217:138,1,75,4|0,0:0|0:0,0:0:0:0:
96,189,65034,6,0,P|102:276|158:334,1,150,4|0,0:0|0:0,0:0:0:0:
264,346,65534,2,0,L|352:331,1,75,8|0,0:0|0:0,0:0:0:0:
413,200,65867,1,2,0:0:0:0:
444,297,66034,1,2,0:0:0:0:
325,235,66200,2,0,P|320:186|340:135,1,75,8|0,0:0|0:0,0:0:0:0:
434,28,66534,6,0,P|356:61|270:65,1,150,4|8,0:0|0:0,0:0:0:0:
175,25,67034,1,0,0:0:0:0:
325,235,67367,1,2,0:0:0:0:
136,148,67700,6,0,P|77:177|69:272,1,150,4|0,0:0|0:0,0:0:0:0:
194,334,68200,1,8,0:0:0:0:
137,230,68367,1,0,0:0:0:0:
12,338,68534,2,0,L|98:335,1,75,2|2,0:0|0:0,0:0:0:0:
235,224,68867,2,0,L|151:219,1,75,8|0,0:0|0:0,0:0:0:0:
318,293,69200,6,0,P|340:254|342:208,1,75,2|0,0:0|0:0,0:0:0:0:
237,141,69534,1,8,0:0:0:0:
248,320,69700,2,0,L|422:312,1,150,2|2,0:0|0:0,0:0:0:0:
487,235,70200,1,8,0:0:0:0:
387,111,70367,6,0,B|349:78|324:19|324:19|308:62,1,150,4|0,0:0|0:0,0:0:0:0:
327,215,70867,2,0,P|334:277|341:312,1,75,8|0,0:0|0:0,0:0:0:0:
219,158,71200,2,0,P|208:209|194:249,1,75,2|2,0:0|0:0,0:0:0:0:
83,99,71534,2,0,P|138:93|171:94,1,75,8|0,0:0|0:0,0:0:0:0:
366,156,71867,6,0,P|326:158|278:158,1,75,8|0,0:0|0:0,0:0:0:0:
202,305,72200,2,0,P|196:267|200:230,1,75,8|0,0:0|0:0,0:0:0:0:
222,122,72534,1,8,0:0:0:0:
194,8,72700,1,2,0:0:0:0:
81,88,72867,1,8,0:0:0:0:
60,114,72950,1,0,0:0:0:0:
52,147,73034,1,0,0:0:0:0:
57,180,73117,1,0,0:0:0:0:
68,211,73200,6,0,P|74:285|22:355,1,150,6|8,0:0|0:0,0:0:0:0:
168,318,73700,2,0,P|204:326|253:331,1,75
348,285,74034,1,2,0:0:0:0:
333,144,74200,1,8,0:0:0:0:
146,227,74367,6,0,P|209:242|284:189,1,150,6|0,0:0|0:0,0:0:0:0:
195,72,74867,2,0,P|193:110|199:147,1,75,8|0,0:0|0:0,0:0:0:0:
339,61,75200,1,8,0:0:0:0:
233,0,75367,1,0,0:0:0:0:
305,132,75534,1,8,0:0:0:0:
319,162,75617,1,0,0:0:0:0:
323,195,75700,1,0,0:0:0:0:
316,228,75784,1,0,0:0:0:0:
297,256,75867,6,0,P|228:225|130:225,1,150,6|8,0:0|0:0,0:0:0:0:
188,367,76367,2,0,P|225:359|277:342,1,75
380,267,76700,2,0,P|388:227|392:179,1,75
199,147,77034,6,0,P|127:131|86:58,1,150,6|0,0:0|0:0,0:0:0:0:
182,53,77534,5,8,0:0:0:0:
277,155,77700,1,0,0:0:0:0:
275,185,77784,1,0,0:0:0:0:
258,210,77867,1,0,0:0:0:0:
231,223,77950,1,0,0:0:0:0:
200,219,78034,1,0,0:0:0:0:
175,202,78117,1,0,0:0:0:0:
145,203,78200,1,8,0:0:0:0:
120,220,78284,1,0,0:0:0:0:
105,245,78367,1,0,0:0:0:0:
107,274,78450,1,0,0:0:0:0:
123,299,78534,6,0,P|204:297|281:311,1,150,4|8,0:0|0:0,0:0:0:0:
368,349,79034,1,0,0:0:0:0:
429,238,79200,2,0,L|339:227,1,75,2|2,0:0|0:0,0:0:0:0:
224,157,79534,2,0,L|302:147,1,75,8|0,0:0|0:0,0:0:0:0:
420,98,79867,6,0,P|354:75|262:69,1,150,2|8,0:0|0:0,0:0:0:0:
114,248,80534,1,2,0:0:0:0:
137,131,80700,1,2,0:0:0:0:
245,243,80867,1,8,0:0:0:0:
245,243,80950,1,0,0:0:0:0:
245,243,81034,1,0,0:0:0:0:
245,243,81117,1,0,0:0:0:0:
245,243,81200,6,0,P|309:268|394:226,1,150,6|8,0:0|0:0,0:0:0:0:
437,133,81700,1,0,0:0:0:0:
311,95,81867,2,0,P|308:134|313:172,1,75
384,41,82200,1,8,0:0:0:0:
202,36,82367,1,0,0:0:0:0:
168,199,82534,5,8,0:0:0:0:
295,261,82700,1,0,0:0:0:0:
267,91,82867,1,8,0:0:0:0:
249,195,83034,1,0,0:0:0:0:
366,58,83200,5,8,0:0:0:0:
167,78,83367,1,0,0:0:0:0:
201,265,83534,1,8,0:0:0:0:
333,160,83700,1,2,0:0:0:0:
333,160,83784,1,2,0:0:0:0:
333,160,83867,6,0,P|262:150|177:154,1,150,4|8,0:0|0:0,0:0:0:0:
319,348,84534,1,2,0:0:0:0:
343,239,84700,1,2,0:0:0:0:
202,338,84867,2,0,P|178:290|172:255,1,75,8|0,0:0|0:0,0:0:0:0:
128,104,85200,6,0,P|77:132|71:229,1,150,6|8,0:0|0:0,0:0:0:0:
239,231,85700,2,0,P|300:230|322:228,1,75,6|0,0:0|0:0,0:0:0:0:
275,101,86034,2,0,P|218:100|176:106,1,75,6|8,0:0|0:0,0:0:0:0:
148,253,86367,6,0,P|192:314|262:323,1,150,6|0,0:0|0:0,0:0:0:0:
387,242,86867,2,0,P|323:229|286:229,1,75,8|0,0:0|0:0,0:0:0:0:
154,164,87200,2,0,P|215:172|242:170,1,75,2|2,0:0|0:0,0:0:0:0:
373,94,87534,1,8,0:0:0:0:
272,56,87700,1,0,0:0:0:0:
122,83,87867,6,0,L|98:254,1,150,4|8,0:0|0:0,0:0:0:0:
216,297,88367,2,0,P|256:234|220:165,1,150,2|2,0:0|0:0,0:0:0:0:
157,53,88867,1,8,0:0:0:0:
325,75,89034,6,0,P|325:156|338:231,1,150,4|2,0:0|0:0,0:0:0:0:
455,311,89534,2,0,P|462:265|461:226,1,75,8|0,0:0|0:0,0:0:0:0:
341,310,89867,2,0,L|261:298,1,75,2|2,0:0|0:0,0:0:0:0:
83,269,90200,2,0,L|167:256,1,75,8|0,0:0|0:0,0:0:0:0:
320,171,90534,6,0,P|257:138|181:179,1,150,2|8,0:0|0:0,0:0:0:0:
85,56,91034,1,0,0:0:0:0:
85,56,91200,1,0,0:0:0:0:
111,188,91367,1,0,0:0:0:0:
0,147,91534,1,8,0:0:0:0:
176,68,91700,6,0,P|235:50|327:63,1,150,4|2,0:0|0:0,0:0:0:0:
383,171,92200,2,0,L|371:252,1,75,8|0,0:0|0:0,0:0:0:0:
478,335,92534,1,2,0:0:0:0:
494,228,92700,1,2,0:0:0:0:
368,332,92867,2,0,L|266:314,1,75,8|0,0:0|0:0,0:0:0:0:
155,269,93200,6,0,L|251:255,1,75,10|0,0:0|0:0,0:0:0:0:
375,191,93534,2,0,L|297:179,1,75,10|0,0:0|0:0,0:0:0:0:
119,124,93867,2,0,L|209:110,1,75,10|0,0:0|0:0,0:0:0:0:
361,84,94200,1,0,0:0:0:0:
394,79,94284,1,0,0:0:0:0:
425,89,94367,1,0,0:0:0:0:
450,111,94450,1,0,0:0:0:0:
461,142,94534,6,0,L|447:296,1,150,4|8,0:0|0:0,0:0:0:0:
335,194,95034,2,0,L|351:278,1,75
241,189,95367,1,0,0:0:0:0:
197,299,95534,1,8,0:0:0:0:
23,272,95700,6,0,P|69:225|165:235,1,150,4|0,0:0|0:0,0:0:0:0:
281,123,96200,2,0,L|194:114,1,75,8|0,0:0|0:0,0:0:0:0:
96,29,96534,1,2,0:0:0:0:
131,138,96700,1,2,0:0:0:0:
249,38,96867,1,0,0:0:0:0:
273,38,96950,1,0,0:0:0:0:
299,37,97034,1,0,0:0:0:0:
324,37,97117,1,0,0:0:0:0:
349,38,97200,6,0,P|385:90|369:185,1,150,4|8,0:0|0:0,0:0:0:0:
240,224,97700,2,0,P|182:171|177:96,1,150,2|2,0:0|0:0,0:0:0:0:
281,123,98200,1,8,0:0:0:0:
151,29,98367,6,0,L|0:21,1,150,4|2,0:0|0:0,0:0:0:0:
29,197,98867,1,8,0:0:0:0:
161,107,99034,1,2,0:0:0:0:
142,246,99200,1,8,0:0:0:0:
55,113,99367,1,2,0:0:0:0:
67,304,99534,2,0,P|132:341|158:338,1,75,8|0,0:0|0:0,0:0:0:0:
290,227,99867,6,0,L|133:246,1,150,4|8,0:0|0:0,0:0:0:0:
71,37,100534,1,2,0:0:0:0:
146,122,100700,1,2,0:0:0:0:
26,230,100867,2,0,P|24:190|43:146,1,75,8|0,0:0|0:0,0:0:0:0:
146,122,101200,6,0,L|229:113,1,75,2|2,0:0|0:0,0:0:0:0:
333,32,101534,2,0,L|425:39,1,75,8|0,0:0|0:0,0:0:0:0:
489,152,101867,2,0,L|408:155,1,75,2|2,0:0|0:0,0:0:0:0:
275,194,102200,1,8,0:0:0:0:
251,213,102284,1,0,0:0:0:0:
242,241,102367,1,0,0:0:0:0:
243,270,102450,1,0,0:0:0:0:
258,295,102534,6,0,P|308:326|356:320,1,75,4|0,0:0|0:0,0:0:0:0:
430,221,102867,2,0,L|423:136,1,75,8|0,0:0|0:0,0:0:0:0:
310,52,103200,2,0,L|320:135,1,75,8|0,0:0|0:0,0:0:0:0:
322,245,103534,1,8,0:0:0:0:
211,218,103700,5,2,0:0:0:0:
100,191,103867,1,8,0:0:0:0:
241,123,104034,1,2,0:0:0:0:
205,306,104200,1,8,0:0:0:0:
133,111,104367,5,2,0:0:0:0:
81,301,104534,1,8,0:0:0:0:
0,144,104700,1,2,0:0:0:0:
195,195,104867,1,8,0:0:0:0:
195,195,104950,1,0,0:0:0:0:
195,195,105034,1,2,0:0:0:0:
195,195,105117,1,2,0:0:0:0:
195,195,105200,6,0,L|218:108,2,67.4999979400635,4|0|8,0:0|0:0|0:0,0:0:0:0:
484,317,105867,2,0,L|471:235,1,67.4999979400635,2|2,0:0|0:0,0:0:0:0:
500,123,106200,1,8,0:0:0:0:
379,198,106367,6,0,P|305:208|220:201,1,134.999995880127,4|2,0:0|0:0,0:0:0:0:
117,120,106867,2,0,P|137:169|141:200,1,67.4999979400635,8|0,0:0|0:0,0:0:0:0:
65,315,107200,2,0,P|110:308|155:318,1,67.4999979400635,2|2,0:0|0:0,0:0:0:0:
276,345,107534,1,8,0:0:0:0:
209,198,107700,1,2,0:0:0:0:
209,198,107784,1,2,0:0:0:0:
209,198,107867,6,0,P|201:136|205:45,1,134.999995880127,4|8,0:0|0:0,0:0:0:0:
473,74,108534,1,2,0:0:0:0:
331,142,108700,1,2,0:0:0:0:
360,11,108867,1,8,0:0:0:0:
436,190,109034,6,0,B|440:249|418:290|418:290|401:253,1,134.999995880127,4|2,0:0|0:0,0:0:0:0:
331,142,109534,1,8,0:0:0:0:
512,152,109700,1,0,0:0:0:0:
324,227,109867,1,8,0:0:0:0:
399,58,110034,1,0,0:0:0:0:
475,221,110200,1,8,0:0:0:0:
306,114,110367,1,2,0:0:0:0:
306,114,110450,1,2,0:0:0:0:
306,114,110534,6,0,B|237:103,2,67.4999979400635,4|0|8,0:0|0:0|0:0,0:0:0:0:
65,332,111200,2,0,P|116:326|154:327,1,67.4999979400635,2|2,0:0|0:0,0:0:0:0:
225,263,111534,1,8,0:0:0:0:
42,215,111700,6,0,P|55:152|125:124,1,134.999995880127,4|2,0:0|0:0,0:0:0:0:
216,170,112200,1,8,0:0:0:0:
127,325,112367,2,0,P|131:268|138:236,1,67.4999979400635,4|0,0:0|0:0,0:0:0:0:
229,181,112700,1,0,0:0:0:0:
336,265,112867,2,0,L|339:205,2,33.7499989700318,8|0|0,0:0|0:0|0:0,0:0:0:0:
224,290,113200,5,4,0:0:0:0:
224,290,113367,1,0,0:0:0:0:
224,290,113534,1,0,0:0:0:0:
337,231,113700,5,4,0:0:0:0:
337,231,113867,1,0,0:0:0:0:
337,231,114034,1,0,0:0:0:0:
236,160,114200,5,4,0:0:0:0:
236,160,114367,1,0,0:0:0:0:
236,160,114534,1,0,0:0:0:0:
126,216,114700,5,4,0:0:0:0:
126,216,114867,1,0,0:0:0:0:
126,216,115034,1,0,0:0:0:0:
153,86,115200,5,4,0:0:0:0:
239,47,115367,1,0,0:0:0:0:
333,54,115534,1,0,0:0:0:0:
407,110,115700,1,0,0:0:0:0:
407,282,115867,5,4,0:0:0:0:
299,336,116034,2,0,L|208:333,1,67.4999979400635,2|2,0:0|0:0,0:0:0:0:
358,207,116367,5,4,0:0:0:0:
246,248,116534,2,0,L|170:235,1,67.4999979400635,2|2,0:0|0:0,0:0:0:0:
107,87,116867,5,4,0:0:0:0:
205,28,117034,2,0,L|271:17,1,67.4999979400635,2|2,0:0|0:0,0:0:0:0:
171,157,117367,5,4,0:0:0:0:
277,107,117534,2,0,L|358:115,1,67.4999979400635,2|2,0:0|0:0,0:0:0:0:
429,281,117867,5,4,0:0:0:0:
338,190,118034,1,0,0:0:0:0:
267,295,118200,1,0,0:0:0:0:
267,295,118284,1,0,0:0:0:0:
267,295,118367,1,0,0:0:0:0:
167,163,118534,5,4,0:0:0:0:
256,192,118617,12,0,125200,0:0:0:0:
