osu file format v14

[General]
AudioFilename: audio.mp3
AudioLeadIn: 0
PreviewTime: 62534
Countdown: 0
SampleSet: Soft
StackLeniency: 0.7
Mode: 0
LetterboxInBreaks: 0
WidescreenStoryboard: 0

[Editor]
DistanceSpacing: 1.2
BeatDivisor: 4
GridSize: 4
TimelineZoom: 1

[Metadata]
Title:Jewel Days
TitleUnicode:Jewel Days
Artist:Duca
ArtistUnicode:Duca
Creator:0109-
Version:Hard
Source:Golden Marriage -Jewel Days-
Tags:visual novel eroge lotta ensemble ゴールデンマリッジ ジュエルデイズ asaiga yamicchi
BeatmapID:1047631
BeatmapSetID:491650

[Difficulty]
HPDrainRate:5
CircleSize:3.8
OverallDifficulty:6
ApproachRate:7.5
SliderMultiplier:1.4
SliderTickRate:1

[Events]
//Background and Video events
0,0,"83487.jpg",0,0
//Break Periods
//Storyboard Layer 0 (Background)
//Storyboard Layer 1 (Fail)
//Storyboard Layer 2 (Pass)
//Storyboard Layer 3 (Foreground)
//Storyboard Sound Samples

[TimingPoints]
1201,333.333333333333,4,2,2,70,1,0
19867,-100,4,2,2,55,0,0
20867,-100,4,2,2,70,0,0
30534,-100,4,2,2,55,0,0
31534,-100,4,2,2,70,0,0
62534,-100,4,2,2,70,0,1
78534,-100,4,2,2,70,0,0
83867,-100,4,2,2,70,0,1
99867,-100,4,2,2,70,0,0
125200,-100,4,2,2,5,0,0

[Colours]
Combo1 : 81,168,255
Combo2 : 255,222,155
Combo3 : 255,71,32
Combo4 : 0,196,196

[HitObjects]
104,124,6534,6,0,B|124:96|124:96|164:92|236:116,2,140,6|8|0,0:0|0:0|3:0,0:0:0:0:
96,208,7367,1,0,3:0:0:0:
96,208,7534,1,8,0:0:0:0:
36,288,7700,6,0,P|96:312|167:278,1,140,6|0,0:0|0:0,0:0:0:0:
244,288,8200,2,0,P|256:252|252:216,1,70,8|0,0:0|0:0,0:0:0:0:
332,188,8534,2,0,P|324:152|304:124,1,70,0|0,3:0|3:0,0:0:0:0:
220,128,8867,1,8,0:0:0:0:
256,56,9034,1,8,0:0:0:0:
268,56,9117,1,8,0:0:0:0:
280,56,9200,6,0,L|368:56,1,70,14|0,0:0|0:0,0:0:0:0:
428,28,9534,2,0,P|432:68|424:100,1,70,8|0,0:0|0:0,0:0:0:0:
420,180,9867,2,0,P|420:216|432:252,2,70,0|0|8,3:0|3:0|0:0,0:0:0:0:
332,140,10367,6,0,P|260:136|196:172,1,140,6|0,0:0|0:0,0:0:0:0:
196,252,10867,2,0,L|196:328,1,70,8|0,0:0|0:0,0:0:0:0:
272,356,11200,2,0,L|272:280,1,70,8|0,0:0|0:0,0:0:0:0:
336,232,11534,1,8,0:0:0:0:
420,236,11700,1,8,0:0:0:0:
432,228,11784,1,8,0:0:0:0:
444,220,11867,6,0,P|472:184|480:152,1,70,14|0,0:0|0:0,0:0:0:0:
428,92,12200,2,0,P|424:56|408:24,1,70,8|0,0:0|0:0,0:0:0:0:
344,76,12534,2,0,P|312:48|280:40,2,70,0|0|8,3:0|3:0|0:0,0:0:0:0:
388,164,13034,6,0,B|384:212|384:212|392:260|392:260|388:316,1,140,6|0,0:0|0:0,0:0:0:0:
324,360,13534,1,8,0:0:0:0:
248,300,13700,6,0,P|176:280|112:296,1,140,6|0,0:0|0:0,0:0:0:0:
44,340,14200,1,8,0:0:0:0:
44,340,14284,1,0,0:0:0:0:
44,340,14367,1,0,0:0:0:0:
32,244,14534,6,0,L|32:164,1,70,14|0,0:0|0:0,0:0:0:0:
60,96,14867,1,0,0:0:0:0:
144,144,15034,2,0,P|188:148|220:144,1,70,14|0,0:0|0:0,0:0:0:0:
284,96,15367,1,0,0:0:0:0:
348,172,15534,6,0,P|360:212|364:260,2,70,14|0|0,0:0|0:0|0:0,0:0:0:0:
272,236,16034,2,0,P|268:280|272:316,2,70,14|0|0,0:0|0:0|0:0,0:0:0:0:
188,284,16534,6,0,P|148:288|112:280,1,70,10|0,0:0|0:0,0:0:0:0:
40,248,16867,1,10,0:0:0:0:
40,248,17034,1,0,0:0:0:0:
108,180,17200,6,0,P|116:140|108:108,1,70,14|0,0:0|0:0,0:0:0:0:
64,40,17534,1,0,0:0:0:0:
160,24,17700,2,0,P|200:20|240:28,1,70,14|0,0:0|0:0,0:0:0:0:
268,96,18034,1,0,0:0:0:0:
208,172,18200,6,0,L|208:256,2,70,14|0|0,0:0|0:0|0:0,0:0:0:0:
268,96,18700,2,0,L|340:64,2,70,14|0|0,0:0|0:0|0:0,0:0:0:0:
332,172,19200,2,0,L|408:172,1,70,14|0,0:0|0:0,0:0:0:0:
440,264,19534,2,0,L|356:264,1,70,10|0,0:0|0:0,0:0:0:0:
272,256,19867,5,6,0:0:0:0:
136,352,20200,1,2,0:0:0:0:
28,224,20534,1,2,0:0:0:0:
160,120,20867,2,0,P|168:80|160:44,1,70,2|2,0:0|0:0,0:0:0:0:
76,8,21200,6,0,L|224:8,1,140,6|8,0:0|0:0,0:0:0:0:
296,28,21700,1,2,3:0:0:0:
416,144,22034,1,2,3:0:0:0:
292,296,22367,6,0,L|152:296,1,140,6|0,0:0|0:0,0:0:0:0:
70,317,22867,2,0,P|61:252|98:185,1,140,8|8,0:0|0:0,0:0:0:0:
178,193,23367,1,8,0:0:0:0:
178,193,23700,6,0,B|182:157|182:157|174:93|174:93|175:53,1,140,6|0,0:0|0:0,0:0:0:0:
251,19,24200,1,8,0:0:0:0:
346,40,24367,6,0,B|344:79|344:79|352:143|352:143|348:179,1,140,6|0,0:0|0:0,0:0:0:0:
344,256,24867,2,0,P|340:296|348:328,1,70,8|10,0:0|0:0,0:0:0:0:
362,343,25117,1,8,0:0:0:0:
379,360,25200,6,0,L|223:360,1,140,6|8,0:0|0:0,0:0:0:0:
160,336,25700,1,2,0:0:0:0:
128,256,25867,2,0,P|124:212|132:172,1,70,2|0,0:0|3:0,0:0:0:0:
212,176,26200,2,0,P|216:132|212:100,1,70,8|2,0:0|0:0,0:0:0:0:
168,36,26534,6,0,P|100:20|28:44,1,140,2|8,0:0|0:0,0:0:0:0:
16,124,27034,1,2,0:0:0:0:
16,124,27200,2,0,L|16:208,1,70,2|0,0:0|3:0,0:0:0:0:
96,224,27534,2,0,L|96:152,1,70,8|10,0:0|0:0,0:0:0:0:
185,112,27867,6,0,P|257:96|325:116,1,140,14|10,0:0|0:0,0:0:0:0:
305,196,28367,1,2,0:0:0:0:
432,84,28700,1,2,0:0:0:0:
500,268,29034,6,0,B|468:308|468:308|368:316,1,140,6|0,0:0|3:0,0:0:0:0:
356,232,29534,2,0,L|444:224,1,70,8|0,0:0|0:0,0:0:0:0:
492,176,29867,2,0,P|508:144|508:104,1,70,12|0,0:0|3:0,0:0:0:0:
436,72,30200,2,0,P|408:44|368:32,1,70,8|8,0:0|0:0,0:0:0:0:
280,40,30534,5,14,0:0:0:0:
232,200,30867,1,2,0:0:0:0:
128,68,31200,1,2,0:0:0:0:
40,212,31534,2,0,L|40:284,1,70,2|2,0:0|0:0,0:0:0:0:
96,364,31867,6,0,P|164:384|228:352,1,140,6|8,0:0|0:0,0:0:0:0:
188,280,32367,1,2,3:0:0:0:
336,356,32700,1,2,3:0:0:0:
452,200,33034,6,0,P|476:132|452:56,1,140,6|0,0:0|0:0,0:0:0:0:
376,64,33534,2,0,L|292:64,1,70,8|0,0:0|0:0,0:0:0:0:
228,32,33867,2,0,P|220:72|232:108,1,70,0|0,3:0|3:0,0:0:0:0:
227,99,34200,1,8,0:0:0:0:
308,156,34367,6,0,B|304:200|304:200|312:264|312:264|308:300,1,140,6|0,0:0|0:0,0:0:0:0:
232,328,34867,1,10,0:0:0:0:
244,232,35034,2,0,P|320:212|388:248,1,140,6|6,0:0|0:0,0:0:0:0:
408,312,35534,1,10,0:0:0:0:
456,224,35700,6,0,B|456:176|456:176|448:120|448:120|452:72,1,140,6|0,0:0|0:0,0:0:0:0:
388,28,36200,2,0,L|312:28,1,70,8|2,0:0|0:0,0:0:0:0:
240,64,36534,2,0,P|200:68|168:60,1,70,2|0,0:0|0:0,0:0:0:0:
92,24,36867,2,0,P|84:60|88:96,1,70,8|2,0:0|0:0,0:0:0:0:
120,172,37200,6,0,P|204:148|268:156,1,140,2|10,0:0|0:0,0:0:0:0:
348,184,37700,2,0,B|344:240|344:240|356:280|356:280|352:336,1,140,6|0,0:0|0:0,0:0:0:0:
424,364,38200,2,0,P|464:372|500:360,1,70,8|2,0:0|0:0,0:0:0:0:
416,276,38534,6,0,P|360:248|280:288,1,140,6|8,0:0|0:0,0:0:0:0:
220,340,39034,1,2,0:0:0:0:
68,216,39367,1,2,0:0:0:0:
204,76,39700,6,0,P|276:52|348:84,1,140,6|0,0:0|0:0,0:0:0:0:
364,152,40200,2,0,P|408:160|444:160,1,70,8|0,0:0|0:0,0:0:0:0:
496,100,40534,1,8,0:0:0:0:
436,40,40700,1,8,0:0:0:0:
420,40,40784,1,8,0:0:0:0:
404,40,40867,2,0,L|364:40,3,35,8|0|8|8,0:0|0:0|3:0|3:0,0:0:0:0:
348,40,41200,6,0,L|192:40,1,140,6|8,0:0|0:0,0:0:0:0:
124,32,41700,1,2,0:0:0:0:
60,88,41867,2,0,P|52:128|64:172,1,70,2|0,0:0|3:0,0:0:0:0:
108,220,42200,1,8,0:0:0:0:
252,312,42534,6,0,B|284:328|284:328|328:336|396:304,2,140,2|10|2,0:0|0:0|0:0,0:0:0:0:
204,244,43367,1,0,3:0:0:0:
204,244,43534,2,0,L|204:164,1,70,10|0,0:0|0:0,0:0:0:0:
140,120,43867,6,0,P|204:92|272:124,1,140,2|8,0:0|0:0,0:0:0:0:
316,180,44367,1,2,0:0:0:0:
316,180,44534,2,0,L|388:180,2,70,2|0|8,0:0|3:0|0:0,0:0:0:0:
472,120,45200,6,0,P|488:192|460:256,1,140,2|8,0:0|0:0,0:0:0:0:
388,288,45700,1,0,0:0:0:0:
388,288,45867,2,0,P|352:280|308:292,1,70,2|2,0:0|3:0,0:0:0:0:
240,312,46200,2,0,P|200:320|156:308,1,70,10|2,0:0|0:0,0:0:0:0:
96,356,46534,6,0,P|92:284|144:232,1,140,2|8,0:0|0:0,0:0:0:0:
220,232,47034,1,0,0:0:0:0:
276,168,47200,1,0,0:0:0:0:
192,152,47367,2,0,L|168:80,1,70,2|8,0:0|0:0,0:0:0:0:
276,28,47700,6,0,L|276:172,1,140,6|0,0:0|0:0,0:0:0:0:
316,240,48200,1,10,0:0:0:0:
396,184,48367,6,0,L|396:44,1,140,6|0,0:0|0:0,0:0:0:0:
476,64,48867,1,8,0:0:0:0:
476,64,49034,1,8,0:0:0:0:
480,160,49200,6,0,B|472:212|472:212|484:252|484:252|476:304,1,140,6|0,0:0|0:0,0:0:0:0:
312,336,49867,2,0,P|236:348|172:316,1,140,10|0,0:0|0:0,0:0:0:0:
108,280,50367,1,8,0:0:0:0:
108,280,50534,2,0,L|108:352,2,70,2|8|0,0:0|0:0|0:0,0:0:0:0:
72,116,51200,2,0,B|92:84|92:84|140:64|200:80,1,140,10|8,0:0|0:0,0:0:0:0:
264,116,51700,1,8,0:0:0:0:
272,120,51784,1,8,0:0:0:0:
280,124,51867,6,0,P|320:128|356:124,1,70,6|0,0:0|0:0,0:0:0:0:
428,92,52200,2,0,P|436:136|416:180,1,70,10|2,0:0|0:0,0:0:0:0:
376,228,52534,2,0,P|372:276|384:308,2,70,0|0|8,3:0|3:0|3:2,0:0:0:0:
280,204,53034,6,0,P|204:200|144:232,1,140,6|0,0:0|0:0,0:0:0:0:
104,300,53534,2,0,P|60:272|48:244,1,70,10|2,0:0|0:0,0:0:0:0:
60,172,53867,2,0,P|68:132|60:96,1,70,0|0,3:0|3:0,0:0:0:0:
28,28,54200,1,10,3:2:0:0:
192,64,54534,6,0,P|272:48|336:72,2,140,6|10|0,0:0|0:0|3:0,0:0:0:0:
172,144,55367,2,0,L|176:216,1,70,2|8,3:0|3:2,0:0:0:0:
244,284,55700,6,0,B|300:308|340:260|400:292,1,140,6|0,0:0|0:0,0:0:0:0:
460,316,56200,2,0,P|464:272|452:244,1,70,8|0,0:0|0:0,0:0:0:0:
392,192,56534,1,2,3:0:0:0:
392,192,56700,1,2,3:0:0:0:
456,136,56867,2,0,L|456:60,1,70,10|8,3:2|0:0,0:0:0:0:
360,44,57200,6,0,B|308:24|272:68|220:32,2,140,6|8|0,0:0|0:0|0:0,0:0:0:0:
316,116,58034,2,0,P|280:124|232:120,1,70,10|0,0:0|3:0,0:0:0:0:
164,112,58367,2,0,P|92:104|16:136,1,140,10|0,0:0|3:0,0:0:0:0:
4,208,58867,2,0,L|8:284,1,70,10|0,0:0|0:0,0:0:0:0:
92,296,59200,2,0,L|88:220,1,70,10|0,0:0|0:0,0:0:0:0:
164,192,59534,1,8,0:0:0:0:
164,192,59700,1,8,0:0:0:0:
236,256,59867,6,0,P|276:268|316:268,1,70,6|0,0:0|0:0,0:0:0:0:
368,328,60200,2,0,P|396:280|400:260,1,70,8|0,0:0|0:0,0:0:0:0:
480,236,60534,2,0,P|468:196|448:168,1,70,8|0,0:0|0:0,0:0:0:0:
388,116,60867,1,8,0:0:0:0:
316,184,61034,6,0,B|268:180|268:180|212:188|212:188|168:180,1,140,6|0,0:0|0:0,0:0:0:0:
112,132,61534,2,0,P|108:96|112:60,1,70,8|0,0:0|0:0,0:0:0:0:
188,28,61867,1,2,3:0:0:0:
256,80,62034,1,2,3:0:0:0:
420,40,62367,5,0,0:0:0:0:
420,40,62450,1,2,0:0:0:0:
420,40,62534,2,0,P|428:76|416:124,1,70,6|0,0:0|0:0,0:0:0:0:
344,136,62867,2,0,P|340:184|348:220,1,70,10|2,0:0|0:0,0:0:0:0:
404,264,63200,1,0,3:0:0:0:
384,344,63367,1,2,3:0:0:0:
300,352,63534,2,0,L|228:352,1,70,8|2,0:0|0:0,0:0:0:0:
168,276,63867,6,0,L|308:276,1,140,2|10,0:0|0:0,0:0:0:0:
372,200,64367,1,6,3:0:0:0:
260,40,64700,1,6,3:0:0:0:
64,56,65034,6,0,P|48:128|64:196,1,140,6|0,0:0|0:0,0:0:0:0:
128,244,65534,2,0,L|204:244,1,70,8|0,0:0|0:0,0:0:0:0:
272,208,65867,2,0,P|276:168|268:132,1,70,0|0,3:0|3:0,0:0:0:0:
228,64,66200,1,8,0:0:0:0:
228,64,66367,1,2,0:0:0:0:
324,40,66534,6,0,P|401:18|464:47,1,140,6|8,0:0|0:0,0:0:0:0:
496,112,67034,2,0,P|504:148|504:192,1,70,2|0,3:0|0:0,0:0:0:0:
456,252,67367,2,0,P|416:228|392:204,1,70,2|8,3:0|3:2,0:0:0:0:
392,116,67700,5,6,0:0:0:0:
304,260,68034,1,0,0:0:0:0:
304,260,68200,2,0,L|224:260,1,70,8|2,0:0|0:0,0:0:0:0:
204,180,68534,2,0,L|276:180,1,70,2|0,3:0|3:0,0:0:0:0:
312,104,68867,2,0,P|320:68|312:28,1,70,8|0,0:0|0:0,0:0:0:0:
232,36,69200,6,0,L|92:36,1,140,2|10,0:0|0:0,0:0:0:0:
36,96,69700,2,0,P|28:136|32:172,1,70,2|0,3:0|0:0,0:0:0:0:
112,136,70034,2,0,P|148:132|192:136,1,70,2|8,3:0|3:2,0:0:0:0:
260,192,70367,5,6,0:0:0:0:
104,252,70700,1,0,0:0:0:0:
104,252,70867,2,0,P|108:292|100:324,1,70,8|0,0:0|0:0,0:0:0:0:
180,352,71200,2,0,P|204:312|228:292,1,70,0|0,3:0|3:0,0:0:0:0:
304,304,71534,2,0,L|380:304,1,70,8|0,0:0|0:0,0:0:0:0:
440,252,71867,6,0,P|460:180|436:112,2,140,2|10|2,0:0|0:0|3:0,0:0:0:0:
372,304,72700,1,2,3:0:0:0:
344,224,72867,2,0,P|340:184|344:148,1,70,8|10,0:0|0:0,0:0:0:0:
396,72,73200,6,0,L|248:72,1,140,6|10,0:0|0:0,0:0:0:0:
176,48,73700,1,2,3:0:0:0:
88,192,74034,1,2,3:0:0:0:
236,324,74367,6,0,B|288:352|316:312|380:332,1,140,6|0,0:0|0:0,0:0:0:0:
452,360,74867,2,0,P|460:320|448:288,1,70,8|0,0:0|0:0,0:0:0:0:
392,232,75200,2,0,P|384:188|396:148,1,70,0|0,3:0|3:0,0:0:0:0:
416,84,75534,1,8,0:0:0:0:
416,84,75700,1,10,0:0:0:0:
328,44,75867,6,0,P|256:28|188:48,1,140,6|10,0:0|0:0,0:0:0:0:
136,108,76367,1,2,3:0:0:0:
168,272,76700,1,2,3:0:0:0:
332,164,77034,6,0,B|384:192|412:152|476:172,1,140,6|0,0:0|0:0,0:0:0:0:
500,248,77534,2,0,P|504:288|496:320,1,70,8|8,0:0|0:0,0:0:0:0:
420,352,77867,2,0,L|348:352,1,70,8|0,0:0|0:0,0:0:0:0:
288,300,78200,1,8,0:0:0:0:
288,300,78367,1,0,0:0:0:0:
208,356,78534,6,0,P|191:283|225:226,1,140,6|8,0:0|0:0,0:0:0:0:
300,200,79034,1,2,0:0:0:0:
300,200,79200,2,0,P|304:152|300:124,2,70,2|0|8,0:0|0:0|0:0,0:0:0:0:
236,44,79867,6,0,P|308:28|376:52,1,140,0|8,0:0|0:0,0:0:0:0:
420,116,80367,1,0,0:0:0:0:
420,116,80534,2,0,L|428:188,1,70,2|2,0:0|0:0,0:0:0:0:
388,260,80867,2,0,L|384:336,1,70,10|10,0:0|0:0,0:0:0:0:
288,348,81200,6,0,B|236:360|192:328|140:356,2,140,6|0|2,0:0|0:0|0:0,0:0:0:0:
428,252,82200,1,0,0:0:0:0:
428,252,82367,2,0,L|460:184,2,70,8|2|8,0:0|0:0|0:0,0:0:0:0:
344,264,82867,2,0,L|272:272,1,70,2|0,0:0|0:0,0:0:0:0:
212,216,83200,2,0,L|136:204,1,70,10|10,0:0|0:0,0:0:0:0:
60,196,83534,2,0,L|68:132,3,35,8|8|8|8,0:0|0:0|0:0|0:0,0:0:0:0:
84,128,83867,6,0,P|124:124|164:128,1,70,6|0,0:0|0:0,0:0:0:0:
236,144,84200,2,0,P|272:148|312:144,1,70,8|2,0:0|0:0,0:0:0:0:
376,100,84534,1,0,3:0:0:0:
448,60,84700,1,2,3:0:0:0:
468,140,84867,2,0,L|468:212,1,70,8|2,0:0|0:0,0:0:0:0:
420,296,85200,6,0,P|352:316|284:288,1,140,2|10,0:0|0:0,0:0:0:0:
208,240,85700,1,6,3:0:0:0:
396,180,86034,1,6,3:0:0:0:
280,68,86367,6,0,P|216:52|140:80,1,140,6|0,0:0|0:0,0:0:0:0:
92,140,86867,2,0,L|92:228,1,70,8|0,0:0|0:0,0:0:0:0:
124,288,87200,2,0,P|164:296|200:288,1,70,0|0,3:0|3:0,0:0:0:0:
272,260,87534,1,8,0:0:0:0:
272,260,87700,1,2,0:0:0:0:
348,320,87867,6,0,P|364:252|328:184,1,140,6|8,0:0|0:0,0:0:0:0:
252,180,88367,2,0,P|212:180|176:184,1,70,2|0,3:0|0:0,0:0:0:0:
188,100,88700,2,0,P|240:100|272:96,1,70,2|8,3:0|3:2,0:0:0:0:
328,28,89034,5,6,0:0:0:0:
452,140,89367,1,0,0:0:0:0:
452,140,89534,2,0,P|456:92|448:68,1,70,8|2,0:0|0:0,0:0:0:0:
376,28,89867,2,0,L|292:28,1,70,2|0,3:0|3:0,0:0:0:0:
224,44,90200,2,0,P|180:48|136:40,1,70,8|2,0:0|0:0,0:0:0:0:
72,20,90534,6,0,P|48:92|80:164,1,140,2|8,0:0|0:0,0:0:0:0:
152,164,91034,2,0,P|148:204|132:240,1,70,2|0,3:0|0:0,0:0:0:0:
56,260,91367,2,0,P|60:304|72:348,1,70,2|8,3:0|3:2,0:0:0:0:
156,368,91700,5,6,0:0:0:0:
284,260,92034,1,0,0:0:0:0:
284,260,92200,2,0,P|328:264|356:260,1,70,8|0,0:0|0:0,0:0:0:0:
432,292,92534,2,0,P|448:252|448:216,1,70,0|0,3:0|3:0,0:0:0:0:
508,164,92867,2,0,P|480:132|448:116,1,70,8|0,0:0|0:0,0:0:0:0:
372,120,93200,6,0,P|320:128|240:92,2,140,2|10|2,0:0|0:0|3:0,0:0:0:0:
412,44,94034,1,2,3:0:0:0:
456,118,94200,2,0,L|456:190,1,70,8|8,0:0|0:0,0:0:0:0:
508,272,94534,6,0,P|440:284|372:240,1,140,6|8,0:0|0:0,0:0:0:0:
308,208,95034,1,2,3:0:0:0:
164,296,95367,1,2,3:0:0:0:
48,140,95700,6,0,P|28:72|56:4,1,140,6|0,0:0|0:0,0:0:0:0:
132,36,96200,2,0,L|212:36,1,70,8|0,0:0|0:0,0:0:0:0:
288,28,96534,2,0,P|332:24|372:32,1,70,0|0,3:0|3:0,0:0:0:0:
432,64,96867,1,8,0:0:0:0:
432,64,97034,1,10,0:0:0:0:
500,136,97200,6,0,P|428:160|360:132,1,140,6|0,0:0|0:0,0:0:0:0:
292,108,97700,1,2,3:0:0:0:
144,188,98034,1,2,3:0:0:0:
208,4,98367,6,0,B|204:40|204:40|212:104|212:104|208:144,1,140,6|0,0:0|0:0,0:0:0:0:
264,208,98867,1,8,0:0:0:0:
264,208,99034,1,8,0:0:0:0:
244,288,99200,2,0,L|168:288,1,70,2|2,0:0|0:0,0:0:0:0:
108,236,99534,2,0,L|32:236,1,70,8|0,0:0|0:0,0:0:0:0:
12,140,99867,5,2,0:0:0:0:
64,72,100034,1,2,0:0:0:0:
116,140,100200,2,0,B|164:144|164:144|224:140|224:140|268:144,1,140,8|0,0:0|0:0,0:0:0:0:
324,96,100700,1,0,0:0:0:0:
388,40,100867,2,0,P|408:100|368:172,1,140,8|0,0:0|0:0,0:0:0:0:
296,312,101534,6,0,L|148:312,1,140,8|0,0:0|0:0,0:0:0:0:
104,244,102034,1,0,0:0:0:0:
64,168,102200,2,0,L|80:124,3,35,8|8|8|8,0:0|0:0|0:0|0:0,0:0:0:0:
76,92,102534,6,0,B|132:112|160:72|224:104,1,140,6|0,0:0|0:0,0:0:0:0:
368,164,103200,2,0,P|388:92|356:32,1,140,10|2,0:0|0:0,0:0:0:0:
276,48,103700,1,10,0:0:0:0:
213,99,103867,6,0,L|133:99,2,70,2|8|0,0:0|0:0|0:0,0:0:0:0:
276,48,104367,1,0,0:0:0:0:
344,100,104534,2,0,P|412:108|468:60,1,140,10|8,0:0|0:0,0:0:0:0:
388,28,105034,1,8,0:0:0:0:
388,28,105200,6,0,L|432:172,2,140,6|8|0,0:0|0:0|3:0,0:0:0:0:
304,20,106034,1,0,3:0:0:0:
304,20,106200,1,8,0:0:0:0:
244,96,106367,6,0,P|180:120|108:92,1,140,6|0,0:0|0:0,0:0:0:0:
44,56,106867,2,0,P|36:92|40:132,1,70,8|0,0:0|0:0,0:0:0:0:
100,180,107200,2,0,P|108:220|100:260,1,70,0|0,3:0|3:0,0:0:0:0:
44,308,107534,1,8,0:0:0:0:
124,332,107700,1,8,0:0:0:0:
140,332,107784,1,8,0:0:0:0:
152,332,107867,6,0,P|192:332|224:324,1,70,6|0,0:0|0:0,0:0:0:0:
300,356,108200,2,0,P|320:308|320:280,1,70,8|0,0:0|0:0,0:0:0:0:
400,264,108534,2,0,P|384:224|360:196,2,70,0|0|8,3:0|3:0|0:0,0:0:0:0:
472,332,109034,6,0,P|500:276|492:196,1,140,6|0,0:0|0:0,0:0:0:0:
448,128,109534,2,0,L|372:128,1,70,8|0,0:0|0:0,0:0:0:0:
296,152,109867,2,0,P|260:156|220:148,1,70,10|2,0:0|0:0,0:0:0:0:
160,100,110200,1,10,0:0:0:0:
84,136,110367,1,10,0:0:0:0:
76,148,110450,1,8,0:0:0:0:
72,160,110534,6,0,P|68:208|76:244,1,70,14|0,0:0|0:0,0:0:0:0:
16,292,110867,2,0,P|52:312|96:320,1,70,8|0,0:0|0:0,0:0:0:0:
136,380,111200,2,0,P|168:364|200:328,2,70,0|0|8,3:0|3:0|0:0,0:0:0:0:
144,284,111700,6,0,B|176:252|176:252|220:216|220:216|240:184,1,140,6|0,0:0|0:0,0:0:0:0:
252,100,112200,1,8,0:0:0:0:
352,96,112367,6,0,B|348:144|348:144|360:196|360:196|360:240,1,140,6|0,0:0|0:0,0:0:0:0:
316,308,112867,1,8,0:0:0:0:
316,308,112950,1,0,0:0:0:0:
316,308,113034,1,0,0:0:0:0:
236,364,113200,6,0,P|200:336|180:304,1,70,14|0,0:0|0:0,0:0:0:0:
164,236,113534,1,0,0:0:0:0:
224,160,113700,6,0,P|240:124|248:88,1,70,14|0,0:0|0:0,0:0:0:0:
212,16,114034,1,0,0:0:0:0:
308,32,114200,6,0,P|344:36|384:32,2,70,14|0|0,0:0|0:0|0:0,0:0:0:0:
212,16,114700,2,0,P|168:16|136:20,2,70,6|0|0,0:0|0:0|0:0,0:0:0:0:
240,108,115200,6,8,L|216:176,1,70,10|0,0:0|0:0,0:0:0:0:
168,244,115534,1,10,0:0:0:0:
168,244,115700,1,0,0:0:0:0:
80,200,115867,6,0,P|72:244|84:288,1,70,14|0,0:0|0:0,0:0:0:0:
132,332,116200,1,0,0:0:0:0:
228,312,116367,2,0,P|264:304|300:312,1,70,14|0,0:0|0:0,0:0:0:0:
360,364,116700,1,0,0:0:0:0:
412,280,116867,6,0,P|424:240|420:208,2,70,14|0|0,0:0|0:0|0:0,0:0:0:0:
328,228,117367,2,0,P|308:196|280:172,2,70,14|0|0,0:0|0:0|0:0,0:0:0:0:
412,280,117867,2,0,L|488:280,1,70,14|0,0:0|0:0,0:0:0:0:
460,360,118200,2,0,L|380:360,1,70,10|0,0:0|0:0,0:0:0:0:
300,316,118534,5,14,0:0:0:0:
256,192,118700,12,0,125200,0:0:0:0:
